<?xml version="1.0" standalone="no"?>
<!DOCTYPE svg PUBLIC "-//W3C//DTD SVG 1.1//EN" "http://www.w3.org/Graphics/SVG/1.1/DTD/svg11.dtd" >
<svg xmlns="http://www.w3.org/2000/svg" xmlns:xlink="http://www.w3.org/1999/xlink" version="1.1">
<metadata></metadata>
<defs>
<font id="latobold" horiz-adv-x="819" >
<font-face units-per-em="2048" ascent="1649" descent="-399" />
<missing-glyph horiz-adv-x="497" />
<glyph unicode="ff" horiz-adv-x="1397" d="M42 938v103h157v60q0 90 27 161.5t77.5 122t123.5 77t164 26.5q73 0 135 -20l-5 -126q-1 -14 -8 -23t-19 -14t-27.5 -6.5t-32.5 -1.5q-45 0 -80.5 -9.5t-60 -33.5t-37.5 -63.5t-13 -97.5v-52h419v94q0 90 27 161.5t78 121.5t123.5 77t163.5 27q36 0 69.5 -5t66.5 -14 l-7 -127q-2 -30 -27 -37.5t-59 -7.5q-45 0 -80 -9.5t-59.5 -33.5t-37.5 -63.5t-13 -98.5v-85h272v-180h-264v-861h-253v861h-410v-861h-253v860l-91 14q-30 6 -48 21t-18 43z" />
<glyph unicode="fi" horiz-adv-x="1229" d="M43 938v103h157v34q0 96 31.5 178.5t96 143t163.5 95t233 34.5q43 0 87.5 -4.5t77.5 -15.5l-8 -131q-2 -24 -26 -28.5t-58 -4.5q-99 0 -166.5 -17t-109 -51.5t-59.5 -86t-18 -120.5v-26h652v-1041h-253v861h-390v-861h-253v860l-91 14q-30 6 -48 21t-18 43z" />
<glyph unicode="fl" horiz-adv-x="1253" d="M43 938v103h157v44q0 84 26.5 161t80.5 136t137 94t196 35q87 0 164.5 -5.5t153.5 -6.5h167v-1499h-252v1323q-54 2 -105.5 5t-87.5 3q-115 0 -175.5 -64t-60.5 -182v-44h249v-180h-240v-861h-253v860l-91 14q-30 6 -48 21t-18 43z" />
<glyph unicode="ffi" horiz-adv-x="1893" d="M43 938v103h157v60q0 90 27 161.5t77.5 122t123.5 77t164 26.5q72 0 134 -20l-5 -126q-2 -30 -27 -37.5t-59 -7.5q-45 0 -80.5 -9.5t-60 -33.5t-37.5 -63.5t-13 -97.5v-52h418v34q0 96 32 178.5t96.5 143t163 95t232.5 34.5q43 0 88.5 -4.5t77.5 -15.5l-8 -131 q-2 -24 -25.5 -28.5t-58.5 -4.5q-99 0 -166 -17t-108.5 -51.5t-59.5 -86t-18 -120.5v-26h651v-1041h-253v861h-390v-861h-254v861h-409v-861h-253v860l-91 14q-30 6 -48 21t-18 43z" />
<glyph unicode="ffl" horiz-adv-x="1915" d="M42 938v103h157v60q0 90 27 161.5t77.5 122t123.5 77t164 26.5q73 0 135 -20l-5 -126q-1 -14 -8 -23t-19 -14t-27.5 -6.5t-32.5 -1.5q-45 0 -80.5 -9.5t-60 -33.5t-37.5 -63.5t-13 -97.5v-52h419v44q0 84 26.5 161t81 136t137.5 94t196 35q93 0 177 -6t167 -6h141v-1499 h-252v1323q-54 2 -106 5t-88 3q-115 0 -175 -64t-60 -182v-44h272v-180h-264v-861h-253v861h-410v-861h-253v860l-91 14q-30 6 -48 21t-18 43z" />
<glyph unicode="fb" horiz-adv-x="1911" d="M42 938v103h157v70q0 94 29 174t92 138t162.5 90.5t240.5 32.5q48 0 91 -3.5t87 -8t92.5 -8t108.5 -4.5h25v-601q63 68 141 107t177 39q91 0 164 -36t125 -103t79.5 -162t27.5 -214q0 -128 -31.5 -232.5t-90.5 -178.5t-142 -115t-184 -41q-49 0 -89.5 9.5t-74 27 t-61.5 42.5t-54 56l-11 -71q-6 -27 -21 -38t-41 -11h-167v1352q-39 13 -82 21.5t-84 8.5q-66 0 -115.5 -20.5t-82.5 -56.5t-50 -86t-17 -108v-70h274v-180h-265v-861h-253v860l-91 14q-30 6 -48 21t-18 43zM1127 272q43 -53 94 -74t107 -21q58 0 105 21t79.5 65.5t50 113.5 t17.5 166q0 173 -57 250t-165 77q-73 0 -127 -33t-104 -94v-471z" />
<glyph unicode="ffb" horiz-adv-x="2575" d="M42 938v103h157v60q0 90 27 161.5t77.5 122t123.5 77t164 26.5q73 0 135 -20l-5 -126q-1 -14 -8 -23t-19 -14t-27.5 -6.5t-32.5 -1.5q-45 0 -80.5 -9.5t-60 -33.5t-37.5 -63.5t-13 -97.5v-52h419v70q0 94 29.5 174t92.5 138t162 90.5t240 32.5q48 0 91.5 -3.5t87.5 -8 t92 -8t108 -4.5h25h1l-1 -1v-600q63 68 140.5 107t176.5 39q91 0 164.5 -36t125 -103t79.5 -162t28 -214q0 -128 -32 -232.5t-91 -178.5t-141.5 -115t-184.5 -41q-49 0 -89.5 9.5t-73.5 27t-61.5 42.5t-53.5 56l-12 -71q-6 -27 -20.5 -38t-40.5 -11h-167v1352 q-39 13 -82 21.5t-84 8.5q-66 0 -115.5 -20.5t-82 -56.5t-49.5 -86t-17 -108v-70h272v-180h-264v-861h-253v861h-410v-861h-253v860l-91 14q-30 6 -48 21t-18 43zM1790 272q43 -53 93.5 -74t107.5 -21q58 0 104.5 21t79.5 65.5t50.5 113.5t17.5 166q0 173 -57.5 250 t-165.5 77q-73 0 -127 -33t-103 -94v-471z" />
<glyph unicode="fh" horiz-adv-x="1904" d="M42 938v103h157v70q0 94 29 174t92 138t162.5 90.5t240.5 32.5q48 0 91 -3.5t87 -8t92.5 -8t108.5 -4.5h25v-585q61 58 135 94t174 36q86 0 152.5 -29t111 -82t67.5 -126t23 -161v-669h-253v669q0 96 -44 148.5t-134 52.5q-66 0 -123 -29.5t-109 -80.5v-760h-253v1352 q-39 13 -82 21.5t-84 8.5q-66 0 -115.5 -20.5t-82.5 -56.5t-50 -86t-17 -108v-70h274v-180h-265v-861h-253v860l-91 14q-30 6 -48 21t-18 43z" />
<glyph unicode="ffh" horiz-adv-x="2568" d="M42 938v103h157v60q0 90 27 161.5t77.5 122t123.5 77t164 26.5q73 0 135 -20l-5 -126q-1 -14 -8 -23t-19 -14t-27.5 -6.5t-32.5 -1.5q-45 0 -80.5 -9.5t-60 -33.5t-37.5 -63.5t-13 -97.5v-52h419v70q0 94 29.5 174t92.5 138t162 90.5t240 32.5q48 0 91.5 -3.5t87.5 -8 t92 -8t108 -4.5h25h1l-1 -1v-584q61 58 135 94t173 36q86 0 152.5 -29t111 -82t67.5 -126t23 -161v-669h-252v669q0 96 -44.5 148.5t-134.5 52.5q-66 0 -123 -29.5t-108 -80.5v-760h-253v1352q-39 13 -82 21.5t-84 8.5q-66 0 -115.5 -20.5t-82 -56.5t-49.5 -86t-17 -108v-70 h272v-180h-264v-861h-253v861h-410v-861h-253v860l-91 14q-30 6 -48 21t-18 43z" />
<glyph unicode="f&#xec;" horiz-adv-x="1229" d="M43 938v103h157v34q0 96 29.5 178.5t96.5 143t174.5 95t263.5 34.5q71 0 114 -23t63 -60l145 -249h-143q-29 0 -46.5 7.5t-37.5 28.5l-106 111q-85 -2 -144 -20t-95.5 -52.5t-53 -85t-16.5 -116.5v-26h652v-1041h-253v861h-390v-861h-253v860l-91 14q-30 6 -48 21t-18 43 z" />
<glyph unicode="f&#xee;" horiz-adv-x="1229" d="M43 938v103h157v120q0 84 21.5 149.5t62 110.5t99.5 69t136 24q28 0 50.5 -2.5t43.5 -9.5v-138q0 -19 -16.5 -26t-40.5 -7q-60 0 -86 -39t-26 -130v-121h652v-1041h-253v861h-390v-861h-253v860l-91 14q-30 6 -48 21t-18 43zM624 1196l234 285h238l234 -285h-169 q-14 0 -29 5.5t-29 20.5l-101 106q-11 10 -21 25q-11 -14 -22 -25l-102 -106q-12 -13 -27.5 -19.5t-30.5 -6.5h-175z" />
<glyph unicode="f&#x129;" horiz-adv-x="1229" d="M43 0zM43 938v103h157v120q0 84 21.5 149.5t62 110.5t99.5 69t136 24q28 0 50.5 -2.5t43.5 -9.5v-138q0 -19 -16.5 -26t-40.5 -7q-60 0 -86 -39t-26 -130v-121h652v-1041h-253v861h-390v-861h-253v860l-91 14q-30 6 -48 21t-18 43zM644 1222q0 57 16 103.5t44.5 80t67 52 t83.5 18.5q37 0 69 -13.5t60 -29t51.5 -28.5t43.5 -13q31 0 48.5 16.5t17.5 60.5h153q0 -57 -15.5 -103.5t-43.5 -80t-66.5 -51t-84.5 -17.5q-37 0 -68.5 13t-59 28.5t-51.5 28.5t-45 13q-30 0 -46.5 -17.5t-16.5 -60.5h-157z" />
<glyph unicode="f&#xef;" horiz-adv-x="1229" d="M43 938v103h157v120q0 84 21.5 149.5t62 110.5t99.5 69t136 24q28 0 50.5 -2.5t43.5 -9.5v-138q0 -19 -16.5 -26t-40.5 -7q-60 0 -86 -39t-26 -130v-121h652v-1041h-253v861h-390v-861h-253v860l-91 14q-30 6 -48 21t-18 43zM650 1323q0 30 11.5 56t30.5 45.5t44 30.5 t52 11q30 0 56 -11t45.5 -30.5t31 -45.5t11.5 -56q0 -29 -11.5 -54t-31 -43.5t-45.5 -29t-56 -10.5q-28 0 -52.5 10.5t-43.5 29t-30.5 43.5t-11.5 54zM1007 1323q0 30 11 56t30 45.5t44.5 30.5t55.5 11q29 0 55 -11t45 -30.5t30 -45.5t11 -56q0 -29 -11 -54t-30 -43.5 t-45 -29t-55 -10.5q-30 0 -55.5 10.5t-44.5 29t-30 43.5t-11 54z" />
<glyph unicode="f&#x12b;" horiz-adv-x="1229" d="M43 0zM43 938v103h157v120q0 84 21.5 149.5t62 110.5t99.5 69t136 24q28 0 50.5 -2.5t43.5 -9.5v-138q0 -19 -16.5 -26t-40.5 -7q-60 0 -86 -39t-26 -130v-121h652v-1041h-253v861h-390v-861h-253v860l-91 14q-30 6 -48 21t-18 43zM663 1243v162h613v-162h-613z" />
<glyph unicode="f&#x12d;" horiz-adv-x="1229" d="M43 0zM43 938v103h157v120q0 84 21.5 149.5t62 110.5t99.5 69t136 24q28 0 50.5 -2.5t43.5 -9.5v-138q0 -19 -16.5 -26t-40.5 -7q-60 0 -86 -39t-26 -130v-121h652v-1041h-253v861h-390v-861h-253v860l-91 14q-30 6 -48 21t-18 43zM660 1481h178q0 -31 5.5 -55.5 t20 -41.5t40.5 -26t66 -9t65.5 9t40 26t20.5 41.5t6 55.5h177q0 -59 -15.5 -112.5t-52 -93.5t-95.5 -63t-146 -23q-88 0 -147 23t-95.5 63t-52 93t-15.5 113z" />
<glyph unicode="f&#x12f;" horiz-adv-x="1229" d="M43 938v103h157v34q0 96 31.5 178.5t96 143t163.5 95t233 34.5q43 0 87.5 -4.5t77.5 -15.5l-8 -131q-2 -24 -26 -28.5t-58 -4.5q-99 0 -166.5 -17t-109 -51.5t-59.5 -86t-18 -120.5v-26h652v-1041h-30q-20 -11 -39.5 -25.5t-35 -32.5t-25 -38.5t-9.5 -42.5 q0 -31 19.5 -49t54.5 -18q19 0 31.5 2t20.5 5t13.5 5.5t10.5 2.5q18 0 23 -17l39 -93q-34 -23 -84.5 -37.5t-106.5 -14.5q-100 0 -154.5 42t-54.5 108q0 56 37.5 108.5t106.5 94.5h-70v861h-390v-861h-253v860l-91 14q-30 6 -48 21t-18 43z" />
<glyph unicode="f&#x131;" horiz-adv-x="1229" d="M43 938v103h157v120q0 84 21.5 149.5t62 110.5t99.5 69t136 24q28 0 50.5 -2.5t43.5 -9.5v-138q0 -19 -16.5 -26t-40.5 -7q-60 0 -86 -39t-26 -130v-121h652v-1041h-253v861h-390v-861h-253v860l-91 14q-30 6 -48 21t-18 43z" />
<glyph unicode="ff&#xec;" horiz-adv-x="1892" d="M42 938v103h158v60q0 90 27 161.5t77.5 122t123.5 77t164 26.5q72 0 134 -20l-5 -126q-2 -30 -27 -37.5t-59 -7.5q-45 0 -80.5 -9.5t-60 -33.5t-37.5 -63.5t-13 -97.5v-52h418v94q0 90 31.5 162t95.5 121.5t161.5 76.5t231.5 27q94 0 143 -13t63 -40l161 -275h-143 q-30 0 -48 7.5t-36 28.5l-116 122h-23q-75 0 -127 -13t-85 -40.5t-48.5 -70t-15.5 -102.5v-85h651v-1041h-253v861h-390v-861h-253v861h-409v-861h-253v860l-92 14q-30 6 -48 21t-18 43z" />
<glyph unicode="ff&#xee;" horiz-adv-x="1892" d="M43 0zM43 938v103h157v60q0 90 27 161.5t77.5 122t123.5 77t164 26.5q72 0 134 -20l-5 -126q-2 -30 -27 -37.5t-59 -7.5q-45 0 -80.5 -9.5t-60 -33.5t-37.5 -63.5t-13 -97.5v-52h418v120q0 84 21.5 149.5t62.5 110.5t100.5 69t135.5 24q29 0 50.5 -2.5t43.5 -9.5v-138 q0 -19 -16.5 -26t-40.5 -7q-59 0 -85 -39t-26 -130v-121h651v-1041h-253v861h-390v-861h-254v861h-409v-861h-253v860l-91 14q-30 6 -48 21t-18 43zM1284 1196l235 285h237l235 -285h-169q-14 0 -29 5.5t-29 20.5l-101 106q-11 10 -21 25q-11 -14 -22 -25l-102 -106 q-12 -13 -27.5 -19.5t-31.5 -6.5h-175z" />
<glyph unicode="ff&#x129;" horiz-adv-x="1892" d="M43 0zM43 938v103h157v60q0 90 27 161.5t77.5 122t123.5 77t164 26.5q72 0 134 -20l-5 -126q-2 -30 -27 -37.5t-59 -7.5q-45 0 -80.5 -9.5t-60 -33.5t-37.5 -63.5t-13 -97.5v-52h418v120q0 84 21.5 149.5t62.5 110.5t100.5 69t135.5 24q29 0 50.5 -2.5t43.5 -9.5v-138 q0 -19 -16.5 -26t-40.5 -7q-59 0 -85 -39t-26 -130v-121h651v-1041h-253v861h-390v-861h-254v861h-409v-861h-253v860l-91 14q-30 6 -48 21t-18 43zM1310 1222q0 57 16 103.5t44.5 80t67 52t83.5 18.5q37 0 69 -13.5t60 -29t51.5 -28.5t43.5 -13q31 0 48.5 16.5t17.5 60.5 h153q0 -57 -15.5 -103.5t-43.5 -80t-66.5 -51t-84.5 -17.5q-37 0 -68.5 13t-59 28.5t-51.5 28.5t-45 13q-30 0 -46.5 -17.5t-16.5 -60.5h-157z" />
<glyph unicode="ff&#xef;" horiz-adv-x="1892" d="M43 938v103h157v60q0 90 27 161.5t77.5 122t123.5 77t164 26.5q72 0 134 -20l-5 -126q-2 -30 -27 -37.5t-59 -7.5q-45 0 -80.5 -9.5t-60 -33.5t-37.5 -63.5t-13 -97.5v-52h418v120q0 84 21.5 149.5t62.5 110.5t100.5 69t135.5 24q29 0 50.5 -2.5t43.5 -9.5v-138 q0 -19 -16.5 -26t-40.5 -7q-59 0 -85 -39t-26 -130v-121h651v-1041h-253v861h-390v-861h-254v861h-409v-861h-253v860l-91 14q-30 6 -48 21t-18 43zM1312 1323q0 30 11 56t30 45.5t44 30.5t53 11q30 0 56 -11t46 -30.5t31 -45.5t11 -56q0 -29 -11 -54t-31 -43.5t-46 -29 t-56 -10.5q-28 0 -53 10.5t-44 29t-30 43.5t-11 54zM1669 1323q0 30 11 56t30.5 45.5t44.5 30.5t54 11t55 -11t45 -30.5t30.5 -45.5t11.5 -56q0 -29 -11.5 -54t-30.5 -43.5t-45 -29t-55 -10.5q-30 0 -54.5 10.5t-44 29t-30.5 43.5t-11 54z" />
<glyph unicode="ff&#x12b;" horiz-adv-x="1892" d="M43 0zM43 938v103h157v60q0 90 27 161.5t77.5 122t123.5 77t164 26.5q72 0 134 -20l-5 -126q-2 -30 -27 -37.5t-59 -7.5q-45 0 -80.5 -9.5t-60 -33.5t-37.5 -63.5t-13 -97.5v-52h418v120q0 84 21.5 149.5t62.5 110.5t100.5 69t135.5 24q29 0 50.5 -2.5t43.5 -9.5v-138 q0 -19 -16.5 -26t-40.5 -7q-59 0 -85 -39t-26 -130v-121h651v-1041h-253v861h-390v-861h-254v861h-409v-861h-253v860l-91 14q-30 6 -48 21t-18 43zM1330 1243v162h613v-162h-613z" />
<glyph unicode="ff&#x12d;" horiz-adv-x="1892" d="M43 0zM43 938v103h157v60q0 90 27 161.5t77.5 122t123.5 77t164 26.5q72 0 134 -20l-5 -126q-2 -30 -27 -37.5t-59 -7.5q-45 0 -80.5 -9.5t-60 -33.5t-37.5 -63.5t-13 -97.5v-52h418v120q0 84 21.5 149.5t62.5 110.5t100.5 69t135.5 24q29 0 50.5 -2.5t43.5 -9.5v-138 q0 -19 -16.5 -26t-40.5 -7q-59 0 -85 -39t-26 -130v-121h651v-1041h-253v861h-390v-861h-254v861h-409v-861h-253v860l-91 14q-30 6 -48 21t-18 43zM1327 1481h178q0 -31 5.5 -55.5t20 -41.5t40.5 -26t66 -9t65.5 9t40 26t20.5 41.5t6 55.5h177q0 -59 -15.5 -112.5 t-52 -93.5t-95.5 -63t-146 -23q-88 0 -147 23t-95.5 63t-52 93t-15.5 113z" />
<glyph unicode="ff&#x12f;" horiz-adv-x="1892" d="M43 938v103h157v60q0 90 27 161.5t77.5 122t123.5 77t164 26.5q72 0 134 -20l-5 -126q-2 -30 -27 -37.5t-59 -7.5q-45 0 -80.5 -9.5t-60 -33.5t-37.5 -63.5t-13 -97.5v-52h418v34q0 96 32 178.5t96.5 143t163 95t232.5 34.5q43 0 88.5 -4.5t77.5 -15.5l-8 -131 q-2 -24 -25.5 -28.5t-58.5 -4.5q-99 0 -166 -17t-108.5 -51.5t-59.5 -86t-18 -120.5v-26h651v-1041h-25q-20 -11 -40 -25.5t-35 -32.5t-24.5 -38.5t-9.5 -42.5q0 -31 19.5 -49t54.5 -18q19 0 31.5 2t20 5t13 5.5t11.5 2.5q18 0 23 -17l39 -93q-34 -23 -84.5 -37.5 t-106.5 -14.5q-100 0 -154.5 42t-54.5 108q0 56 37 108.5t107 94.5h-75v861h-390v-861h-254v861h-409v-861h-253v860l-91 14q-30 6 -48 21t-18 43z" />
<glyph unicode="ff&#x131;" horiz-adv-x="1893" d="M43 938v103h157v60q0 90 27 161.5t77.5 122t123.5 77t164 26.5q72 0 134 -20l-5 -126q-2 -30 -27 -37.5t-59 -7.5q-45 0 -80.5 -9.5t-60 -33.5t-37.5 -63.5t-13 -97.5v-52h418v120q0 84 21.5 149.5t62.5 110.5t100.5 69t135.5 24q29 0 50.5 -2.5t43.5 -9.5v-138 q0 -19 -16.5 -26t-40.5 -7q-59 0 -85 -39t-26 -130v-121h651v-1041h-253v861h-390v-861h-254v861h-409v-861h-253v860l-91 14q-30 6 -48 21t-18 43z" />
<glyph unicode="fj" horiz-adv-x="1229" d="M43 938v103h157v34q0 96 31.5 178.5t96 143t163.5 95t233 34.5q43 0 87.5 -4.5t77.5 -15.5l-8 -131q-2 -24 -26 -28.5t-58 -4.5q-99 0 -166.5 -17t-109 -51.5t-59.5 -86t-18 -120.5v-26h652v-1077q0 -69 -18 -129t-57.5 -105.5t-103.5 -72t-156 -26.5q-36 0 -66.5 5 t-62.5 15l9 136q2 20 15.5 26t52.5 6q38 0 63.5 7.5t41 24.5t22.5 44.5t7 68.5v897h-390v-861h-253v860l-91 14q-30 6 -48 21t-18 43z" />
<glyph unicode="ffj" horiz-adv-x="1893" d="M43 938v103h157v60q0 90 27 161.5t77.5 122t123.5 77t164 26.5q72 0 134 -20l-5 -126q-2 -30 -27 -37.5t-59 -7.5q-45 0 -80.5 -9.5t-60 -33.5t-37.5 -63.5t-13 -97.5v-52h418v34q0 96 32 178.5t96.5 143t163 95t232.5 34.5q43 0 88.5 -4.5t77.5 -15.5l-8 -131 q-2 -24 -25.5 -28.5t-58.5 -4.5q-99 0 -166 -17t-108.5 -51.5t-59.5 -86t-18 -120.5v-26h651v-1077q0 -69 -18 -129t-57 -105.5t-103 -72t-157 -26.5q-36 0 -66.5 5t-62.5 15l9 136q3 20 16 26t51 6t64 7.5t42 24.5t22.5 44.5t6.5 68.5v897h-390v-861h-254v861h-409v-861 h-253v860l-91 14q-30 6 -48 21t-18 43z" />
<glyph unicode="fk" horiz-adv-x="1843" d="M42 938v103h157v70q0 94 29 174t92 138t162.5 90.5t240.5 32.5q51 0 96 -4t91.5 -8.5t99 -8t117.5 -3.5v-872h48q26 0 40.5 7t29.5 27l261 323q16 22 36.5 33t51.5 11h232l-327 -391q-35 -46 -76 -70q22 -15 39 -35.5t32 -44.5l350 -510h-228q-30 0 -51.5 9.5t-35.5 35.5 l-268 398q-14 24 -30 31t-46 7h-58v-481h-253v1352q-39 13 -82 21.5t-84 8.5q-66 0 -115.5 -20.5t-82.5 -56.5t-50 -86t-17 -108v-70h274v-180h-265v-861h-253v860l-91 14q-30 6 -48 21t-18 43z" />
<glyph unicode="ffk" horiz-adv-x="2507" d="M43 938v103h157v60q0 90 27 161.5t77.5 122t123.5 77t164 26.5q72 0 134 -20l-5 -126q-2 -30 -27 -37.5t-59 -7.5q-45 0 -80.5 -9.5t-60 -33.5t-37.5 -63.5t-13 -97.5v-52h418v70q0 94 29.5 174t92.5 138t162.5 90.5t241.5 32.5q50 0 95 -4t91.5 -8.5t98.5 -8t118 -3.5 v-872h47q26 0 40.5 7t30.5 27l261 323q16 22 36 33t52 11h231l-326 -391q-35 -46 -76 -70q22 -15 38.5 -35.5t32.5 -44.5l350 -510h-229q-30 0 -51 9.5t-36 35.5l-268 398q-14 24 -29.5 31t-46.5 7h-57v-481h-253v1352q-39 13 -82 21.5t-84 8.5q-66 0 -115.5 -20.5 t-82 -56.5t-49.5 -86t-17 -108v-70h272v-180h-264v-861h-254v861h-409v-861h-253v860l-91 14q-30 6 -48 21t-18 43z" />
<glyph unicode="ft" horiz-adv-x="1448" d="M42 938v103h157v78q0 90 27 162t77.5 122t123.5 76.5t164 26.5q73 0 135 -19l-5 -127q-1 -14 -8 -23t-19 -13.5t-27.5 -6t-32.5 -1.5q-45 0 -80.5 -10t-60 -34t-37.5 -63.5t-13 -97.5v-70h447l54 288q5 20 19.5 31.5t36.5 11.5h132v-331h280v-180h-280v-569 q0 -49 24.5 -77t65.5 -28q24 0 39.5 6t27 12t21 11.5t18.5 5.5q11 0 18.5 -5.5t15.5 -16.5l76 -123q-55 -46 -126.5 -69.5t-148.5 -23.5q-137 0 -210.5 77t-73.5 213v587h-427v-861h-253v860l-91 14q-30 6 -48 21t-18 43z" />
<glyph unicode="fft" horiz-adv-x="2112" d="M43 938v103h157v60q0 90 27 161.5t77.5 122t123.5 77t164 26.5q72 0 134 -20l-5 -126q-2 -30 -27 -37.5t-59 -7.5q-45 0 -80.5 -9.5t-60 -33.5t-37.5 -63.5t-13 -97.5v-52h418v78q0 90 27 162t78.5 122t124 76.5t163.5 26.5q72 0 135 -19l-6 -127q-2 -30 -27 -37t-59 -7 q-45 0 -80 -10t-59.5 -34t-37.5 -63.5t-13 -97.5v-70h445l55 288q5 20 19 31.5t38 11.5h130v-331h281v-180h-281v-569q0 -49 24.5 -77t66.5 -28q23 0 39.5 6t28 12t20.5 11.5t19 5.5q11 0 18 -5.5t15 -16.5l76 -123q-55 -46 -126.5 -69.5t-148.5 -23.5q-137 0 -211 77 t-74 213v587h-426v-861h-254v861h-409v-861h-253v860l-91 14q-30 6 -48 21t-18 43z" />
<glyph unicode="tf" horiz-adv-x="1439" d="M35 914v101l169 27l53 287q5 20 19.5 31.5t36.5 11.5h131v-331h458v78q0 90 27 162t78 122t123.5 76.5t163.5 26.5q73 0 136 -19l-6 -127q-1 -14 -8 -23t-19 -13.5t-27 -6t-33 -1.5q-45 0 -80 -10t-60 -34t-37.5 -63.5t-12.5 -97.5v-70h273v-180h-265v-861h-253v861h-458 v-569q0 -49 24.5 -77t66.5 -28q24 0 39.5 6t27 12t21 11.5t18.5 5.5q11 0 18.5 -5.5t15.5 -16.5l76 -123q-55 -46 -127 -69.5t-149 -23.5q-137 0 -210.5 77t-73.5 213v587h-107q-20 0 -34.5 13.5t-14.5 39.5z" />
<glyph unicode="t&#x12f;" horiz-adv-x="1318" d="M36 914v101l168 27l54 287q5 20 19 31.5t37 11.5h130v-331h741v-1041h-22q-20 -11 -39.5 -25.5t-35 -32.5t-24.5 -38.5t-9 -42.5q0 -31 19.5 -49t53.5 -18q19 0 31.5 2t20.5 5t13.5 5.5t10.5 2.5q18 0 24 -17l38 -93q-33 -23 -83.5 -37.5t-107.5 -14.5q-100 0 -154.5 42 t-54.5 108q0 56 37.5 108.5t107.5 94.5h-79v861h-488v-569q0 -49 25 -77t67 -28q23 0 39 6t27.5 12t21 11.5t18.5 5.5q11 0 18.5 -5.5t15.5 -16.5l76 -123q-55 -46 -127 -69.5t-149 -23.5q-137 0 -211 77t-74 213v587h-106q-20 0 -34.5 13.5t-14.5 39.5zM897 1357 q0 34 13 63.5t34.5 51t50 34.5t61.5 13q34 0 64 -13t52 -34.5t35.5 -51t13.5 -63.5q0 -33 -13.5 -61.5t-35.5 -50t-52 -34.5t-64 -13q-33 0 -61.5 13t-50 34.5t-34.5 50t-13 61.5z" />
<glyph unicode="t&#x131;" horiz-adv-x="1318" d="M35 914v101l169 27l53 287q5 20 19.5 31.5t36.5 11.5h131v-331h741v-1041h-253v861h-488v-569q0 -49 24.5 -77t66.5 -28q24 0 39.5 6t27 12t21 11.5t18.5 5.5q11 0 18.5 -5.5t15.5 -16.5l76 -123q-55 -46 -127 -69.5t-149 -23.5q-137 0 -210.5 77t-73.5 213v587h-107 q-20 0 -34.5 13.5t-14.5 39.5z" />
<glyph unicode="tt" horiz-adv-x="1439" d="M35 914v101l169 27l53 287q5 20 19.5 31.5t36.5 11.5h131v-331h438l54 288q5 20 19 31.5t37 11.5h130v-331h281v-180h-281v-569q0 -49 24.5 -77t66.5 -28q23 0 39.5 6t28 12t21 11.5t18.5 5.5q11 0 18.5 -5.5t15.5 -16.5l76 -123q-55 -46 -127 -69.5t-149 -23.5 q-137 0 -211 77t-74 213v587h-425v-569q0 -49 24.5 -77t66.5 -28q24 0 39.5 6t27 12t21 11.5t18.5 5.5q11 0 18.5 -5.5t15.5 -16.5l76 -123q-55 -46 -127 -69.5t-149 -23.5q-137 0 -210.5 77t-73.5 213v587h-107q-20 0 -34.5 13.5t-14.5 39.5z" />
<glyph unicode="ttf" horiz-adv-x="2117" d="M35 914v101l169 27l53 287q5 20 19.5 31.5t36.5 11.5h131v-331h438l54 288q5 20 19 31.5t37 11.5h130v-331h459v78q0 90 27 162t78 122t123.5 76.5t163.5 26.5q71 0 135 -19l-6 -127q-2 -30 -27 -37t-59 -7q-45 0 -80 -10t-60 -34t-37.5 -63.5t-12.5 -97.5v-70h272v-180 h-264v-861h-253v861h-459v-569q0 -49 24.5 -77t66.5 -28q23 0 39.5 6t28 12t21 11.5t18.5 5.5q11 0 18.5 -5.5t15.5 -16.5l76 -123q-55 -46 -127 -69.5t-149 -23.5q-137 0 -211 77t-74 213v587h-425v-569q0 -49 24.5 -77t66.5 -28q24 0 39.5 6t27 12t21 11.5t18.5 5.5 q11 0 18.5 -5.5t15.5 -16.5l76 -123q-55 -46 -127 -69.5t-149 -23.5q-137 0 -210.5 77t-73.5 213v587h-107q-20 0 -34.5 13.5t-14.5 39.5z" />
<glyph unicode="tt&#x12f;" horiz-adv-x="1977" d="M36 914v101l168 27l54 287q5 20 19 31.5t37 11.5h130v-331h438l54 288q5 20 19.5 31.5t36.5 11.5h131v-331h720v-1041h-19q-20 -11 -40 -25.5t-35 -32.5t-24.5 -38.5t-9.5 -42.5q0 -31 19.5 -49t54.5 -18q19 0 31.5 2t20 5t13.5 5.5t11 2.5q18 0 23 -17l39 -93 q-34 -23 -84.5 -37.5t-106.5 -14.5q-100 0 -154.5 42t-54.5 108q0 56 37.5 108.5t106.5 94.5h-81v861h-467v-569q0 -49 24.5 -77t65.5 -28q24 0 40.5 6t28 12t20.5 11.5t18 5.5q20 0 34 -22l77 -123q-55 -46 -127 -69.5t-149 -23.5q-137 0 -211 77t-74 213v587h-426v-569 q0 -49 25 -77t67 -28q23 0 39 6t27.5 12t21 11.5t18.5 5.5q11 0 18.5 -5.5t15.5 -16.5l76 -123q-55 -46 -127 -69.5t-149 -23.5q-137 0 -211 77t-74 213v587h-106q-20 0 -34.5 13.5t-14.5 39.5zM1554 1357q0 34 13 63.5t35 51t50.5 34.5t61.5 13q34 0 63.5 -13t52 -34.5 t36 -51t13.5 -63.5q0 -33 -13.5 -61.5t-36 -50t-52 -34.5t-63.5 -13q-33 0 -61.5 13t-50.5 34.5t-35 50t-13 61.5z" />
<glyph unicode="tt&#x131;" horiz-adv-x="1977" d="M35 914v101l169 27l53 287q5 20 19.5 31.5t36.5 11.5h131v-331h438l54 288q5 20 19 31.5t37 11.5h130v-331h720v-1041h-253v861h-467v-569q0 -49 24.5 -77t66.5 -28q23 0 39.5 6t28 12t21 11.5t18.5 5.5q11 0 18.5 -5.5t15.5 -16.5l76 -123q-55 -46 -127 -69.5 t-149 -23.5q-137 0 -211 77t-74 213v587h-425v-569q0 -49 24.5 -77t66.5 -28q24 0 39.5 6t27 12t21 11.5t18.5 5.5q11 0 18.5 -5.5t15.5 -16.5l76 -123q-55 -46 -127 -69.5t-149 -23.5q-137 0 -210.5 77t-73.5 213v587h-107q-20 0 -34.5 13.5t-14.5 39.5z" />
<glyph unicode="f&#x1d0;" horiz-adv-x="1229" d="M43 938v103h157v120q0 84 21.5 149.5t62 110.5t99.5 69t136 24q28 0 50.5 -2.5t43.5 -9.5v-138q0 -19 -16.5 -26t-40.5 -7q-60 0 -86 -39t-26 -130v-121h652v-1041h-253v861h-390v-861h-253v860l-91 14q-30 6 -48 21t-18 43zM646 1481h175q15 0 30.5 -5t20.5 -13l84 -113 q5 -9 11.5 -20t11.5 -22q10 24 21 42l84 113q5 8 20.5 13t31.5 5h169l-211 -285h-237z" />
<glyph unicode="f&#x209;" horiz-adv-x="1229" d="M43 938v103h157v120q0 85 26 150.5t72.5 110.5t111.5 68.5t144 23.5q43 0 73.5 -3.5t52.5 -11.5t38 -22t31 -34l182 -249h-120q-29 0 -47 7.5t-37 28.5l-95 100q-55 -2 -91.5 -10.5t-57.5 -27.5t-30 -51t-9 -79v-121h652v-1041h-253v861h-390v-861h-253v860l-91 14 q-30 6 -48 21t-18 43zM826 1497h165q41 0 62 -14t36 -40l130 -249h-105q-29 0 -47.5 7.5t-35.5 28.5z" />
<glyph unicode="f&#x20b;" horiz-adv-x="1229" d="M43 938v103h157v120q0 84 21.5 149.5t62 110.5t99.5 69t136 24q28 0 50.5 -2.5t43.5 -9.5v-138q0 -19 -16.5 -26t-40.5 -7q-60 0 -86 -39t-26 -130v-121h652v-1041h-253v861h-390v-861h-253v860l-91 14q-30 6 -48 21t-18 43zM667 1199q0 59 15.5 112.5t51.5 93.5t95.5 63 t147.5 23q87 0 146.5 -23t95.5 -63t51.5 -93.5t15.5 -112.5h-177q0 31 -6 55.5t-21 42t-40.5 26.5t-64.5 9q-40 0 -65.5 -9t-40.5 -26.5t-21 -42t-6 -55.5h-177z" />
<glyph unicode="f&#x1e2f;" horiz-adv-x="1229" d="M43 938v103h157v120q0 84 21.5 149.5t62 110.5t99.5 69t136 24q28 0 50.5 -2.5t43.5 -9.5v-138q0 -19 -16.5 -26t-40.5 -7q-60 0 -86 -39t-26 -130v-121h652v-1041h-253v861h-390v-861h-253v860l-91 14q-30 6 -48 21t-18 43zM674 1240q0 26 10 49.5t27 41t39.5 27.5 t48.5 10t48.5 -10t40.5 -27.5t28.5 -41t10.5 -49.5t-10.5 -48t-28.5 -38.5t-41 -26.5t-48 -10q-26 0 -48.5 10t-39.5 26.5t-27 38.5t-10 48zM879 1386l121 199q15 27 36 40.5t62 13.5h245l-229 -216q-20 -17 -43.5 -27t-55.5 -10h-136zM1029 1240q0 26 10 49.5t27 41 t39.5 27.5t49.5 10q26 0 49 -10t40 -27.5t27 -41t10 -49.5t-10 -48t-27 -38.5t-40 -26.5t-49 -10q-27 0 -49.5 10t-39.5 26.5t-27 38.5t-10 48z" />
<glyph unicode="ff&#x1d0;" horiz-adv-x="1892" d="M43 938v103h157v60q0 90 27 161.5t77.5 122t123.5 77t164 26.5q72 0 134 -20l-5 -126q-2 -30 -27 -37.5t-59 -7.5q-45 0 -80.5 -9.5t-60 -33.5t-37.5 -63.5t-13 -97.5v-52h418v120q0 84 21.5 149.5t62.5 110.5t100.5 69t135.5 24q29 0 50.5 -2.5t43.5 -9.5v-138 q0 -19 -16.5 -26t-40.5 -7q-59 0 -85 -39t-26 -130v-121h651v-1041h-253v861h-390v-861h-254v861h-409v-861h-253v860l-91 14q-30 6 -48 21t-18 43zM1303 1481h175q15 0 30.5 -5t20.5 -13l84 -113q5 -9 11 -20t11 -22q10 24 22 42l84 113q5 8 21 13t30 5h169l-211 -285h-237 z" />
<glyph unicode="ff&#x209;" horiz-adv-x="1892" d="M43 938v103h157v60q0 90 27 161.5t77.5 122t123.5 77t164 26.5q72 0 134 -20l-5 -126q-2 -30 -27 -37.5t-59 -7.5q-45 0 -80.5 -9.5t-60 -33.5t-37.5 -63.5t-13 -97.5v-52h418v120q0 84 23.5 149.5t69.5 110.5t114.5 69t157.5 24q43 0 73.5 -3.5t52.5 -11.5t38 -22 t30 -34l183 -249h-120q-29 0 -46.5 8t-37.5 28l-95 100q-55 -1 -93 -9.5t-61.5 -28t-33 -51.5t-9.5 -79v-121h651v-1041h-253v861h-390v-861h-254v861h-409v-861h-253v860l-91 14q-30 6 -48 21t-18 43zM1501 1497h164q42 0 62.5 -14t34.5 -40l130 -249h-103q-30 0 -49 7.5 t-35 28.5z" />
<glyph unicode="ff&#x20b;" horiz-adv-x="1892" d="M43 938v103h157v60q0 90 27 161.5t77.5 122t123.5 77t164 26.5q72 0 134 -20l-5 -126q-2 -30 -27 -37.5t-59 -7.5q-45 0 -80.5 -9.5t-60 -33.5t-37.5 -63.5t-13 -97.5v-52h418v120q0 84 21.5 149.5t62.5 110.5t100.5 69t135.5 24q29 0 50.5 -2.5t43.5 -9.5v-138 q0 -19 -16.5 -26t-40.5 -7q-59 0 -85 -39t-26 -130v-121h651v-1041h-253v861h-390v-861h-254v861h-409v-861h-253v860l-91 14q-30 6 -48 21t-18 43zM1316 1199q0 59 15.5 112.5t51.5 93.5t95 63t147 23q87 0 146.5 -23t96 -63t51.5 -93.5t15 -112.5h-177q0 31 -6 55.5 t-21 42t-40.5 26.5t-64.5 9q-40 0 -65.5 -9t-40.5 -26.5t-20.5 -42t-5.5 -55.5h-177z" />
<glyph unicode="ff&#x1e2f;" horiz-adv-x="1892" d="M43 938v103h157v60q0 90 27 161.5t77.5 122t123.5 77t164 26.5q72 0 134 -20l-5 -126q-2 -30 -27 -37.5t-59 -7.5q-45 0 -80.5 -9.5t-60 -33.5t-37.5 -63.5t-13 -97.5v-52h418v120q0 84 21.5 149.5t62.5 110.5t100.5 69t135.5 24q29 0 50.5 -2.5t43.5 -9.5v-138 q0 -19 -16.5 -26t-40.5 -7q-59 0 -85 -39t-26 -130v-121h651v-1041h-253v861h-390v-861h-254v861h-409v-861h-253v860l-91 14q-30 6 -48 21t-18 43zM1335 1240q0 26 10.5 49.5t27.5 41t39.5 27.5t46.5 10q26 0 49.5 -10t41.5 -27.5t28 -41t10 -49.5t-10 -48t-28 -38.5 t-41.5 -26.5t-49.5 -10q-25 0 -47 10t-39 26.5t-27.5 38.5t-10.5 48zM1540 1386l122 199q15 27 35 40.5t62 13.5h245l-229 -216q-20 -17 -44 -27t-56 -10h-135zM1690 1240q0 26 10 49.5t27 41t40 27.5t49 10t49 -10t40 -27.5t27.5 -41t10.5 -49.5t-10.5 -48t-27.5 -38.5 t-40.5 -26.5t-48.5 -10q-26 0 -49 10t-40 26.5t-27 38.5t-10 48z" />
<glyph unicode="f&#x237;" horiz-adv-x="1229" d="M43 938v103h157v120q0 84 21.5 149.5t62 110.5t99.5 69t136 24q28 0 50.5 -2.5t43.5 -9.5v-138q0 -19 -16.5 -26t-40.5 -7q-60 0 -86 -39t-26 -130v-121h652v-1077q0 -69 -18 -129t-57.5 -105.5t-103.5 -72t-156 -26.5q-36 0 -66.5 5t-62.5 15l9 136q2 20 15.5 26t52.5 6 q38 0 63.5 7.5t41 24.5t22.5 44.5t7 68.5v897h-390v-861h-253v860l-91 14q-30 6 -48 21t-18 43z" />
<glyph unicode="ff&#x237;" horiz-adv-x="1893" d="M43 938v103h157v60q0 90 27 161.5t77.5 122t123.5 77t164 26.5q72 0 134 -20l-5 -126q-2 -30 -27 -37.5t-59 -7.5q-45 0 -80.5 -9.5t-60 -33.5t-37.5 -63.5t-13 -97.5v-52h418v120q0 84 21.5 149.5t62.5 110.5t100.5 69t135.5 24q29 0 50.5 -2.5t43.5 -9.5v-138 q0 -19 -16.5 -26t-40.5 -7q-59 0 -85 -39t-26 -130v-121h651v-1077q0 -69 -18 -129t-57 -105.5t-103 -72t-157 -26.5q-36 0 -66.5 5t-62.5 15l9 136q3 20 16 26t51 6t64 7.5t42 24.5t22.5 44.5t6.5 68.5v897h-390v-861h-254v861h-409v-861h-253v860l-91 14q-30 6 -48 21 t-18 43z" />
<glyph unicode="f&#x135;" horiz-adv-x="1229" d="M43 0zM43 938v103h157v120q0 84 21.5 149.5t62 110.5t99.5 69t136 24q28 0 50.5 -2.5t43.5 -9.5v-138q0 -19 -16.5 -26t-40.5 -7q-60 0 -86 -39t-26 -130v-121h652v-1077q0 -69 -18 -129t-57.5 -105.5t-103.5 -72t-156 -26.5q-36 0 -66.5 5t-62.5 15l9 136q2 20 15.5 26 t52.5 6q38 0 63.5 7.5t41 24.5t22.5 44.5t7 68.5v897h-390v-861h-253v860l-91 14q-30 6 -48 21t-18 43zM618 1196l235 285h237l235 -285h-169q-14 0 -29 5.5t-29 20.5l-101 106q-11 10 -21 25q-11 -14 -22 -25l-102 -106q-12 -13 -27.5 -19.5t-31.5 -6.5h-175z" />
<glyph unicode="f&#x13e;" horiz-adv-x="1252" d="M43 0zM43 938v103h157v44q0 84 26.5 161t80.5 136t137 94t196 35q87 0 164.5 -5.5t153.5 -6.5h167v-1499h-252v1323q-54 2 -105.5 5t-87.5 3q-115 0 -175.5 -64t-60.5 -182v-44h249v-180h-240v-861h-253v860l-91 14q-30 6 -48 21t-18 43zM1230 1169l63 355h170 q29 0 35.5 -13t6.5 -25q0 -9 -3.5 -25t-14.5 -46.5t-30.5 -78t-49.5 -121.5q-13 -30 -34 -38t-53 -8h-90z" />
<glyph unicode="f&#x13c;" horiz-adv-x="1253" d="M43 0zM43 938v103h157v44q0 84 26.5 161t80.5 136t137 94t196 35q87 0 164.5 -5.5t153.5 -6.5h167v-1499h-252v1323q-54 2 -105.5 5t-87.5 3q-115 0 -175.5 -64t-60.5 -182v-44h249v-180h-240v-861h-253v860l-91 14q-30 6 -48 21t-18 43zM865 -397l51 305h155 q29 0 35.5 -13t6.5 -25q0 -9 -3 -25.5t-10 -42.5t-21.5 -64t-36.5 -90q-14 -29 -34.5 -37t-53.5 -8h-89z" />
<glyph unicode="f&#x21b;" horiz-adv-x="1448" d="M42 0zM42 938v103h157v78q0 90 27 162t77.5 122t123.5 76.5t164 26.5q73 0 135 -19l-5 -127q-1 -14 -8 -23t-19 -13.5t-27.5 -6t-32.5 -1.5q-45 0 -80.5 -10t-60 -34t-37.5 -63.5t-13 -97.5v-70h447l54 288q5 20 19.5 31.5t36.5 11.5h132v-331h280v-180h-280v-569 q0 -49 24.5 -77t65.5 -28q24 0 39.5 6t27 12t21 11.5t18.5 5.5q11 0 18.5 -5.5t15.5 -16.5l76 -123q-55 -46 -126.5 -69.5t-148.5 -23.5q-137 0 -210.5 77t-73.5 213v587h-427v-861h-253v860l-91 14q-30 6 -48 21t-18 43zM1004 -397l51 305h155q29 0 35.5 -13t6.5 -25 q0 -9 -3 -25.5t-10 -42.5t-21.5 -64t-36.5 -90q-14 -29 -34.5 -37t-53.5 -8h-89z" />
<glyph unicode="f&#x165;" horiz-adv-x="1448" d="M42 0zM42 938v103h157v78q0 90 27 162t77.5 122t123.5 76.5t164 26.5q73 0 135 -19l-5 -127q-1 -14 -8 -23t-19 -13.5t-27.5 -6t-32.5 -1.5q-45 0 -80.5 -10t-60 -34t-37.5 -63.5t-13 -97.5v-70h447l54 288q5 20 19.5 31.5t36.5 11.5h132v-331h280v-180h-280v-569 q0 -49 24.5 -77t65.5 -28q24 0 39.5 6t27 12t21 11.5t18.5 5.5q11 0 18.5 -5.5t15.5 -16.5l76 -123q-55 -46 -126.5 -69.5t-148.5 -23.5q-137 0 -210.5 77t-73.5 213v587h-427v-861h-253v860l-91 14q-30 6 -48 21t-18 43zM1302 1169l63 355h170q29 0 35.5 -13t6.5 -25 q0 -9 -3.5 -25t-14.5 -46.5t-30.5 -78t-49.5 -121.5q-13 -30 -34 -38t-53 -8h-90z" />
<glyph unicode="f&#x1ecb;" horiz-adv-x="1229" d="M43 0zM43 938v103h157v34q0 96 31.5 178.5t96 143t163.5 95t233 34.5q43 0 87.5 -4.5t77.5 -15.5l-8 -131q-2 -24 -26 -28.5t-58 -4.5q-99 0 -166.5 -17t-109 -51.5t-59.5 -86t-18 -120.5v-26h652v-1041h-253v861h-390v-861h-253v860l-91 14q-30 6 -48 21t-18 43z M828 -244q0 29 11.5 55t30.5 45t44.5 30.5t54.5 11.5t55.5 -11.5t45.5 -30.5t31 -45t12 -55t-12 -54.5t-31 -44.5t-46 -30.5t-55 -11.5q-29 0 -54.5 11.5t-44.5 30.5t-30.5 45t-11.5 54z" />
<glyph unicode="f&#x1e2d;" horiz-adv-x="1229" d="M43 0zM43 938v103h157v34q0 96 31.5 178.5t96 143t163.5 95t233 34.5q43 0 87.5 -4.5t77.5 -15.5l-8 -131q-2 -24 -26 -28.5t-58 -4.5q-99 0 -166.5 -17t-109 -51.5t-59.5 -86t-18 -120.5v-26h652v-1041h-253v861h-390v-861h-253v860l-91 14q-30 6 -48 21t-18 43z M641 -325q0 57 16 103.5t44.5 80t67 52t83.5 18.5q37 0 69 -13.5t60 -29t51.5 -28.5t43.5 -13q31 0 48.5 16.5t17.5 60.5h153q0 -57 -15.5 -103.5t-43.5 -80t-66.5 -51t-84.5 -17.5q-37 0 -68.5 13t-59 28.5t-51.5 28.5t-45 13q-30 0 -46.5 -17.5t-16.5 -60.5h-157z" />
<glyph unicode="f&#x268;" horiz-adv-x="1272" d="M43 938v103h157v34q0 96 31.5 178.5t96 143t163.5 95t233 34.5q43 0 87.5 -4.5t77.5 -15.5l-8 -131q-2 -24 -26 -28.5t-58 -4.5q-99 0 -166.5 -17t-109 -51.5t-59.5 -86t-18 -120.5v-26h652v-454h145v-179h-145v-408h-253v408h-140v179h140v274h-390v-861h-253v860 l-91 14q-30 6 -48 21t-18 43z" />
<glyph unicode="f&#xed;" horiz-adv-x="1229" d="M43 0zM43 938v103h157v120q0 84 21.5 149.5t62 110.5t99.5 69t136 24q28 0 50.5 -2.5t43.5 -9.5v-138q0 -19 -16.5 -26t-40.5 -7q-60 0 -86 -39t-26 -130v-121h652v-1041h-253v861h-390v-861h-253v860l-91 14q-30 6 -48 21t-18 43zM833 1194l146 249q15 27 35.5 40.5 t61.5 13.5h246l-253 -267q-19 -20 -37 -28t-47 -8h-152z" />
<glyph unicode="f&#x1ec9;" horiz-adv-x="1229" d="M43 0zM43 938v103h157v120q0 84 21.5 149.5t62 110.5t99.5 69t136 24q28 0 50.5 -2.5t43.5 -9.5v-138q0 -19 -16.5 -26t-40.5 -7q-60 0 -86 -39t-26 -130v-121h652v-1041h-253v861h-390v-861h-253v860l-91 14q-30 6 -48 21t-18 43zM745 1479q16 12 40 22.5t52 18t60 11.5 t64 4q106 0 157 -40t51 -101q0 -54 -35.5 -95t-89.5 -64l-22 -88h-121v153q53 7 71.5 26t18.5 40q0 22 -14.5 36t-47.5 14q-18 0 -34 -4t-28.5 -9t-23 -9t-19.5 -4q-11 0 -18 6t-15 16z" />
<glyph unicode="ff&#x1ecb;" horiz-adv-x="1893" d="M43 0zM43 938v103h157v60q0 90 27 161.5t77.5 122t123.5 77t164 26.5q72 0 134 -20l-5 -126q-2 -30 -27 -37.5t-59 -7.5q-45 0 -80.5 -9.5t-60 -33.5t-37.5 -63.5t-13 -97.5v-52h418v34q0 96 32 178.5t96.5 143t163 95t232.5 34.5q43 0 88.5 -4.5t77.5 -15.5l-8 -131 q-2 -24 -25.5 -28.5t-58.5 -4.5q-99 0 -166 -17t-108.5 -51.5t-59.5 -86t-18 -120.5v-26h651v-1041h-253v861h-390v-861h-254v861h-409v-861h-253v860l-91 14q-30 6 -48 21t-18 43zM1495 -244q0 29 11.5 55t30.5 45t44.5 30.5t54.5 11.5t55.5 -11.5t45.5 -30.5t31 -45 t12 -55t-12 -54.5t-31 -44.5t-46 -30.5t-55 -11.5q-29 0 -54.5 11.5t-44.5 30.5t-30.5 45t-11.5 54z" />
<glyph unicode="ff&#x1e2d;" horiz-adv-x="1893" d="M43 0zM43 938v103h157v60q0 90 27 161.5t77.5 122t123.5 77t164 26.5q72 0 134 -20l-5 -126q-2 -30 -27 -37.5t-59 -7.5q-45 0 -80.5 -9.5t-60 -33.5t-37.5 -63.5t-13 -97.5v-52h418v34q0 96 32 178.5t96.5 143t163 95t232.5 34.5q43 0 88.5 -4.5t77.5 -15.5l-8 -131 q-2 -24 -25.5 -28.5t-58.5 -4.5q-99 0 -166 -17t-108.5 -51.5t-59.5 -86t-18 -120.5v-26h651v-1041h-253v861h-390v-861h-254v861h-409v-861h-253v860l-91 14q-30 6 -48 21t-18 43zM1308 -325q0 57 16 103.5t44.5 80t67 52t83.5 18.5q37 0 69 -13.5t60 -29t51.5 -28.5 t43.5 -13q31 0 48.5 16.5t17.5 60.5h153q0 -57 -15.5 -103.5t-43.5 -80t-66.5 -51t-84.5 -17.5q-37 0 -68.5 13t-59 28.5t-51.5 28.5t-45 13q-30 0 -46.5 -17.5t-16.5 -60.5h-157z" />
<glyph unicode="ff&#x268;" horiz-adv-x="1939" d="M43 938v103h157v60q0 90 27 161.5t77.5 122t123.5 77t164 26.5q72 0 134 -20l-5 -126q-2 -30 -27 -37.5t-59 -7.5q-45 0 -80.5 -9.5t-60 -33.5t-37.5 -63.5t-13 -97.5v-52h418v34q0 96 32 178.5t96.5 143t163 95t232.5 34.5q43 0 88.5 -4.5t77.5 -15.5l-8 -131 q-2 -24 -25.5 -28.5t-58.5 -4.5q-99 0 -166 -17t-108.5 -51.5t-59.5 -86t-18 -120.5v-26h651v-454h148v-179h-148v-408h-253v408h-137v179h137v274h-390v-861h-254v861h-409v-861h-253v860l-91 14q-30 6 -48 21t-18 43z" />
<glyph unicode="ff&#xed;" horiz-adv-x="1892" d="M43 0zM43 938v103h157v60q0 90 27 161.5t77.5 122t123.5 77t164 26.5q72 0 134 -20l-5 -126q-2 -30 -27 -37.5t-59 -7.5q-45 0 -80.5 -9.5t-60 -33.5t-37.5 -63.5t-13 -97.5v-52h418v120q0 84 21.5 149.5t62.5 110.5t100.5 69t135.5 24q29 0 50.5 -2.5t43.5 -9.5v-138 q0 -19 -16.5 -26t-40.5 -7q-59 0 -85 -39t-26 -130v-121h651v-1041h-253v861h-390v-861h-254v861h-409v-861h-253v860l-91 14q-30 6 -48 21t-18 43zM1501 1194l146 249q15 27 35.5 40.5t61.5 13.5h246l-253 -267q-19 -20 -37 -28t-47 -8h-152z" />
<glyph unicode="ff&#x1ec9;" horiz-adv-x="1883" d="M43 0zM43 938v103h157v60q0 90 27 161.5t77.5 122t123.5 77t164 26.5q72 0 134 -20l-5 -126q-2 -30 -27 -37.5t-59 -7.5q-45 0 -80.5 -9.5t-60 -33.5t-37.5 -63.5t-13 -97.5v-52h418v120q0 84 21.5 149.5t62.5 110.5t100.5 69t135.5 24q29 0 50.5 -2.5t43.5 -9.5v-138 q0 -19 -16.5 -26t-40.5 -7q-59 0 -85 -39t-26 -130v-121h651v-1041h-253v861h-390v-861h-254v861h-409v-861h-253v860l-91 14q-30 6 -48 21t-18 43zM1413 1479q16 12 40 22.5t52 18t60 11.5t64 4q106 0 157 -40t51 -101q0 -54 -35.5 -95t-89.5 -64l-22 -88h-121v153 q53 7 71.5 26t18.5 40q0 22 -14.5 36t-47.5 14q-18 0 -34 -4t-28.5 -9t-23 -9t-19.5 -4q-11 0 -18 6t-15 16z" />
<glyph unicode="f&#x13a;" horiz-adv-x="1253" d="M43 0zM43 938v103h157v44q0 84 26.5 161t80.5 136t137 94t196 35q87 0 164.5 -5.5t153.5 -6.5h167v-1499h-252v1323q-54 2 -105.5 5t-87.5 3q-115 0 -175.5 -64t-60.5 -182v-44h249v-180h-240v-861h-253v860l-91 14q-30 6 -48 21t-18 43zM832 1586l214 278 q10 14 20.5 22.5t22.5 13t27 5.5t35 1h282l-332 -293q-20 -18 -38.5 -22.5t-47.5 -4.5h-183z" />
<glyph unicode="ti" horiz-adv-x="1317" d="M35 0zM35 914v101l169 27l53 287q5 20 19.5 31.5t36.5 11.5h131v-331h741v-1041h-253v861h-488v-569q0 -49 24.5 -77t66.5 -28q24 0 39.5 6t27 12t21 11.5t18.5 5.5q11 0 18.5 -5.5t15.5 -16.5l76 -123q-55 -46 -127 -69.5t-149 -23.5q-137 0 -210.5 77t-73.5 213v587 h-107q-20 0 -34.5 13.5t-14.5 39.5zM905 1361q0 34 12.5 63t34 51t50.5 35t62 13q34 0 64 -13t52 -35t35 -51t13 -63q0 -33 -13 -62t-35 -50.5t-52.5 -34.5t-63.5 -13t-62 13t-50.5 34.5t-34 50.5t-12.5 62z" />
<glyph unicode="t&#xec;" horiz-adv-x="1317" d="M35 0zM35 914v101l169 27l53 287q5 20 19.5 31.5t36.5 11.5h131v-331h741v-1041h-253v861h-488v-569q0 -49 24.5 -77t66.5 -28q24 0 39.5 6t27 12t21 11.5t18.5 5.5q11 0 18.5 -5.5t15.5 -16.5l76 -123q-55 -46 -127 -69.5t-149 -23.5q-137 0 -210.5 77t-73.5 213v587 h-107q-20 0 -34.5 13.5t-14.5 39.5zM738 1497h236q42 0 62.5 -14t35.5 -40l146 -249h-144q-29 0 -47 7.5t-36 28.5z" />
<glyph unicode="t&#xed;" horiz-adv-x="1316" d="M34 0zM34 914v101l169 27l53 287q5 20 19.5 31.5t36.5 11.5h131v-331h741v-1041h-253v861h-488v-569q0 -49 24.5 -77t66.5 -28q24 0 39.5 6t27 12t21 11.5t18.5 5.5q11 0 18.5 -5.5t15.5 -16.5l76 -123q-55 -46 -127 -69.5t-149 -23.5q-137 0 -210.5 77t-73.5 213v587 h-107q-20 0 -34.5 13.5t-14.5 39.5zM930 1194l146 249q15 27 35.5 40.5t61.5 13.5h246l-253 -267q-19 -20 -37 -28t-47 -8h-152z" />
<glyph unicode="t&#xee;" horiz-adv-x="1317" d="M35 0zM35 914v101l169 27l53 287q5 20 19.5 31.5t36.5 11.5h131v-331h741v-1041h-253v861h-488v-569q0 -49 24.5 -77t66.5 -28q24 0 39.5 6t27 12t21 11.5t18.5 5.5q11 0 18.5 -5.5t15.5 -16.5l76 -123q-55 -46 -127 -69.5t-149 -23.5q-137 0 -210.5 77t-73.5 213v587 h-107q-20 0 -34.5 13.5t-14.5 39.5zM712 1196l235 285h237l235 -285h-169q-14 0 -29 5.5t-29 20.5l-101 106q-11 10 -21 25q-11 -14 -22 -25l-102 -106q-12 -13 -27.5 -19.5t-31.5 -6.5h-175z" />
<glyph unicode="t&#xef;" horiz-adv-x="1317" d="M35 0zM35 914v101l169 27l53 287q5 20 19.5 31.5t36.5 11.5h131v-331h741v-1041h-253v861h-488v-569q0 -49 24.5 -77t66.5 -28q24 0 39.5 6t27 12t21 11.5t18.5 5.5q11 0 18.5 -5.5t15.5 -16.5l76 -123q-55 -46 -127 -69.5t-149 -23.5q-137 0 -210.5 77t-73.5 213v587 h-107q-20 0 -34.5 13.5t-14.5 39.5zM750 1323q0 30 11.5 56t31 45.5t44.5 30.5t52 11q29 0 55 -11t46 -30.5t31.5 -45.5t11.5 -56q0 -29 -11.5 -54t-31.5 -43.5t-46 -29t-55 -10.5q-28 0 -52.5 10.5t-44 29t-31 43.5t-11.5 54zM1098 1323q0 30 11.5 56t30.5 45.5t44.5 30.5 t54.5 11q30 0 56 -11t44.5 -30.5t30 -45.5t11.5 -56q0 -29 -11.5 -54t-30 -43.5t-45 -29t-55.5 -10.5t-54.5 10.5t-44.5 29t-30.5 43.5t-11.5 54z" />
<glyph unicode="t&#x12b;" horiz-adv-x="1317" d="M35 0zM35 914v101l169 27l53 287q5 20 19.5 31.5t36.5 11.5h131v-331h741v-1041h-253v861h-488v-569q0 -49 24.5 -77t66.5 -28q24 0 39.5 6t27 12t21 11.5t18.5 5.5q11 0 18.5 -5.5t15.5 -16.5l76 -123q-55 -46 -127 -69.5t-149 -23.5q-137 0 -210.5 77t-73.5 213v587 h-107q-20 0 -34.5 13.5t-14.5 39.5zM759 1243v162h613v-162h-613z" />
<glyph unicode="t&#x129;" horiz-adv-x="1317" d="M34 0zM34 914v101l169 27l53 287q5 20 19.5 31.5t36.5 11.5h131v-331h741v-1041h-253v861h-488v-569q0 -49 24.5 -77t66.5 -28q24 0 39.5 6t27 12t21 11.5t18.5 5.5q11 0 18.5 -5.5t15.5 -16.5l76 -123q-55 -46 -127 -69.5t-149 -23.5q-137 0 -210.5 77t-73.5 213v587 h-107q-20 0 -34.5 13.5t-14.5 39.5zM739 1222q0 57 16 103.5t44.5 80t67 52t83.5 18.5q37 0 69 -13.5t60 -29t51.5 -28.5t43.5 -13q31 0 48.5 16.5t17.5 60.5h153q0 -57 -15.5 -103.5t-43.5 -80t-66.5 -51t-84.5 -17.5q-37 0 -68.5 13t-59 28.5t-51.5 28.5t-45 13 q-30 0 -46.5 -17.5t-16.5 -60.5h-157z" />
<glyph unicode="t&#x12d;" horiz-adv-x="1317" d="M35 0zM35 914v101l169 27l53 287q5 20 19.5 31.5t36.5 11.5h131v-331h741v-1041h-253v861h-488v-569q0 -49 24.5 -77t66.5 -28q24 0 39.5 6t27 12t21 11.5t18.5 5.5q11 0 18.5 -5.5t15.5 -16.5l76 -123q-55 -46 -127 -69.5t-149 -23.5q-137 0 -210.5 77t-73.5 213v587 h-107q-20 0 -34.5 13.5t-14.5 39.5zM756 1481h178q0 -31 5.5 -55.5t20 -41.5t40.5 -26t66 -9t65.5 9t40 26t20.5 41.5t6 55.5h177q0 -59 -15.5 -112.5t-52 -93.5t-95.5 -63t-146 -23q-88 0 -147 23t-95.5 63t-52 93t-15.5 113z" />
<glyph unicode="t&#x1d0;" horiz-adv-x="1317" d="M35 0zM35 914v101l169 27l53 287q5 20 19.5 31.5t36.5 11.5h131v-331h741v-1041h-253v861h-488v-569q0 -49 24.5 -77t66.5 -28q24 0 39.5 6t27 12t21 11.5t18.5 5.5q11 0 18.5 -5.5t15.5 -16.5l76 -123q-55 -46 -127 -69.5t-149 -23.5q-137 0 -210.5 77t-73.5 213v587 h-107q-20 0 -34.5 13.5t-14.5 39.5zM712 1481h175q15 0 29 -5.5t23 -12.5l108 -113q5 -5 11 -12t11 -14q10 13 22 26l108 113q8 6 22.5 12t28.5 6h169l-235 -285h-237z" />
<glyph unicode="t&#x1e2d;" horiz-adv-x="1317" d="M34 0zM34 914v101l169 27l53 287q5 20 19.5 31.5t36.5 11.5h131v-331h741v-1041h-253v861h-488v-569q0 -49 24.5 -77t66.5 -28q24 0 39.5 6t27 12t21 11.5t18.5 5.5q11 0 18.5 -5.5t15.5 -16.5l76 -123q-55 -46 -127 -69.5t-149 -23.5q-137 0 -210.5 77t-73.5 213v587 h-107q-20 0 -34.5 13.5t-14.5 39.5zM736 -325q0 57 16 103.5t44.5 80t67 52t83.5 18.5q37 0 69 -13.5t60 -29t51.5 -28.5t43.5 -13q31 0 48.5 16.5t17.5 60.5h153q0 -57 -15.5 -103.5t-43.5 -80t-66.5 -51t-84.5 -17.5q-37 0 -68.5 13t-59 28.5t-51.5 28.5t-45 13 q-30 0 -46.5 -17.5t-16.5 -60.5h-157zM904 1361q0 34 12.5 63t34 51t50.5 35t62 13q34 0 64 -13t52 -35t35 -51t13 -63q0 -33 -13 -62t-35 -50.5t-52.5 -34.5t-63.5 -13t-62 13t-50.5 34.5t-34 50.5t-12.5 62z" />
<glyph unicode="t&#x1e2f;" horiz-adv-x="1316" d="M34 0zM34 914v101l169 27l53 287q5 20 19.5 31.5t36.5 11.5h131v-331h741v-1041h-253v861h-488v-569q0 -49 24.5 -77t66.5 -28q24 0 39.5 6t27 12t21 11.5t18.5 5.5q11 0 18.5 -5.5t15.5 -16.5l76 -123q-55 -46 -127 -69.5t-149 -23.5q-137 0 -210.5 77t-73.5 213v587 h-107q-20 0 -34.5 13.5t-14.5 39.5zM716 1323q0 30 11.5 56t30.5 45.5t44 30.5t53 11q30 0 56 -11t46 -30.5t31 -45.5t11 -56q0 -29 -11 -54t-31 -43.5t-46.5 -29t-55.5 -10.5q-28 0 -53 10.5t-44 29t-30.5 43.5t-11.5 54zM973 1524l146 249q15 27 35.5 40.5t61.5 13.5h246 l-253 -267q-19 -20 -37 -28t-47 -8h-152zM1130 1323q0 30 11.5 56t30.5 45.5t44.5 30.5t53.5 11q30 0 56 -11t45 -30.5t30.5 -45.5t11.5 -56q0 -29 -11.5 -54t-30.5 -43.5t-45 -29t-56 -10.5q-29 0 -54 10.5t-44 29t-30.5 43.5t-11.5 54z" />
<glyph unicode="t&#x268;" horiz-adv-x="1374" d="M35 914v101l169 27l53 287q5 20 19.5 31.5t36.5 11.5h131v-331h741v-454h152v-179h-152v-408h-253v408h-132v179h132v274h-488v-569q0 -49 24.5 -77t66.5 -28q24 0 39.5 6t27 12t21 11.5t18.5 5.5q11 0 18.5 -5.5t15.5 -16.5l76 -123q-55 -46 -127 -69.5t-149 -23.5 q-137 0 -210.5 77t-73.5 213v587h-107q-20 0 -34.5 13.5t-14.5 39.5zM905 1361q0 34 13 63t34.5 51t50 35t61.5 13q34 0 64 -13t52 -35t35.5 -51t13.5 -63q0 -33 -13.5 -62t-35.5 -50.5t-52 -34.5t-64 -13q-33 0 -61.5 13t-50 34.5t-34.5 50.5t-13 62z" />
<glyph unicode="t&#x20b;" horiz-adv-x="1317" d="M35 0zM35 914v101l169 27l53 287q5 20 19.5 31.5t36.5 11.5h131v-331h741v-1041h-253v861h-488v-569q0 -49 24.5 -77t66.5 -28q24 0 39.5 6t27 12t21 11.5t18.5 5.5q11 0 18.5 -5.5t15.5 -16.5l76 -123q-55 -46 -127 -69.5t-149 -23.5q-137 0 -210.5 77t-73.5 213v587 h-107q-20 0 -34.5 13.5t-14.5 39.5zM756 1204q0 59 15.5 112.5t52 93.5t95.5 63t147 23q87 0 146 -23t95.5 -63t52 -93t15.5 -113h-177q0 31 -6 55.5t-20.5 42t-40 26.5t-65.5 9t-66 -9t-40.5 -26.5t-20 -42t-5.5 -55.5h-178z" />
<glyph unicode="t&#x209;" horiz-adv-x="1317" d="M35 0zM35 914v101l169 27l53 287q5 20 19.5 31.5t36.5 11.5h131v-331h741v-1041h-253v861h-488v-569q0 -49 24.5 -77t66.5 -28q24 0 39.5 6t27 12t21 11.5t18.5 5.5q11 0 18.5 -5.5t15.5 -16.5l76 -123q-55 -46 -127 -69.5t-149 -23.5q-137 0 -210.5 77t-73.5 213v587 h-107q-20 0 -34.5 13.5t-14.5 39.5zM574 1497h182q20 0 35 -3.5t25.5 -10.5t19 -17t18.5 -23l181 -249h-120q-29 0 -46.5 7.5t-36.5 28.5zM931 1497h164q42 0 62.5 -14t35.5 -40l130 -249h-104q-30 0 -48.5 7.5t-35.5 28.5z" />
<glyph unicode="tti" horiz-adv-x="1976" d="M35 0zM35 914v101l169 27l53 287q5 20 19.5 31.5t36.5 11.5h131v-331h438l54 288q5 20 19 31.5t37 11.5h130v-331h720v-1041h-253v861h-467v-569q0 -49 24.5 -77t66.5 -28q23 0 39.5 6t28 12t21 11.5t18.5 5.5q11 0 18.5 -5.5t15.5 -16.5l76 -123q-55 -46 -127 -69.5 t-149 -23.5q-137 0 -211 77t-74 213v587h-425v-569q0 -49 24.5 -77t66.5 -28q24 0 39.5 6t27 12t21 11.5t18.5 5.5q11 0 18.5 -5.5t15.5 -16.5l76 -123q-55 -46 -127 -69.5t-149 -23.5q-137 0 -210.5 77t-73.5 213v587h-107q-20 0 -34.5 13.5t-14.5 39.5zM1559 1361 q0 34 12.5 63t34 51t50.5 35t62 13q34 0 64 -13t52 -35t35 -51t13 -63q0 -33 -13 -62t-35 -50.5t-52.5 -34.5t-63.5 -13t-62 13t-50.5 34.5t-34 50.5t-12.5 62z" />
<glyph unicode="tt&#xec;" horiz-adv-x="1976" d="M35 0zM35 914v101l169 27l53 287q5 20 19.5 31.5t36.5 11.5h131v-331h438l54 288q5 20 19 31.5t37 11.5h130v-331h720v-1041h-253v861h-467v-569q0 -49 24.5 -77t66.5 -28q23 0 39.5 6t28 12t21 11.5t18.5 5.5q11 0 18.5 -5.5t15.5 -16.5l76 -123q-55 -46 -127 -69.5 t-149 -23.5q-137 0 -211 77t-74 213v587h-425v-569q0 -49 24.5 -77t66.5 -28q24 0 39.5 6t27 12t21 11.5t18.5 5.5q11 0 18.5 -5.5t15.5 -16.5l76 -123q-55 -46 -127 -69.5t-149 -23.5q-137 0 -210.5 77t-73.5 213v587h-107q-20 0 -34.5 13.5t-14.5 39.5zM1392 1497h236 q42 0 62.5 -14t35.5 -40l146 -249h-144q-29 0 -47 7.5t-36 28.5z" />
<glyph unicode="tt&#xed;" horiz-adv-x="1975" d="M34 0zM34 914v101l169 27l53 287q5 20 19.5 31.5t36.5 11.5h131v-331h438l54 288q5 20 19 31.5t37 11.5h130v-331h720v-1041h-253v861h-467v-569q0 -49 24.5 -77t66.5 -28q23 0 39.5 6t28 12t21 11.5t18.5 5.5q11 0 18.5 -5.5t15.5 -16.5l76 -123q-55 -46 -127 -69.5 t-149 -23.5q-137 0 -211 77t-74 213v587h-425v-569q0 -49 24.5 -77t66.5 -28q24 0 39.5 6t27 12t21 11.5t18.5 5.5q11 0 18.5 -5.5t15.5 -16.5l76 -123q-55 -46 -127 -69.5t-149 -23.5q-137 0 -210.5 77t-73.5 213v587h-107q-20 0 -34.5 13.5t-14.5 39.5zM1585 1194l146 249 q15 27 35.5 40.5t61.5 13.5h246l-253 -267q-19 -20 -37 -28t-47 -8h-152z" />
<glyph unicode="tt&#xee;" horiz-adv-x="1976" d="M35 0zM35 914v101l169 27l53 287q5 20 19.5 31.5t36.5 11.5h131v-331h438l54 288q5 20 19 31.5t37 11.5h130v-331h720v-1041h-253v861h-467v-569q0 -49 24.5 -77t66.5 -28q23 0 39.5 6t28 12t21 11.5t18.5 5.5q11 0 18.5 -5.5t15.5 -16.5l76 -123q-55 -46 -127 -69.5 t-149 -23.5q-137 0 -211 77t-74 213v587h-425v-569q0 -49 24.5 -77t66.5 -28q24 0 39.5 6t27 12t21 11.5t18.5 5.5q11 0 18.5 -5.5t15.5 -16.5l76 -123q-55 -46 -127 -69.5t-149 -23.5q-137 0 -210.5 77t-73.5 213v587h-107q-20 0 -34.5 13.5t-14.5 39.5zM1366 1196l235 285 h237l235 -285h-169q-14 0 -29 5.5t-29 20.5l-101 106q-11 10 -21 25q-11 -14 -22 -25l-102 -106q-12 -13 -27.5 -19.5t-31.5 -6.5h-175z" />
<glyph unicode="tt&#xef;" horiz-adv-x="1976" d="M35 0zM35 914v101l169 27l53 287q5 20 19.5 31.5t36.5 11.5h131v-331h438l54 288q5 20 19 31.5t37 11.5h130v-331h720v-1041h-253v861h-467v-569q0 -49 24.5 -77t66.5 -28q23 0 39.5 6t28 12t21 11.5t18.5 5.5q11 0 18.5 -5.5t15.5 -16.5l76 -123q-55 -46 -127 -69.5 t-149 -23.5q-137 0 -211 77t-74 213v587h-425v-569q0 -49 24.5 -77t66.5 -28q24 0 39.5 6t27 12t21 11.5t18.5 5.5q11 0 18.5 -5.5t15.5 -16.5l76 -123q-55 -46 -127 -69.5t-149 -23.5q-137 0 -210.5 77t-73.5 213v587h-107q-20 0 -34.5 13.5t-14.5 39.5zM1404 1323 q0 30 11.5 56t31 45.5t44.5 30.5t52 11q29 0 55 -11t46 -30.5t31.5 -45.5t11.5 -56q0 -29 -11.5 -54t-31.5 -43.5t-46 -29t-55 -10.5q-28 0 -52.5 10.5t-44 29t-31 43.5t-11.5 54zM1752 1323q0 30 11.5 56t30.5 45.5t44.5 30.5t54.5 11q30 0 56 -11t44.5 -30.5t30 -45.5 t11.5 -56q0 -29 -11.5 -54t-30 -43.5t-45 -29t-55.5 -10.5t-54.5 10.5t-44.5 29t-30.5 43.5t-11.5 54z" />
<glyph unicode="tt&#x12b;" horiz-adv-x="1976" d="M35 0zM35 914v101l169 27l53 287q5 20 19.5 31.5t36.5 11.5h131v-331h438l54 288q5 20 19 31.5t37 11.5h130v-331h720v-1041h-253v861h-467v-569q0 -49 24.5 -77t66.5 -28q23 0 39.5 6t28 12t21 11.5t18.5 5.5q11 0 18.5 -5.5t15.5 -16.5l76 -123q-55 -46 -127 -69.5 t-149 -23.5q-137 0 -211 77t-74 213v587h-425v-569q0 -49 24.5 -77t66.5 -28q24 0 39.5 6t27 12t21 11.5t18.5 5.5q11 0 18.5 -5.5t15.5 -16.5l76 -123q-55 -46 -127 -69.5t-149 -23.5q-137 0 -210.5 77t-73.5 213v587h-107q-20 0 -34.5 13.5t-14.5 39.5zM1413 1243v162h613 v-162h-613z" />
<glyph unicode="tt&#x129;" horiz-adv-x="1975" d="M34 0zM34 914v101l169 27l53 287q5 20 19.5 31.5t36.5 11.5h131v-331h438l54 288q5 20 19 31.5t37 11.5h130v-331h720v-1041h-253v861h-467v-569q0 -49 24.5 -77t66.5 -28q23 0 39.5 6t28 12t21 11.5t18.5 5.5q11 0 18.5 -5.5t15.5 -16.5l76 -123q-55 -46 -127 -69.5 t-149 -23.5q-137 0 -211 77t-74 213v587h-425v-569q0 -49 24.5 -77t66.5 -28q24 0 39.5 6t27 12t21 11.5t18.5 5.5q11 0 18.5 -5.5t15.5 -16.5l76 -123q-55 -46 -127 -69.5t-149 -23.5q-137 0 -210.5 77t-73.5 213v587h-107q-20 0 -34.5 13.5t-14.5 39.5zM1394 1222 q0 57 16 103.5t44.5 80t67 52t83.5 18.5q37 0 69 -13.5t60 -29t51.5 -28.5t43.5 -13q31 0 48.5 16.5t17.5 60.5h153q0 -57 -15.5 -103.5t-43.5 -80t-66.5 -51t-84.5 -17.5q-37 0 -68.5 13t-59 28.5t-51.5 28.5t-45 13q-30 0 -46.5 -17.5t-16.5 -60.5h-157z" />
<glyph unicode="tt&#x12d;" horiz-adv-x="1976" d="M35 0zM35 914v101l169 27l53 287q5 20 19.5 31.5t36.5 11.5h131v-331h438l54 288q5 20 19 31.5t37 11.5h130v-331h720v-1041h-253v861h-467v-569q0 -49 24.5 -77t66.5 -28q23 0 39.5 6t28 12t21 11.5t18.5 5.5q11 0 18.5 -5.5t15.5 -16.5l76 -123q-55 -46 -127 -69.5 t-149 -23.5q-137 0 -211 77t-74 213v587h-425v-569q0 -49 24.5 -77t66.5 -28q24 0 39.5 6t27 12t21 11.5t18.5 5.5q11 0 18.5 -5.5t15.5 -16.5l76 -123q-55 -46 -127 -69.5t-149 -23.5q-137 0 -210.5 77t-73.5 213v587h-107q-20 0 -34.5 13.5t-14.5 39.5zM1410 1481h178 q0 -31 5.5 -55.5t20 -41.5t40.5 -26t66 -9t65.5 9t40 26t20.5 41.5t6 55.5h177q0 -59 -15.5 -112.5t-52 -93.5t-95.5 -63t-146 -23q-88 0 -147 23t-95.5 63t-52 93t-15.5 113z" />
<glyph unicode="tt&#x1d0;" horiz-adv-x="1976" d="M35 0zM35 914v101l169 27l53 287q5 20 19.5 31.5t36.5 11.5h131v-331h438l54 288q5 20 19 31.5t37 11.5h130v-331h720v-1041h-253v861h-467v-569q0 -49 24.5 -77t66.5 -28q23 0 39.5 6t28 12t21 11.5t18.5 5.5q11 0 18.5 -5.5t15.5 -16.5l76 -123q-55 -46 -127 -69.5 t-149 -23.5q-137 0 -211 77t-74 213v587h-425v-569q0 -49 24.5 -77t66.5 -28q24 0 39.5 6t27 12t21 11.5t18.5 5.5q11 0 18.5 -5.5t15.5 -16.5l76 -123q-55 -46 -127 -69.5t-149 -23.5q-137 0 -210.5 77t-73.5 213v587h-107q-20 0 -34.5 13.5t-14.5 39.5zM1366 1481h175 q15 0 29 -5.5t23 -12.5l108 -113q5 -5 11 -12t11 -14q10 13 22 26l108 113q8 6 22.5 12t28.5 6h169l-235 -285h-237z" />
<glyph unicode="tt&#x1e2d;" horiz-adv-x="1975" d="M34 0zM34 914v101l169 27l53 287q5 20 19.5 31.5t36.5 11.5h131v-331h438l54 288q5 20 19 31.5t37 11.5h130v-331h720v-1041h-253v861h-467v-569q0 -49 24.5 -77t66.5 -28q23 0 39.5 6t28 12t21 11.5t18.5 5.5q11 0 18.5 -5.5t15.5 -16.5l76 -123q-55 -46 -127 -69.5 t-149 -23.5q-137 0 -211 77t-74 213v587h-425v-569q0 -49 24.5 -77t66.5 -28q24 0 39.5 6t27 12t21 11.5t18.5 5.5q11 0 18.5 -5.5t15.5 -16.5l76 -123q-55 -46 -127 -69.5t-149 -23.5q-137 0 -210.5 77t-73.5 213v587h-107q-20 0 -34.5 13.5t-14.5 39.5zM1393 -325 q0 57 16 103.5t44.5 80t67 52t83.5 18.5q37 0 69 -13.5t60 -29t51.5 -28.5t43.5 -13q31 0 48.5 16.5t17.5 60.5h153q0 -57 -15.5 -103.5t-43.5 -80t-66.5 -51t-84.5 -17.5q-37 0 -68.5 13t-59 28.5t-51.5 28.5t-45 13q-30 0 -46.5 -17.5t-16.5 -60.5h-157zM1559 1361 q0 34 12.5 63t34 51t50.5 35t62 13q34 0 64 -13t52 -35t35 -51t13 -63q0 -33 -13 -62t-35 -50.5t-52.5 -34.5t-63.5 -13t-62 13t-50.5 34.5t-34 50.5t-12.5 62z" />
<glyph unicode="tt&#x1e2f;" horiz-adv-x="1975" d="M34 0zM34 914v101l169 27l53 287q5 20 19.5 31.5t36.5 11.5h131v-331h438l54 288q5 20 19 31.5t37 11.5h130v-331h720v-1041h-253v861h-467v-569q0 -49 24.5 -77t66.5 -28q23 0 39.5 6t28 12t21 11.5t18.5 5.5q11 0 18.5 -5.5t15.5 -16.5l76 -123q-55 -46 -127 -69.5 t-149 -23.5q-137 0 -211 77t-74 213v587h-425v-569q0 -49 24.5 -77t66.5 -28q24 0 39.5 6t27 12t21 11.5t18.5 5.5q11 0 18.5 -5.5t15.5 -16.5l76 -123q-55 -46 -127 -69.5t-149 -23.5q-137 0 -210.5 77t-73.5 213v587h-107q-20 0 -34.5 13.5t-14.5 39.5zM1371 1323 q0 30 11.5 56t30.5 45.5t44 30.5t53 11q30 0 56 -11t46 -30.5t31 -45.5t11 -56q0 -29 -11 -54t-31 -43.5t-46.5 -29t-55.5 -10.5q-28 0 -53 10.5t-44 29t-30.5 43.5t-11.5 54zM1627 1524l146 249q15 27 35.5 40.5t61.5 13.5h246l-253 -267q-19 -20 -37 -28t-47 -8h-152z M1785 1323q0 30 11.5 56t30.5 45.5t44.5 30.5t53.5 11q30 0 56 -11t45 -30.5t30.5 -45.5t11.5 -56q0 -29 -11.5 -54t-30.5 -43.5t-45 -29t-56 -10.5q-29 0 -54 10.5t-44 29t-30.5 43.5t-11.5 54z" />
<glyph unicode="tt&#x268;" horiz-adv-x="2027" d="M35 914v101l169 27l53 287q5 20 19.5 31.5t36.5 11.5h131v-331h438l54 288q5 20 19 31.5t37 11.5h130v-331h720v-454h152v-179h-152v-408h-253v408h-133v179h133v274h-467v-569q0 -49 24.5 -77t66.5 -28q23 0 39.5 6t28 12t21 11.5t18.5 5.5q11 0 18.5 -5.5t15.5 -16.5 l76 -123q-55 -46 -127 -69.5t-149 -23.5q-137 0 -211 77t-74 213v587h-425v-569q0 -49 24.5 -77t66.5 -28q24 0 39.5 6t27 12t21 11.5t18.5 5.5q11 0 18.5 -5.5t15.5 -16.5l76 -123q-55 -46 -127 -69.5t-149 -23.5q-137 0 -210.5 77t-73.5 213v587h-107q-20 0 -34.5 13.5 t-14.5 39.5zM1559 1361q0 34 12.5 63t34 51t50 35t61.5 13q34 0 64 -13t52 -35t35.5 -51t13.5 -63q0 -33 -13.5 -62t-35.5 -50.5t-52 -34.5t-64 -13q-33 0 -61.5 13t-50 34.5t-34 50.5t-12.5 62z" />
<glyph unicode="tt&#x20b;" horiz-adv-x="1976" d="M35 0zM35 914v101l169 27l53 287q5 20 19.5 31.5t36.5 11.5h131v-331h438l54 288q5 20 19 31.5t37 11.5h130v-331h720v-1041h-253v861h-467v-569q0 -49 24.5 -77t66.5 -28q23 0 39.5 6t28 12t21 11.5t18.5 5.5q11 0 18.5 -5.5t15.5 -16.5l76 -123q-55 -46 -127 -69.5 t-149 -23.5q-137 0 -211 77t-74 213v587h-425v-569q0 -49 24.5 -77t66.5 -28q24 0 39.5 6t27 12t21 11.5t18.5 5.5q11 0 18.5 -5.5t15.5 -16.5l76 -123q-55 -46 -127 -69.5t-149 -23.5q-137 0 -210.5 77t-73.5 213v587h-107q-20 0 -34.5 13.5t-14.5 39.5zM1410 1204 q0 59 15.5 112.5t52 93.5t95.5 63t147 23q87 0 146 -23t95.5 -63t52 -93t15.5 -113h-177q0 31 -6 55.5t-20.5 42t-40 26.5t-65.5 9t-66 -9t-40.5 -26.5t-20 -42t-5.5 -55.5h-178z" />
<glyph unicode="tt&#x209;" horiz-adv-x="1976" d="M35 0zM35 914v101l169 27l53 287q5 20 19.5 31.5t36.5 11.5h131v-331h438l54 288q5 20 19 31.5t37 11.5h130v-331h720v-1041h-253v861h-467v-569q0 -49 24.5 -77t66.5 -28q23 0 39.5 6t28 12t21 11.5t18.5 5.5q11 0 18.5 -5.5t15.5 -16.5l76 -123q-55 -46 -127 -69.5 t-149 -23.5q-137 0 -211 77t-74 213v587h-425v-569q0 -49 24.5 -77t66.5 -28q24 0 39.5 6t27 12t21 11.5t18.5 5.5q11 0 18.5 -5.5t15.5 -16.5l76 -123q-55 -46 -127 -69.5t-149 -23.5q-137 0 -210.5 77t-73.5 213v587h-107q-20 0 -34.5 13.5t-14.5 39.5zM1228 1497h182 q20 0 35 -3.5t25.5 -10.5t19 -17t18.5 -23l181 -249h-120q-29 0 -46.5 7.5t-36.5 28.5zM1585 1497h164q42 0 62.5 -14t35.5 -40l130 -249h-104q-30 0 -48.5 7.5t-35.5 28.5z" />
<glyph horiz-adv-x="0" />
<glyph horiz-adv-x="0" />
<glyph unicode="&#xd;" horiz-adv-x="0" />
<glyph unicode=" "  horiz-adv-x="497" />
<glyph unicode="&#x09;" horiz-adv-x="497" />
<glyph unicode="&#xa0;" horiz-adv-x="497" />
<glyph unicode="!" horiz-adv-x="575" d="M130 139q0 32 12 60.5t33 49t49.5 33t61.5 12.5q32 0 60.5 -12.5t49.5 -33t33 -49t12 -60.5q0 -33 -12 -61t-33 -48.5t-50 -32t-60 -11.5q-33 0 -61.5 11.5t-49.5 32t-33 48.5t-12 61zM170 895v586h238v-586q0 -93 -9.5 -182.5t-23.5 -190.5h-172q-14 100 -23.5 190 t-9.5 183z" />
<glyph unicode="&#x22;" horiz-adv-x="809" d="M106 933zM106 1186v295h221v-295l-23 -160q-8 -45 -26.5 -69t-61.5 -24q-38 0 -58.5 24t-28.5 69zM483 1186v295h221v-295l-23 -160q-8 -45 -26.5 -69t-61.5 -24q-38 0 -58.5 24t-28.5 69z" />
<glyph unicode="#" horiz-adv-x="1187" d="M40 519l13 81h194l53 283h-219l19 105q8 39 33 58t79 19h114l63 330q8 41 38 63.5t70 22.5h115l-78 -416h209l79 416h113q39 0 62.5 -25t17.5 -63l-64 -328h207l-18 -106q-8 -39 -33 -57.5t-79 -18.5h-102l-54 -283h146q39 0 56 -23t8 -79l-13 -80h-222l-78 -418h-117 q-17 0 -32.5 8t-25.5 22.5t-15 33.5t1 40l59 314h-210l-59 -326q-8 -49 -41 -70.5t-73 -21.5h-113l78 418h-118q-39 0 -55 23t-8 78zM455 600h210l53 283h-210z" />
<glyph unicode="$" horiz-adv-x="1187" d="M69 178l77 116q10 15 27 25t37 10q23 0 48.5 -16t58 -37.5t74.5 -43t99 -31.5l38 457q-73 22 -144 49t-127.5 72.5t-91.5 115.5t-35 175q0 78 30.5 152t90.5 132.5t147 96.5t200 43l11 129q2 25 20.5 44.5t48.5 19.5h93l-17 -201q110 -17 188.5 -62t135.5 -100l-61 -93 q-13 -20 -27.5 -30.5t-35.5 -10.5q-15 0 -36.5 9.5t-48 23.5t-60 28.5t-73.5 23.5l-36 -424q74 -23 147 -50t130.5 -70t93.5 -107t36 -160q0 -95 -32 -178.5t-93 -147.5t-150.5 -104.5t-203.5 -47.5l-13 -151q-1 -24 -19.5 -43.5t-47.5 -19.5h-93l18 219q-120 16 -225.5 65 t-178.5 122zM369 1095q0 -39 13 -69t37 -53t57.5 -41t72.5 -32l32 379q-57 -7 -97.5 -24t-66 -41.5t-37 -54.5t-11.5 -64zM646 198q109 14 164.5 73t55.5 154q0 39 -13.5 68t-39 51.5t-59 39t-73.5 29.5z" />
<glyph unicode="%" horiz-adv-x="1678" d="M79 1122q0 86 25.5 156t71 118t108 74t136.5 26t137 -26t109 -74t71.5 -118t25.5 -156q0 -84 -28 -151.5t-75.5 -115t-110 -73t-129.5 -25.5q-74 0 -136.5 25.5t-108 73t-71 115t-25.5 151.5zM157 0l1098 1441q13 15 31.5 27.5t50.5 12.5h185l-1100 -1443 q-13 -16 -31.5 -27t-45.5 -11h-188zM275 1122q0 -57 11.5 -95.5t30.5 -62t45.5 -33.5t57.5 -10t58 10t47 33.5t31.5 62t11.5 95.5q0 59 -11.5 99.5t-31.5 65t-47 35t-58 10.5t-57.5 -10.5t-45.5 -35t-30.5 -64.5t-11.5 -100zM915 348q0 86 26 155.5t71.5 118t108 74.5 t135.5 26q74 0 137 -26t108.5 -74.5t71.5 -118t26 -155.5q0 -84 -28 -151.5t-75 -115t-109.5 -73.5t-130.5 -26q-74 0 -136 26t-107.5 73.5t-71.5 115t-26 151.5zM1112 348q0 -57 11 -96t30 -62.5t46 -34t57 -10.5q31 0 58 10.5t47 34t31.5 62.5t11.5 96q0 59 -11.5 99 t-31.5 65t-47 35.5t-58 10.5t-57.5 -10.5t-45.5 -35.5t-30 -64.5t-11 -99.5z" />
<glyph unicode="&#x26;" horiz-adv-x="1481" d="M75 408q0 70 22.5 131.5t62.5 114.5t95 96t121 73q-55 77 -80 150.5t-25 145.5q0 77 28.5 146t81.5 120.5t131 81.5t176 30q90 0 161.5 -27.5t122 -73.5t79.5 -105.5t34 -123.5l-160 -33q-45 -9 -66 38q-9 27 -24 51t-35.5 42t-48 29t-63.5 11q-43 0 -76.5 -15t-57 -40 t-35.5 -58.5t-12 -70.5q0 -31 6 -59.5t20.5 -57t37.5 -59t57 -64.5l393 -409q34 65 54.5 136.5t26.5 145.5q3 24 16.5 38t36.5 14h158q-1 -135 -39 -258t-109 -226l311 -322h-248q-39 0 -63 9t-51 39l-102 106q-97 -80 -218 -125t-262 -45q-85 0 -167 29t-146.5 84.5 t-104 133.5t-39.5 177zM333 428q0 -56 19.5 -101t52.5 -76.5t78 -48.5t95 -17q90 0 164.5 28.5t135.5 78.5l-389 400q-82 -53 -119 -120t-37 -144z" />
<glyph unicode="'" horiz-adv-x="433" d="M106 1186v295h221v-295l-23 -160q-8 -45 -26.5 -69t-61.5 -24q-38 0 -58.5 24t-28.5 69z" />
<glyph unicode="(" horiz-adv-x="562" d="M75 642q0 128 15.5 251.5t49.5 243t87.5 237t128.5 234.5l113 -68q10 -6 19 -14.5t13 -20.5t2.5 -28t-11.5 -37q-95 -178 -146.5 -382.5t-51.5 -415.5t51 -414.5t147 -383.5q10 -20 11.5 -36t-2.5 -27.5t-13 -20.5t-19 -15l-113 -69q-76 117 -129 235t-87 237.5 t-49.5 242.5t-15.5 251z" />
<glyph unicode=")" horiz-adv-x="562" d="M57.5 -192q1.5 16 13.5 36q95 179 145.5 383t50.5 415t-50.5 415.5t-145.5 382.5q-11 22 -13 37.5t2.5 27.5t13 20.5t19.5 14.5l113 68q76 -117 129 -234.5t87 -237t49 -243t15 -251.5t-15 -251t-49 -242.5t-87 -237.5t-129 -235l-113 69q-11 6 -19.5 15t-13 20.5 t-3 27.5z" />
<glyph unicode="*" horiz-adv-x="870" d="M104 1081l163 95q18 11 36.5 18t37.5 10q-38 4 -74 30l-163 95l60 103l163 -97q17 -11 33 -23t27 -26q-7 17 -9.5 36.5t-2.5 40.5v189h121v-187q0 -22 -3 -41.5t-10 -37.5q11 14 26.5 26t34.5 23l162 95l60 -103l-163 -93q-18 -11 -36 -19t-38 -11q35 -6 74 -28l163 -96 l-59 -102l-163 95q-18 11 -33.5 22.5t-28.5 25.5q13 -33 14 -75v-189h-121v187q0 20 2.5 40t8.5 37q-11 -14 -26.5 -25.5t-32.5 -22.5l-162 -94z" />
<glyph unicode="+" horiz-adv-x="1187" d="M95 594v187h395v420h206v-420h398v-187h-398v-422h-206v422h-395z" />
<glyph unicode="," horiz-adv-x="479" d="M88 156q0 29 11 53.5t30 43.5t47 30t61 11q39 0 68 -14t48 -38t28.5 -55t9.5 -66q0 -49 -15 -103.5t-43.5 -108.5t-71 -105.5t-96.5 -94.5l-44 40q-18 15 -19 38q0 8 6 18.5t14 18.5l27.5 30t33 41t30 50t19.5 58q-32 0 -58.5 12t-45 32.5t-29.5 48t-11 60.5z" />
<glyph unicode="-" horiz-adv-x="763" d="M117 513v211h530v-211h-530z" />
<glyph unicode="&#xad;" horiz-adv-x="763" d="M117 513v211h530v-211h-530z" />
<glyph unicode="." horiz-adv-x="486" d="M88 139q0 32 12 60.5t32.5 49t49 33t61.5 12.5t61 -12.5t49 -33t33 -49t12 -60.5q0 -33 -12 -61t-33 -48.5t-49.5 -32t-60.5 -11.5q-33 0 -61.5 11.5t-49 32t-32.5 48.5t-12 61z" />
<glyph unicode="/" horiz-adv-x="954" d="M59 -97l598 1530q16 43 50 66t79 23h109l-594 -1525q-17 -47 -55.5 -70.5t-78.5 -23.5h-108z" />
<glyph unicode="0" horiz-adv-x="1187" d="M51 740q0 195 41 337.5t114 235.5t171.5 138.5t214.5 45.5t215.5 -45.5t173 -138.5t115 -235.5t41.5 -337.5q0 -194 -41.5 -336.5t-115 -235.5t-173 -138.5t-215.5 -45.5t-214.5 45.5t-171.5 138.5t-114 236t-41 336zM312 740q0 -161 23 -266t62 -167.5t90 -87.5t105 -25 q55 0 106.5 25t90.5 87.5t63 167.5t24 266t-24 266.5t-63 168t-90.5 87.5t-106.5 25q-54 0 -105 -25t-90 -87.5t-62 -168t-23 -266.5z" />
<glyph unicode="1" horiz-adv-x="1187" d="M134 1099l452 384h208v-1294h266v-189h-819v189h300v864q0 50 3 105l-213 -178q-18 -14 -36.5 -18t-34 -0.5t-28 11t-18.5 16.5z" />
<glyph unicode="2" horiz-adv-x="1187" d="M78 0v84q0 26 10.5 54t34.5 50l449 451q56 57 101 109.5t74.5 103.5t45.5 104t16 111q0 53 -15.5 93.5t-43.5 68t-67.5 41.5t-88.5 14q-45 0 -83.5 -13t-68 -36t-50 -53.5t-31.5 -67.5q-17 -47 -44.5 -62.5t-79.5 -7.5l-134 24q15 106 59.5 186.5t110.5 134.5t151.5 81 t183.5 27q102 0 187.5 -30t145.5 -85.5t94 -133.5t34 -173q0 -82 -24 -151.5t-64.5 -133t-95 -123t-113.5 -120.5l-335 -341q49 14 97 22t91 8h380q41 0 65 -23.5t24 -60.5v-152h-1016z" />
<glyph unicode="3" horiz-adv-x="1187" d="M68 376l111 46q44 18 82.5 9.5t55.5 -41.5q18 -36 40.5 -70.5t53 -62t72 -44t99.5 -16.5q65 0 112.5 21t80 54.5t48.5 75t16 83.5q0 53 -11.5 96.5t-47.5 74.5t-103 48.5t-179 17.5v180q93 1 154.5 17.5t97.5 45.5t50.5 70t14.5 90q0 104 -58.5 158.5t-155.5 54.5 q-45 0 -83 -13t-68 -36t-50.5 -53.5t-30.5 -67.5q-17 -47 -45.5 -62.5t-79.5 -7.5l-133 24q15 106 59 186.5t110 134.5t151.5 81t183.5 27q102 0 185 -29t141 -81t89.5 -121.5t31.5 -150.5q0 -71 -16 -124.5t-46 -93.5t-73.5 -67.5t-99.5 -46.5q133 -42 199 -128t66 -216 q0 -111 -41 -195.5t-111 -142.5t-161.5 -87.5t-193.5 -29.5q-112 0 -195 25.5t-144.5 75.5t-104.5 123t-73 168z" />
<glyph unicode="4" horiz-adv-x="1187" d="M8 545l702 937h239v-924h187v-146q0 -20 -13.5 -35.5t-38.5 -15.5h-135v-361h-220v361h-625q-26 0 -45 16t-24 40zM279 558h450v484q0 69 9 151z" />
<glyph unicode="5" horiz-adv-x="1187" d="M89 158l78 107q25 35 64 35q26 0 52.5 -16.5t61 -36t81 -35.5t112.5 -16q70 0 123 22.5t88 63t53 96t18 121.5q0 121 -70 189t-207 68q-105 0 -216 -39l-158 45l123 719h731v-108q0 -54 -34 -88t-115 -34h-406l-53 -309q100 20 182 21q117 0 206 -35t149.5 -96.5t91 -144 t30.5 -177.5q0 -118 -41.5 -215t-115 -166.5t-174.5 -107t-220 -37.5q-70 0 -132 14t-117 38t-101.5 55.5t-83.5 66.5z" />
<glyph unicode="6" horiz-adv-x="1187" d="M86 504q0 104 42.5 214t131.5 229l353 474q18 25 53.5 42.5t82.5 17.5h225l-439 -538q-14 -17 -27 -32.5t-26 -31.5q43 22 93 34t108 12q84 0 163.5 -28t140 -83.5t97 -138.5t36.5 -194q0 -103 -38 -193.5t-106.5 -158.5t-165 -106.5t-213.5 -38.5q-119 0 -213 37.5 t-160.5 106t-102 164t-35.5 212.5zM329 465q0 -61 16.5 -112t50 -87t82.5 -56t114 -20q60 0 111 20.5t87 57.5t56.5 86.5t20.5 108.5q0 63 -19.5 114t-55 86t-86 53.5t-110.5 18.5t-109.5 -20.5t-84 -56.5t-54 -86t-19.5 -107z" />
<glyph unicode="7" horiz-adv-x="1187" d="M95 1310v171h1023v-110q0 -49 -10 -79t-21 -51l-561 -1155q-17 -36 -49 -61t-85 -25h-183l572 1132q18 35 37.5 64t42.5 55h-707q-24 0 -41.5 17.5t-17.5 41.5z" />
<glyph unicode="8" horiz-adv-x="1187" d="M80 416q0 131 64.5 221.5t200.5 134.5q-109 45 -162.5 128t-53.5 200q0 84 34.5 156.5t96 126.5t147 84t187.5 30t187.5 -30t147 -84t96 -126.5t34.5 -156.5q0 -117 -54.5 -200t-161.5 -128q136 -44 200.5 -134.5t64.5 -221.5q0 -98 -37.5 -178t-105 -136.5t-162 -87 t-209.5 -30.5t-209.5 30.5t-162 87t-105 136t-37.5 178.5zM340 420q0 -51 16.5 -95t48.5 -76t79.5 -50t109.5 -18t109.5 18t79.5 50t48.5 76t16.5 95q0 122 -67.5 184.5t-186.5 62.5t-186.5 -62.5t-67.5 -184.5zM376 1096q0 -44 10.5 -85.5t36.5 -74t68 -52t103 -19.5 t103 19.5t68 52t36.5 74t10.5 85.5q0 42 -13.5 79.5t-40 67t-67.5 47t-97 17.5t-97 -17.5t-68.5 -47t-40 -67t-12.5 -79.5z" />
<glyph unicode="9" horiz-adv-x="1187" d="M85 1017q0 99 37 186t103.5 152.5t159.5 103.5t206 38q114 0 204.5 -36t154.5 -100.5t98 -154.5t34 -197q0 -69 -11.5 -130.5t-33 -118.5t-52.5 -111t-69 -107l-338 -484q-17 -25 -52.5 -41.5t-79.5 -16.5h-232l460 574q17 22 32.5 42.5t29.5 40.5q-51 -33 -112.5 -49.5 t-128.5 -16.5q-77 0 -151 26.5t-131 80.5t-92.5 133t-35.5 186zM338 1036q0 -124 64 -189t182 -65q61 0 109 19.5t81 53.5t50 80t17 99q0 60 -18.5 108t-52.5 80.5t-80.5 50t-101.5 17.5q-57 0 -103.5 -19t-79 -52.5t-50 -80t-17.5 -102.5z" />
<glyph unicode=":" horiz-adv-x="527" d="M108 139q0 32 12 60.5t32.5 49t49 33t61.5 12.5t61 -12.5t49 -33t33 -49t12 -60.5q0 -33 -12 -61t-33 -48.5t-49.5 -32t-60.5 -11.5q-33 0 -61.5 11.5t-49 32t-32.5 48.5t-12 61zM108 869q0 32 12 60.5t32.5 49t49 33t61.5 12.5t61 -12.5t49 -33t33 -49t12 -60.5 q0 -33 -12 -61t-33 -48.5t-49.5 -32t-60.5 -11.5q-33 0 -61.5 11.5t-49 32t-32.5 48.5t-12 61zM109 0z" />
<glyph unicode=";" horiz-adv-x="553" d="M120 0zM120 869q0 32 12 60.5t32.5 49t49 33t61.5 12.5t61 -12.5t49 -33t33 -49t12 -60.5q0 -33 -12 -61t-33 -48.5t-49.5 -32t-60.5 -11.5q-33 0 -61.5 11.5t-49 32t-32.5 48.5t-12 61zM127 156q0 29 11 53.5t30 43.5t47 30t61 11q39 0 68 -14t48 -38t28.5 -55t9.5 -66 q0 -49 -15 -103.5t-43.5 -108.5t-71 -105.5t-96.5 -94.5l-44 40q-18 15 -19 38q0 8 6 18.5t14 18.5l27.5 30t33 41t30 50t19.5 58q-32 0 -58.5 12t-45 32.5t-29.5 48t-11 60.5z" />
<glyph unicode="&#x3c;" horiz-adv-x="1187" d="M155 639v102l812 423v-180q0 -20 -10.5 -37t-33.5 -29l-372 -191q-24 -12 -50 -21t-56 -16q57 -13 106 -37l372 -191q24 -11 34 -28.5t10 -38.5v-180z" />
<glyph unicode="=" horiz-adv-x="1187" d="M140 414v188h908v-188h-908zM140 775v188h908v-188h-908z" />
<glyph unicode="&#x3e;" horiz-adv-x="1187" d="M221 215v180q0 20 10.5 38t33.5 29l372 191q45 23 105 37q-30 7 -56 16t-49 21l-372 191q-24 12 -34 29t-10 37v180l812 -423v-102z" />
<glyph unicode="?" horiz-adv-x="942" d="M73 1347q35 31 76 58.5t89.5 48t104.5 32t122 11.5q89 0 162 -24.5t125.5 -70t81 -110t28.5 -144.5q0 -78 -22.5 -135t-56 -99t-74 -72.5t-76.5 -57.5t-62 -53t-31 -59l-24 -150h-173l-17 167q-6 48 13.5 84.5t53 66.5t74.5 58.5t77 61.5t60 74.5t24 99.5q0 37 -14 66 t-38.5 50t-59 32t-74.5 11q-58 0 -98.5 -12.5t-68.5 -28.5t-47.5 -29t-34.5 -13q-37 0 -54 31zM266 139q0 32 12 60.5t32.5 49t49 33t61.5 12.5t61 -12.5t49 -33t33.5 -49t12.5 -60.5q0 -33 -12.5 -61t-33.5 -48.5t-49 -32t-61 -11.5t-61.5 11.5t-49 32t-32.5 48.5t-12 61z " />
<glyph unicode="@" horiz-adv-x="1727" d="M93 597q0 110 28.5 213t80.5 194t125.5 166.5t164 130t195.5 84.5t219 30q145 0 279 -48.5t237 -139t164.5 -221t61.5 -294.5q0 -110 -32.5 -205.5t-90.5 -166.5t-136 -111.5t-170 -40.5q-71 0 -125.5 33t-75.5 106q-60 -74 -128 -106t-146 -32q-65 0 -112 22.5t-79.5 62 t-48.5 93.5t-16 117q0 58 15 118.5t45 116t74.5 104t104 85t135 57.5t165.5 21q80 0 136.5 -12t108.5 -35l-98 -380q-16 -66 -16 -107t12.5 -65.5t35 -33.5t50.5 -9q43 0 81.5 27t67.5 76.5t45.5 117t16.5 147.5q0 133 -41.5 234.5t-116 169.5t-177.5 102t-226 34 q-135 0 -249.5 -50.5t-199 -138.5t-132 -208t-47.5 -258q0 -168 52 -295.5t143 -213t214.5 -128.5t266.5 -43q79 0 147.5 8.5t126 23.5t104.5 34t84 41q27 15 47.5 9t29.5 -31l35 -91q-106 -70 -248.5 -114t-325.5 -44q-185 0 -342.5 58.5t-273 167.5t-180.5 265.5 t-65 352.5zM684 490q0 -66 28.5 -102t82.5 -36q27 0 54 8.5t51.5 29.5t45 55.5t33.5 86.5l75 289q-33 6 -68 6q-63 0 -118.5 -27.5t-96 -74.5t-64 -108t-23.5 -127z" />
<glyph unicode="A" horiz-adv-x="1422" d="M-11 0l582 1481h281l582 -1481h-213q-36 0 -58.5 18t-34.5 44l-110 303h-614l-110 -303q-8 -24 -31.5 -43t-58.5 -19h-215zM475 559h472l-180 493q-13 33 -27.5 77.5t-28.5 96.5q-14 -52 -28 -97.5t-28 -78.5z" />
<glyph unicode="B" horiz-adv-x="1348" d="M165 0v1481h510q145 0 248.5 -28t169.5 -79t97 -123.5t31 -164.5q0 -52 -15.5 -99.5t-48 -89t-82 -75.5t-118.5 -57q305 -69 306 -330q0 -94 -36 -174t-104.5 -137.5t-169 -90.5t-229.5 -33h-559zM440 215h279q77 0 129 18.5t83.5 49t45 71.5t13.5 87q0 48 -15.5 86.5 t-48 66t-84 41.5t-124.5 14h-278v-434zM440 840h219q141 0 213.5 51t72.5 163q0 116 -65.5 165t-204.5 49h-235v-428z" />
<glyph unicode="C" horiz-adv-x="1354" d="M79 740q0 167 53 306t150 239t231 156t297 56q162 0 287.5 -53t213.5 -139l-92 -128q-8 -12 -21 -21.5t-36 -9.5q-15 0 -31.5 8.5t-36 21.5t-45 28.5t-59.5 28t-78.5 21.5t-102.5 9q-99 0 -181.5 -35.5t-142 -102.5t-92.5 -164t-33 -221q0 -125 35.5 -222t96 -163.5 t142.5 -102t176 -35.5q56 0 101.5 6t84 19.5t73 34.5t68.5 52q10 9 21.5 14.5t23.5 5.5q23 0 40 -17l108 -118q-90 -112 -221.5 -171t-315.5 -59q-165 0 -296.5 56t-225 156.5t-143 239.5t-49.5 304z" />
<glyph unicode="D" horiz-adv-x="1557" d="M165 0v1481h564q169 0 307.5 -55t236.5 -152.5t152.5 -234t54.5 -299.5t-54.5 -299t-152.5 -234t-236.5 -152.5t-307.5 -54.5h-564zM441 219h288q109 0 195.5 36t147.5 103t93 163.5t32 218.5t-32 219t-93 164t-147.5 103t-195.5 36h-288v-1043z" />
<glyph unicode="E" horiz-adv-x="1177" d="M165 0v1481h934v-219h-658v-411h518v-212h-518v-419h658v-220h-934z" />
<glyph unicode="F" horiz-adv-x="1159" d="M165 0v1481h934v-219h-658v-439h555v-220h-555v-603h-276z" />
<glyph unicode="G" horiz-adv-x="1486" d="M77 740q0 167 54 306.5t154 239.5t242.5 155.5t319.5 55.5q90 0 168.5 -14.5t145.5 -39.5t122 -60.5t101 -78.5l-78 -125q-18 -30 -48 -37q-7 -1 -14 -1q-24 0 -51 16q-34 19 -67.5 38.5t-75 34t-93.5 24t-119 9.5q-110 0 -198.5 -37t-151 -105.5t-96.5 -165t-34 -215.5 q0 -127 36.5 -226.5t102.5 -169t159.5 -105.5t207.5 -36q82 0 146.5 17t126.5 46v270h-187q-27 0 -41.5 14.5t-14.5 36.5v155h491v-599q-113 -83 -240 -121t-273 -38q-181 0 -328 56t-251 156.5t-160 239.5t-56 304z" />
<glyph unicode="H" horiz-adv-x="1577" d="M165 0v1481h276v-637h696v637h276v-1481h-276v647h-696v-647h-276z" />
<glyph unicode="I" horiz-adv-x="607" d="M165 0v1481h276v-1481h-276z" />
<glyph unicode="J" horiz-adv-x="879" d="M23 11q3 41 7 82t7 82q3 23 18 36.5t42 13.5q17 0 45.5 -7t71.5 -7q58 0 103 17t75.5 53.5t46 95.5t15.5 143v961h275v-955q0 -125 -30.5 -225t-91.5 -171t-152 -108.5t-212 -37.5q-55 0 -108.5 6.5t-111.5 20.5z" />
<glyph unicode="K" horiz-adv-x="1403" d="M165 0v1481h275v-621h65q39 0 64.5 11t43.5 34l409 517q26 33 54 46t71 13h237l-498 -616q-44 -56 -91 -80q34 -12 61 -34t51 -58l514 -693h-242q-49 0 -73.5 14t-40.5 40l-419 547q-19 28 -45 39t-74 11h-87v-651h-275z" />
<glyph unicode="L" horiz-adv-x="1063" d="M165 0v1481h275v-1254h592v-227h-867z" />
<glyph unicode="M" horiz-adv-x="1935" d="M165 0v1481h208q18 0 31.5 -1t24 -5.5t19.5 -13.5t17 -24l443 -823q17 -33 32 -68t30 -71q14 38 29.5 73.5t32.5 67.5l437 821q8 15 17.5 24t20.5 13.5t24 5.5t32 1h207v-1481h-242v956q0 27 1.5 59t4.5 64l-448 -839q-32 -60 -97 -61h-39q-66 0 -97 61l-453 842 q3 -34 5.5 -66t2.5 -60v-956h-243z" />
<glyph unicode="N" horiz-adv-x="1577" d="M165 0v1481h144q17 0 30 -1.5t23 -6.5t19 -13.5t20 -22.5l777 -992q-3 36 -5.5 71t-2.5 65v900h243v-1481h-141q-33 0 -55 11t-42 36l-774 986q3 -33 5 -65t2 -59v-909h-243z" />
<glyph unicode="O" horiz-adv-x="1654" d="M77 740q0 163 54 302t153 240t237 158t306 57q113 0 212.5 -26t182.5 -73.5t149 -116t112 -152t70 -182t24 -207.5q0 -163 -54 -301.5t-152 -240t-236.5 -158t-307.5 -56.5q-168 0 -306 56.5t-237 158t-153 240.5t-54 301zM358 740q0 -122 33 -218.5t94 -163.5 t147.5 -103t194.5 -36q109 0 195.5 36t147 103t93 163.5t32.5 218.5t-32.5 219t-93 164.5t-147 103.5t-195.5 36t-195 -36t-147 -103.5t-94 -164.5t-33 -219z" />
<glyph unicode="P" horiz-adv-x="1267" d="M165 0v1481h481q148 0 257 -35t179.5 -97.5t105 -149.5t34.5 -190q0 -108 -36 -197.5t-107.5 -154t-179.5 -100.5t-253 -36h-206v-521h-275zM440 736h206q76 0 132.5 19t93.5 54.5t55.5 86t18.5 113.5q0 59 -18.5 107t-55 82t-93 52t-133.5 18h-206v-532z" />
<glyph unicode="Q" horiz-adv-x="1654" d="M78 740q0 163 54 302t153 240t237 158t306 57q113 0 212.5 -26t182.5 -73.5t149 -116t112 -152t70 -182t24 -207.5q0 -99 -20.5 -189.5t-59 -170t-93.5 -145.5t-126 -116l376 -409h-228q-49 0 -88.5 13.5t-71.5 49.5l-217 239q-52 -14 -107 -21t-115 -7q-168 0 -306 56.5 t-237 158t-153 240.5t-54 301zM359 740q0 -122 33 -218.5t94 -163.5t147.5 -103t194.5 -36q109 0 195.5 36t147 103t93 163.5t32.5 218.5t-32.5 219t-93 164.5t-147 103.5t-195.5 36t-195 -36t-147 -103.5t-94 -164.5t-33 -219z" />
<glyph unicode="R" horiz-adv-x="1316" d="M165 0v1481h451q151 0 259 -31.5t177 -87.5t102 -134.5t33 -172.5q0 -75 -22 -141.5t-63.5 -121t-102.5 -95.5t-139 -65q52 -30 90 -85l371 -547h-249q-71 0 -102 55l-312 474q-17 27 -38 38.5t-62 11.5h-118v-579h-275zM440 776h172q78 0 136 19.5t95.5 54t56 81.5 t18.5 103q0 113 -74.5 173.5t-227.5 60.5h-176v-492z" />
<glyph unicode="S" horiz-adv-x="1123" d="M47 178l81 132q10 14 26.5 24t34.5 10q26 0 55.5 -21t70.5 -46.5t96 -46.5t132 -21q118 0 182.5 56t64.5 160q0 58 -29.5 95t-77.5 62t-109.5 42.5t-125 38t-125 49t-109.5 75t-77 115.5t-29 170q0 81 32 158t93.5 136t151.5 95t207 36q131 0 241.5 -41t188.5 -115 l-69 -130q-12 -22 -26 -31.5t-34 -9.5q-22 0 -47 16t-59.5 35.5t-81.5 35.5t-110 16q-57 0 -100 -14t-72.5 -38.5t-43.5 -59t-14 -75.5q0 -52 29 -86.5t77 -59.5t109.5 -44t126 -41t126 -51.5t109.5 -74t77.5 -109t29.5 -156.5q0 -100 -34.5 -188t-100.5 -153t-161.5 -102 t-217.5 -37q-71 0 -139.5 13.5t-131.5 39t-118.5 61.5t-98.5 80z" />
<glyph unicode="T" horiz-adv-x="1228" d="M31 1254v227h1168v-227h-446v-1254h-276v1254h-446z" />
<glyph unicode="U" horiz-adv-x="1520" d="M146 594v887h276v-886q0 -85 23 -153.5t66.5 -117.5t106.5 -75.5t143 -26.5t143 26.5t106 75t66 117t23 153.5v887h275v-887q0 -132 -42.5 -244t-122 -193.5t-193 -127t-255.5 -45.5q-143 0 -257 45.5t-193.5 127t-122 193.5t-42.5 244z" />
<glyph unicode="V" horiz-adv-x="1422" d="M-11 1481h221q36 0 58.5 -17.5t33.5 -45.5l349 -903q17 -44 33 -96.5t31 -110.5q11 57 26 110t32 97l347 903q8 24 32.5 43.5t58.5 19.5h223l-598 -1481h-249z" />
<glyph unicode="W" horiz-adv-x="2152" d="M17 1481h231q36 0 60 -17t32 -46l252 -886q8 -33 15.5 -71t16.5 -81q8 43 17.5 81.5t21.5 70.5l290 886q8 24 32.5 43.5t58.5 19.5h81q36 0 58.5 -17.5t34.5 -45.5l289 -886q22 -63 39 -146q13 81 30 146l252 886q6 26 31 44.5t60 18.5h216l-460 -1481h-249l-323 1012 q-7 19 -13.5 41.5t-12.5 47.5q-5 -25 -11.5 -47.5t-12.5 -41.5l-327 -1012h-250z" />
<glyph unicode="X" horiz-adv-x="1373" d="M3 0l492 762l-472 719h274q29 0 41.5 -8t23.5 -25l336 -543q5 12 11.5 25t14.5 26l309 487q11 19 24.5 28.5t34.5 9.5h263l-476 -708l489 -773h-274q-29 0 -46 14.5t-27 32.5l-343 567q-7 -23 -20 -43l-328 -524q-12 -17 -28 -32t-42 -15h-257z" />
<glyph unicode="Y" horiz-adv-x="1327" d="M-13 1481h242q36 0 57 -17.5t36 -44.5l270 -494q24 -45 41.5 -84t32.5 -77q13 39 30.5 78t39.5 83l270 494q11 23 33.5 42.5t57.5 19.5h243l-539 -908v-573h-275v573z" />
<glyph unicode="Z" horiz-adv-x="1240" d="M41 0v109q0 20 7 39t19 35l761 1079h-739v219h1096v-102q0 -47 -27 -86l-760 -1073h769v-220h-1126z" />
<glyph unicode="[" horiz-adv-x="642" d="M169 -315v1899h420v-99q0 -27 -18.5 -46t-48.5 -19h-142v-1572h142q30 0 48.5 -18.5t18.5 -45.5v-99h-420z" />
<glyph unicode="\" horiz-adv-x="954" d="M59 1522h109q45 0 79 -23t50 -66l598 -1530h-108q-40 0 -78 23.5t-56 70.5z" />
<glyph unicode="]" horiz-adv-x="642" d="M53 -216q0 27 18.5 45.5t48.5 18.5h142v1572h-142q-30 0 -48.5 19t-18.5 46v99h420v-1899h-420v99z" />
<glyph unicode="^" horiz-adv-x="1187" d="M101 697l407 784h164l414 -784h-185q-24 0 -39 12.5t-24 30.5l-195 394q-16 33 -28.5 62t-21.5 58q-9 -30 -20.5 -59t-25.5 -61l-185 -394q-8 -18 -24 -30.5t-42 -12.5h-195z" />
<glyph unicode="_" horiz-adv-x="955" d="M74 -137h807v-164h-807v164z" />
<glyph unicode="`" d="M82 1497h236q42 0 62.5 -14t35.5 -40l146 -249h-144q-29 0 -47 7.5t-36 28.5z" />
<glyph unicode="a" horiz-adv-x="1039" d="M50 268q0 59 31.5 117t104 105t193.5 77.5t301 34.5v62q0 105 -45 155.5t-130 50.5q-61 0 -102 -14t-71.5 -32t-55.5 -32.5t-56 -14.5q-27 0 -45 14t-30 32l-45 81q181 166 437 166q92 0 164.5 -30t122.5 -84t76.5 -128.5t26.5 -163.5v-664h-115q-36 0 -55.5 11t-30.5 43 l-23 75q-40 -36 -77.5 -63t-78.5 -45.5t-87.5 -27.5t-103.5 -9q-67 0 -123 17.5t-97 53.5t-63.5 89.5t-22.5 123.5zM292 282q0 -67 39.5 -95.5t102.5 -28.5q78 0 135 28t111 85v178q-111 -5 -185 -19t-119 -35.5t-64.5 -50.5t-19.5 -62z" />
<glyph unicode="b" horiz-adv-x="1162" d="M125 0v1522h253v-601q63 68 140.5 107t176.5 39q91 0 164.5 -36t125 -103t79.5 -162t28 -214q0 -128 -32 -232.5t-91 -178.5t-142 -115t-184 -41q-49 0 -89.5 9.5t-74 27t-61.5 42.5t-53 56l-12 -71q-6 -27 -21 -38t-40 -11h-167zM378 272q43 -53 93.5 -74t107.5 -21 q58 0 104.5 21t79.5 65.5t50 113.5t17 166q0 173 -57 250t-165 77q-73 0 -127 -33t-103 -94v-471z" />
<glyph unicode="c" horiz-adv-x="987" d="M69 527q0 116 33 215t97.5 171t160 113t219.5 41q118 0 206 -38t159 -108l-66 -93q-11 -14 -22 -22t-32 -8q-19 0 -37.5 11.5t-44 26.5t-61 26.5t-87.5 11.5q-67 0 -117 -24t-83.5 -69t-49.5 -109t-16 -145q0 -84 18 -149.5t51.5 -110t81.5 -67.5t109 -23q60 0 97.5 15 t63 33t44.5 32.5t43 14.5q31 0 46 -23l72 -92q-42 -49 -91 -82.5t-101.5 -53.5t-108.5 -28t-111 -8q-97 0 -183.5 36t-151 106t-101.5 170.5t-37 229.5z" />
<glyph unicode="d" horiz-adv-x="1162" d="M71 522q0 117 31.5 217.5t91 174t142.5 115t186 41.5q88 0 150.5 -28t111.5 -75v555h253v-1522h-154q-50 0 -64 46l-21 101q-33 -37 -69 -66.5t-77.5 -51t-89 -33t-102.5 -11.5q-86 0 -158 35.5t-123.5 104t-79.5 168.5t-28 229zM332 522q0 -92 14.5 -156t42.5 -104.5 t68 -58.5t89 -18q79 0 134 33t104 93v471q-43 52 -93.5 74t-108.5 22q-57 0 -103.5 -21.5t-79 -65t-50 -111t-17.5 -158.5z" />
<glyph unicode="e" horiz-adv-x="1093" d="M68 548q0 108 34.5 202.5t99.5 164.5t158.5 111t211.5 41q99 0 183.5 -31.5t145 -92.5t94.5 -149.5t34 -202.5q0 -57 -12 -77t-47 -20h-651q6 -81 29 -140t59.5 -97.5t87.5 -57.5t112 -19t106 14.5t78 32t58 31.5t49 14q32 0 47 -23l73 -92q-42 -49 -94.5 -82.5 t-109 -53.5t-115.5 -28t-114 -8q-110 0 -204 36t-164 107.5t-109.5 176.5t-39.5 243zM325 646h477q0 49 -14 92.5t-41.5 76.5t-70 52t-98.5 19q-111 0 -173.5 -62.5t-79.5 -177.5z" />
<glyph unicode="f" horiz-adv-x="734" d="M42 938v103h157v78q0 90 27 162t77.5 122t123.5 76.5t164 26.5q73 0 135 -19l-5 -127q-1 -14 -8 -23t-19 -13.5t-27.5 -6t-32.5 -1.5q-45 0 -80.5 -10t-60 -34t-37.5 -63.5t-13 -97.5v-70h274v-180h-265v-861h-253v860l-91 14q-30 6 -48 21t-18 43z" />
<glyph unicode="g" horiz-adv-x="1081" d="M50 -92q0 73 44.5 123t121.5 80q-41 22 -65.5 57.5t-24.5 93.5q0 24 8 49t25 49.5t43 46.5t61 39q-80 43 -125.5 115t-45.5 168q0 78 31.5 141t87 107.5t132 68t166.5 23.5q68 0 126.5 -14t108.5 -40h303v-94q0 -45 -55 -56l-94 -17q10 -27 16 -56.5t6 -62.5 q0 -78 -31.5 -141t-87 -107t-130.5 -68t-162 -24q-59 0 -116 11q-49 -30 -49 -66q0 -32 29 -47t77.5 -21t110 -7.5t126 -6.5t125.5 -18t109.5 -40.5t77.5 -75t29 -122.5q0 -70 -34.5 -135.5t-99.5 -116.5t-159.5 -82.5t-215.5 -31.5q-119 0 -207 23t-146 61.5t-87 89 t-29 104.5zM270 -59q0 -28 14 -52t44 -41.5t78.5 -27t117.5 -9.5q71 0 122 10.5t84.5 29.5t49 45t15.5 57t-18.5 50t-50.5 30t-74.5 16t-90 7.5t-98 4.5t-98.5 9q-42 -24 -68.5 -55.5t-26.5 -73.5zM323 723q0 -37 11.5 -68.5t34.5 -54.5t58.5 -36t81.5 -13q47 0 82 13 t58 35.5t34.5 54t11.5 69.5q0 78 -46.5 123.5t-139.5 45.5t-139.5 -45.5t-46.5 -123.5z" />
<glyph unicode="h" horiz-adv-x="1155" d="M125 0v1522h253v-585q61 58 135 94t173 36q86 0 152.5 -29t111 -82t67.5 -126t23 -161v-669h-253v669q0 96 -44 148.5t-134 52.5q-66 0 -123 -29.5t-108 -80.5v-760h-253z" />
<glyph unicode="i" horiz-adv-x="520" d="M98 1357q0 34 13 63.5t34.5 51t50.5 34.5t62 13q34 0 63.5 -13t51.5 -34.5t35.5 -51t13.5 -63.5q0 -33 -13.5 -61.5t-35.5 -50t-51.5 -34.5t-63.5 -13q-33 0 -62 13t-50.5 34.5t-34.5 50t-13 61.5zM133 0v1051h254v-1051h-254z" />
<glyph unicode="j" horiz-adv-x="520" d="M-78 -349l9 136q3 20 16.5 26t51.5 6t64 7.5t41.5 24.5t22 44.5t6.5 68.5v1087h254v-1087q0 -69 -18 -129t-57.5 -105.5t-103.5 -72t-156 -26.5q-36 0 -66.5 5t-63.5 15zM98 1357q0 34 13 63.5t34.5 51t50 34.5t61.5 13q34 0 64 -13t52 -34.5t35.5 -51t13.5 -63.5 q0 -33 -13.5 -61.5t-35.5 -50t-52 -34.5t-64 -13q-33 0 -61.5 13t-50 34.5t-34.5 50t-13 61.5z" />
<glyph unicode="k" horiz-adv-x="1094" d="M125 0v1522h253v-872h47q26 0 40.5 7t30.5 27l261 323q16 22 36 33t52 11h231l-326 -391q-35 -46 -76 -70q22 -15 38.5 -35.5t31.5 -44.5l351 -510h-229q-30 0 -51 9.5t-36 35.5l-268 398q-14 24 -29.5 31t-46.5 7h-57v-481h-253z" />
<glyph unicode="l" horiz-adv-x="508" d="M128 0v1522h253v-1522h-253z" />
<glyph unicode="m" horiz-adv-x="1715" d="M125 0v1051h155q49 0 64 -46l16 -78q28 31 58.5 56.5t64.5 44t73.5 29t86.5 10.5q99 0 163 -54t96 -143q25 52 61.5 89.5t81 61t94 35t99.5 11.5q87 0 154.5 -26.5t113.5 -78t70.5 -125t24.5 -168.5v-669h-253v669q0 100 -44 150.5t-129 50.5q-39 0 -72.5 -13t-58.5 -38 t-39.5 -63t-14.5 -87v-669h-254v669q0 105 -42.5 153t-124.5 48q-55 0 -102.5 -27t-88.5 -74v-769h-253z" />
<glyph unicode="n" horiz-adv-x="1155" d="M125 0v1051h155q49 0 64 -46l17 -83q32 33 67.5 59.5t75 46t84.5 29.5t98 10q86 0 152.5 -29t111 -82t67.5 -126t23 -161v-669h-253v669q0 96 -44 148.5t-134 52.5q-66 0 -123 -29.5t-108 -80.5v-760h-253z" />
<glyph unicode="o" horiz-adv-x="1176" d="M69 527q0 124 37 224.5t105.5 170t164.5 107.5t214 38q117 0 212.5 -38t163.5 -107.5t105 -170t37 -224.5q0 -125 -37 -225t-105 -171t-163.5 -108.5t-212.5 -37.5q-118 0 -214 37.5t-164.5 108.5t-105.5 171t-37 225zM329 525q0 -169 64 -257.5t197 -88.5q131 0 194 88 t63 258t-63 259t-194 89q-133 0 -197 -89.5t-64 -258.5z" />
<glyph unicode="p" horiz-adv-x="1163" d="M125 -343v1394h155q49 0 64 -46l21 -98q63 73 145.5 118t192.5 45q86 0 157.5 -36t123 -104t80 -167.5t28.5 -228.5q0 -118 -32 -218.5t-91 -174t-142.5 -115t-186.5 -41.5q-89 0 -151 27t-111 75v-430h-253zM378 272q43 -53 93.5 -74t110.5 -21q57 0 103 21.5t78.5 65.5 t49.5 111t17 159t-14.5 156t-42.5 104t-67.5 58t-89.5 18q-79 0 -134.5 -33t-103.5 -94v-471z" />
<glyph unicode="q" horiz-adv-x="1162" d="M71 522q0 117 31.5 217.5t91 174t142.5 115t186 41.5q49 0 89.5 -8.5t75 -25t63 -39.5t55.5 -52l14 60q13 46 64 46h154v-1394h-253v475q-32 -34 -67 -61t-75 -46t-85 -29.5t-97 -10.5q-86 0 -158 35.5t-123.5 104t-79.5 168.5t-28 229zM332 522q0 -92 14.5 -156 t42.5 -104.5t68 -58.5t89 -18q79 0 134 33t104 93v471q-43 52 -93.5 74t-108.5 22q-57 0 -103.5 -21.5t-79 -65t-50 -111t-17.5 -158.5z" />
<glyph unicode="r" horiz-adv-x="763" d="M125 0v1051h148q39 0 54.5 -14t20.5 -50l14 -119q50 94 118 148t160 54q73 0 117 -32l-17 -189q-5 -18 -14.5 -26t-26.5 -8q-15 0 -45 5t-59 5q-42 0 -75 -12t-59 -35t-46 -56t-37 -75v-647h-253z" />
<glyph unicode="s" horiz-adv-x="900" d="M50 113l59 96q11 17 26.5 26.5t38.5 9.5q24 0 45 -13.5t48.5 -29t65 -28.5t94.5 -13q45 0 77.5 10.5t53.5 28t30.5 40.5t9.5 48q0 37 -22 60.5t-58.5 41t-83 31t-95 30t-95 38.5t-83 56t-58.5 83t-22 118q0 65 25.5 123.5t75 102t124 69.5t171.5 26q109 0 198 -36 t148 -94l-57 -91q-10 -16 -21.5 -23t-28.5 -7q-18 0 -39.5 10.5t-49 23t-63 23t-83.5 10.5q-75 0 -117 -32t-42 -83q0 -34 22 -57t58 -40.5t82 -31t94 -30t94 -37.5t82.5 -53.5t58.5 -77.5t22 -108q0 -76 -27.5 -140t-80.5 -110.5t-131.5 -72.5t-180.5 -26q-54 0 -106 9.5 t-99.5 27t-88 41t-71.5 51.5z" />
<glyph unicode="t" horiz-adv-x="761" d="M35 914v101l169 27l53 287q5 20 19.5 31.5t36.5 11.5h131v-331h281v-180h-281v-569q0 -49 24.5 -77t66.5 -28q24 0 39.5 6t27 12t21 11.5t18.5 5.5q11 0 18.5 -5.5t15.5 -16.5l76 -123q-55 -46 -127 -69.5t-149 -23.5q-137 0 -210.5 77t-73.5 213v587h-107 q-20 0 -34.5 13.5t-14.5 39.5z" />
<glyph unicode="u" horiz-adv-x="1155" d="M115 383v668h253v-668q0 -96 44.5 -149t133.5 -53q66 0 123 29.5t108 80.5v760h253v-1051h-154q-50 0 -64 46l-17 84q-33 -33 -68 -60t-75 -46.5t-85 -29.5t-98 -10q-86 0 -152 29t-111 82t-68 126.5t-23 161.5z" />
<glyph unicode="v" horiz-adv-x="1081" d="M9 1051h209q29 0 48 -13.5t25 -33.5l203 -562q16 -49 28 -96t22 -94q10 47 22.5 94t29.5 96l207 562q7 20 25.5 33.5t43.5 13.5h200l-417 -1051h-229z" />
<glyph unicode="w" horiz-adv-x="1643" d="M18 1051h202q28 0 47.5 -13.5t25.5 -33.5l150 -562q11 -46 19.5 -90t15.5 -87q11 43 24 87t27 90l174 564q6 20 24 33.5t44 13.5h112q27 0 45.5 -13.5t24.5 -33.5l169 -564q13 -47 25 -91t22 -88q8 44 17.5 88t21.5 91l155 562q7 20 25.5 33.5t44.5 13.5h192l-334 -1051 h-202q-35 0 -49 45l-188 607q-19 62 -30 121q-12 -61 -30 -123l-192 -605q-12 -45 -54 -45h-195z" />
<glyph unicode="x" horiz-adv-x="1069" d="M6 0l360 542l-346 509h244q28 0 41 -8t24 -25l220 -351q5 17 12.5 34.5t19.5 34.5l177 277q23 38 58 38h233l-347 -498l361 -553h-244q-28 0 -44.5 14.5t-28.5 32.5l-223 366q-9 -37 -25 -62l-197 -304q-11 -17 -27.5 -32t-41.5 -15h-226z" />
<glyph unicode="y" horiz-adv-x="1080" d="M6 1051h222q30 0 47 -14.5t25 -32.5l223 -545q20 -56 34 -112q8 29 18 57t21 56l211 544q8 20 27 33.5t43 13.5h202l-572 -1340q-11 -27 -29 -40.5t-55 -13.5h-189l197 421z" />
<glyph unicode="z" horiz-adv-x="941" d="M53 0v105q0 17 8.5 41.5t24.5 46.5l504 664h-507v194h797v-105q0 -27 -9.5 -52.5t-24.5 -41.5l-500 -657h518v-195h-811z" />
<glyph unicode="{" horiz-adv-x="626" d="M58 561v147q65 0 94 39t29 102q0 48 -6.5 95.5t-15 96t-15.5 97t-7 98.5q0 78 22.5 142t69 110t118 71t167.5 25h54v-113q0 -13 -5.5 -22.5t-14 -16t-18 -9.5t-16.5 -3h-9q-72 0 -110 -45t-38 -124q0 -56 6.5 -107.5t13 -100.5t12.5 -96t6 -95q0 -39 -10.5 -74t-31.5 -63 t-50.5 -49.5t-65.5 -31.5q37 -11 66 -32t50 -50t31.5 -63.5t10.5 -72.5q0 -48 -6 -95.5t-12.5 -96t-13 -100t-6.5 -108.5q0 -78 38 -123t110 -45h9q7 0 16.5 -3t18 -9t14 -16t5.5 -24v-111h-54q-96 0 -167.5 25t-118 70.5t-69 109.5t-22.5 142q0 50 7 98.5t15.5 96.5 t15 96.5t6.5 96.5q0 62 -29 101.5t-94 39.5z" />
<glyph unicode="|" horiz-adv-x="534" d="M169 -352v1936h197v-1936h-197z" />
<glyph unicode="}" horiz-adv-x="626" d="M58 -204q0 13 6 23.5t14.5 16.5t17.5 9t17 3h9q72 0 109 45.5t37 122.5q0 56 -5.5 108t-12.5 100.5t-13 96t-6 95.5q0 38 11 72.5t31.5 63.5t50 50t66.5 32q-37 10 -66.5 31.5t-50 49.5t-31.5 63t-11 74q0 48 6 95t13 96t12.5 100.5t5.5 107.5q0 79 -37 124t-109 45h-9 q-7 0 -16.5 3t-18 9.5t-14.5 16t-6 22.5v113h55q96 0 167 -25t117.5 -71t69 -110t22.5 -142q0 -50 -6.5 -98.5t-15 -97t-15.5 -96t-7 -95.5q0 -62 29.5 -101.5t93.5 -39.5v-147q-65 0 -94 -39.5t-29 -101.5q0 -48 7 -96.5t15.5 -96.5t15 -96.5t6.5 -98.5q0 -78 -22.5 -142 t-69 -109.5t-117.5 -70.5t-167 -25h-55v111z" />
<glyph unicode="~" horiz-adv-x="1187" d="M103 408q0 79 21 142.5t60.5 109.5t97 70.5t131.5 24.5q54 0 103.5 -14.5t94 -31.5t83.5 -31t72 -14q57 0 89 36.5t32 103.5h204q0 -79 -21 -143t-60.5 -109.5t-97 -70t-131.5 -24.5q-54 0 -103.5 14t-94 31t-83.5 31.5t-72 14.5q-57 0 -89 -37t-32 -103h-204z" />
<glyph unicode="&#xa1;" horiz-adv-x="552" d="M120 913q0 33 11.5 61t32 48.5t49.5 32.5t61 12t61 -12t50 -32.5t33 -48.5t12 -61t-12 -61t-33 -48.5t-50 -32.5t-61 -12q-33 0 -61.5 12t-49 32.5t-32 48.5t-11.5 61zM159 203q0 93 9 182.5t25 189.5h171q15 -100 23.5 -189.5t8.5 -182.5v-546h-237v546z" />
<glyph unicode="&#xa2;" horiz-adv-x="1187" d="M121 525q0 112 34 208.5t100.5 168.5t162.5 115t221 48l14 161q3 24 21 43.5t48 19.5h93l-20 -234q81 -14 146.5 -48.5t120.5 -85.5l-65 -90q-10 -14 -20.5 -21t-30.5 -7q-14 0 -30 6.5t-35.5 17t-44.5 20.5t-58 18l-59 -689q54 5 90.5 20t62.5 30.5t45.5 27.5t40.5 12 q30 0 47 -21l69 -90q-73 -83 -169.5 -121.5t-202.5 -45.5l-12 -151q-2 -25 -20.5 -44.5t-46.5 -19.5h-94l19 219q-91 13 -169.5 55t-136 109.5t-89.5 160.5t-32 208zM371 525q0 -137 50 -221.5t143 -114.5l59 683q-128 -16 -190 -106t-62 -241z" />
<glyph unicode="&#xa3;" horiz-adv-x="1187" d="M38 614v81q0 35 21 60t64 25h109v242q0 96 29.5 182.5t88 151.5t146.5 103t206 38q81 0 146 -21t116 -57t88.5 -84.5t64.5 -104.5l-101 -65q-36 -18 -68.5 -16t-58.5 33q-19 23 -38.5 41.5t-41 32.5t-47.5 21t-60 7q-105 0 -157 -69t-52 -192v-243h418v-100 q0 -25 -20.5 -45.5t-50.5 -20.5h-347v-198q0 -68 -25.5 -120.5t-68.5 -97.5q37 8 74 12.5t76 4.5h600v-106q0 -18 -7.5 -38t-22 -36t-35 -25.5t-45.5 -9.5h-981v159q34 8 66 23t56 38t38 54t14 73v267h-194z" />
<glyph unicode="&#xa4;" horiz-adv-x="1187" d="M113 1039l128 125l153 -153q44 27 94.5 41.5t105.5 14.5q53 0 102 -14t92 -39l156 155l126 -126l-155 -154q27 -44 42 -94.5t15 -105.5q0 -54 -14 -102t-39 -91l156 -156l-128 -126l-154 154q-43 -27 -93.5 -41.5t-105.5 -14.5q-53 0 -102 13.5t-92 39.5l-156 -156 l-126 127l154 153q-27 44 -41.5 94.5t-14.5 105.5q0 54 14 103t39 92zM402 689q0 -39 15 -74t41 -61.5t61 -41.5t75 -15t75.5 15t61.5 41.5t41 61.5t15 74q0 41 -15 76.5t-41 61.5t-61.5 41.5t-75.5 15.5t-75 -15.5t-61 -41.5t-41 -61.5t-15 -76.5z" />
<glyph unicode="&#xa5;" horiz-adv-x="1187" d="M14 1481h211q36 0 59 -16.5t34 -45.5l224 -499q18 -46 31.5 -85t22.5 -77q8 39 20.5 77t30.5 85l222 499q11 24 34 43t58 19h213l-409 -833h283v-141h-327v-97h327v-141h-327v-269h-254v269h-327v141h327v97h-327v141h282z" />
<glyph unicode="&#xa6;" horiz-adv-x="540" d="M172 -343v827h197v-827h-197zM172 756v828h197v-828h-197z" />
<glyph unicode="&#xa7;" horiz-adv-x="1031" d="M90 701q0 81 42.5 145t129.5 102q-47 40 -76.5 95t-29.5 133q0 65 25 122.5t75 101.5t124 70t171 26q109 0 198.5 -36t147.5 -94l-57 -91q-17 -31 -50 -31q-18 0 -39.5 10.5t-49 23t-63 23t-83.5 10.5q-43 0 -76 -10t-55 -27t-33.5 -39.5t-11.5 -47.5q0 -33 24 -57.5 t64 -46.5t90.5 -42.5t104 -43.5t104 -50.5t90.5 -63.5t64 -83t24 -109q0 -83 -38.5 -150t-123.5 -108q46 -38 75.5 -88t29.5 -120q0 -76 -27 -139.5t-80.5 -110.5t-132 -73t-180.5 -26q-54 0 -106 10t-99.5 27t-88 40.5t-71.5 51.5l60 96q10 17 25.5 26.5t38.5 9.5 q24 0 45 -13t49.5 -28.5t68.5 -29t100 -13.5q84 0 131 35t47 96q0 41 -25 71t-65.5 53t-92.5 42t-105.5 40.5t-105.5 47.5t-93 62t-65.5 85t-24.5 116zM314 742q0 -43 30 -74t77.5 -56t107 -48t117.5 -50q41 20 59.5 51.5t18.5 68.5q0 45 -28.5 76t-75 57t-104 48.5 t-115.5 48.5q-46 -25 -66.5 -54t-20.5 -68z" />
<glyph unicode="&#xa8;" d="M61 1323q0 30 11.5 56t30.5 45.5t44 30.5t53 11q30 0 56 -11t46 -30.5t31 -45.5t11 -56q0 -29 -11 -54t-31 -43.5t-46.5 -29t-55.5 -10.5q-28 0 -53 10.5t-44 29t-30.5 43.5t-11.5 54zM475 1323q0 30 11.5 56t30.5 45.5t44.5 30.5t53.5 11q30 0 56 -11t45 -30.5 t30.5 -45.5t11.5 -56q0 -29 -11.5 -54t-30.5 -43.5t-45 -29t-56 -10.5q-29 0 -54 10.5t-44 29t-30.5 43.5t-11.5 54z" />
<glyph unicode="&#xa9;" horiz-adv-x="1687" d="M88 740q0 104 27 201t76.5 181t118.5 153.5t152.5 118.5t179.5 76t201 27q104 0 201 -27t181 -76t153 -118.5t118 -153.5t76 -180.5t27 -201.5q0 -103 -27 -200t-76 -180.5t-118 -152.5t-153 -118t-181 -76t-201 -27t-200.5 27t-180 76t-152.5 118t-118.5 152.5 t-76.5 180t-27 200.5zM226 740q0 -133 48 -248.5t130.5 -201t195.5 -135t243 -49.5q87 0 167 23t149 63.5t125.5 98t96.5 128t62 151.5t22 170t-22 171t-62 153.5t-96.5 129t-125.5 99t-149 64t-167 22.5t-166 -22.5t-147.5 -64t-124.5 -99t-96 -129t-61.5 -153.5 t-21.5 -171zM396 743q0 104 36 191.5t99.5 150.5t149 98t185.5 35q114 0 196 -38.5t137 -98.5l-66 -91q-6 -8 -17 -16t-27 -8q-17 0 -33 10t-38 22.5t-54.5 22.5t-84.5 10q-61 0 -109 -20t-81.5 -57.5t-50.5 -90.5t-17 -120q0 -70 17.5 -123t49 -89t75 -55t95.5 -19 q50 0 82.5 8t54.5 19.5t39.5 22.5t40.5 17q20 0 36 -17l84 -89q-57 -73 -144.5 -111.5t-205.5 -38.5q-102 0 -185 36.5t-141.5 100.5t-90.5 150.5t-32 187.5z" />
<glyph unicode="&#xaa;" horiz-adv-x="751" d="M83 1026q0 34 17.5 69t60.5 64t115.5 48t183.5 22v25q0 55 -24 78.5t-70 23.5q-35 0 -57.5 -7.5t-40 -16.5t-33 -16t-36.5 -7q-19 0 -32 10.5t-22 22.5l-31 59q57 52 125.5 76t148.5 24q58 0 104.5 -18.5t78.5 -51.5t49 -78t17 -99v-393h-85q-25 0 -37.5 7.5t-24.5 29.5 l-12 37q-25 -20 -47 -35.5t-46 -26t-51 -15.5t-61 -5q-43 0 -77.5 11.5t-59.5 33.5t-39 54t-14 74zM257 1035q0 -33 19 -45.5t55 -12.5q39 0 68.5 14t60.5 43v83q-60 -2 -99 -9t-62.5 -18t-32.5 -24.5t-9 -30.5z" />
<glyph unicode="&#xab;" horiz-adv-x="932" d="M92 129zM92 535v32l262 406l83 -39q33 -14 38 -41.5t-12 -57.5l-141 -241q-14 -27 -33 -43q16 -14 33 -43l141 -242q17 -31 12 -57.5t-38 -40.5l-83 -39zM429 535v32l262 406l83 -39q33 -14 38 -41.5t-12 -57.5l-141 -241q-14 -27 -33 -43q16 -14 33 -43l141 -242 q17 -31 12 -57.5t-38 -40.5l-83 -39z" />
<glyph unicode="&#xac;" horiz-adv-x="1187" d="M135 594v187h908v-477h-215v290h-693z" />
<glyph unicode="&#xae;" horiz-adv-x="1687" d="M88 740q0 104 27 201t76.5 181t118.5 153.5t152.5 118.5t179.5 76t201 27q104 0 201 -27t181 -76t153 -118.5t118 -153.5t76 -180.5t27 -201.5q0 -103 -27 -200t-76 -180.5t-118 -152.5t-153 -118t-181 -76t-201 -27t-200.5 27t-180 76t-152.5 118t-118.5 152.5 t-76.5 180t-27 200.5zM226 740q0 -133 48 -248.5t130.5 -201t195.5 -135t243 -49.5q87 0 167 23t149 63.5t125.5 98t96.5 128t62 151.5t22 170t-22 171t-62 153.5t-96.5 129t-125.5 99t-149 64t-167 22.5t-166 -22.5t-147.5 -64t-124.5 -99t-96 -129t-61.5 -153.5 t-21.5 -171zM509 284v918h330q191 0 280 -68.5t89 -196.5q0 -91 -47 -159t-146 -100q23 -13 38.5 -33t29.5 -47l186 -314h-210q-46 0 -65 33l-147 270q-10 14 -23 21.5t-39 7.5h-56v-332h-220zM729 773h90q53 0 86.5 9t52.5 26t26 43t7 58t-6 56t-23 40t-46.5 23.5 t-76.5 7.5h-110v-263z" />
<glyph unicode="&#xaf;" d="M103 1243v162h613v-162h-613z" />
<glyph unicode="&#xb0;" horiz-adv-x="850" d="M71 1150q0 73 27 137t74.5 111t112.5 74t140 27t140 -27t112.5 -74t75 -111t27.5 -137q0 -71 -27.5 -134.5t-75 -111t-112.5 -75t-140 -27.5t-140 27.5t-112.5 75t-74.5 111t-27 134.5zM247 1148q0 -38 13 -71t37.5 -57t56.5 -37.5t71 -13.5q38 0 70 13.5t56 37.5 t37.5 57t13.5 71q0 39 -13.5 72t-37.5 58t-56 39t-70 14q-39 0 -71 -14t-56.5 -39t-37.5 -58t-13 -72z" />
<glyph unicode="&#xb1;" horiz-adv-x="1187" d="M94 82v187h1000v-187h-1000zM94 720v188h396v363h205v-363h399v-188h-399v-349h-205v349h-396z" />
<glyph unicode="&#xb2;" horiz-adv-x="684" d="M61 922v58q0 17 7 37t23 36l214 211q23 23 43.5 48t34.5 50t23 50t9 49q0 37 -20 60t-56 23q-34 0 -54.5 -17t-33.5 -49q-14 -23 -31.5 -32t-53.5 -3l-102 16q9 58 33.5 101.5t61.5 72t85 42.5t105 14q59 0 106 -17.5t79 -47t48.5 -70t16.5 -87.5q0 -42 -13 -77 t-34 -66.5t-48.5 -61.5t-57.5 -60l-131 -134q29 8 56.5 13t51.5 5h132q29 0 44.5 -15.5t15.5 -40.5v-108h-554zM61 922z" />
<glyph unicode="&#xb3;" horiz-adv-x="684" d="M57 913zM57 1120l78 31q31 12 57 6.5t37 -26.5q6 -11 14.5 -23.5t20 -22t28 -16t38.5 -6.5q46 0 70.5 26t24.5 61q0 28 -7 46.5t-24 29.5t-46 16t-72 5v118q43 0 71 7t43.5 18.5t22.5 29t7 39.5q0 38 -20 59.5t-60 21.5q-36 0 -56.5 -16t-31.5 -44q-7 -13 -14 -21.5 t-16 -13t-21.5 -5t-29.5 2.5l-94 16q8 58 32 101.5t60 72t82 42.5t98 14q58 0 104 -17t77 -44.5t47.5 -63t16.5 -73.5q0 -65 -26 -109t-85 -69q61 -20 93 -57.5t32 -97.5q0 -63 -23.5 -109t-61.5 -76.5t-86 -44.5t-98 -14q-55 0 -99 10.5t-78.5 34.5t-60 63.5t-44.5 97.5z " />
<glyph unicode="&#xb4;" d="M275 1194l146 249q15 27 35.5 40.5t61.5 13.5h246l-253 -267q-19 -20 -37 -28t-47 -8h-152z" />
<glyph unicode="&#xb5;" horiz-adv-x="1351" d="M169 -238v1289h253v-621q0 -95 44.5 -152.5t132.5 -57.5q82 0 139.5 44.5t92.5 125.5v661h253v-741q0 -70 33.5 -102.5t89.5 -32.5h75v-100q0 -16 -10.5 -31.5t-31 -27.5t-50.5 -19t-67 -7q-43 0 -83.5 12t-73.5 37.5t-58 64t-39 91.5q-55 -86 -125 -133t-160 -47 q-122 0 -196 65q10 -44 14 -90.5t4 -86.5v-246h-126q-53 0 -82 27t-29 78z" />
<glyph unicode="&#xb6;" horiz-adv-x="1509" d="M67 1062q0 93 33 170t94 132t147 86t193 31h902v-212h-219v-1483h-222v1483h-240v-1483h-221v859q-106 0 -192.5 33.5t-147.5 90t-94 132.5t-33 161z" />
<glyph unicode="&#xb7;" horiz-adv-x="562" d="M88 609q0 40 15 75.5t41 61.5t61 41t75 15q41 0 76 -15t61 -41t41.5 -61.5t15.5 -75.5t-15.5 -74t-41.5 -60t-61 -41t-76 -15q-40 0 -75 15t-61 41t-41 60t-15 74z" />
<glyph unicode="&#xb8;" d="M234 -342l24 79q6 23 30 23q14 0 31 -7.5t50 -7.5q34 0 50.5 13t16.5 31q0 30 -37 42.5t-113 24.5l61 180h141l-27 -98q96 -23 135 -61.5t39 -91.5q0 -35 -18 -62.5t-51.5 -47t-79.5 -30t-101 -10.5q-42 0 -78.5 6t-72.5 17z" />
<glyph unicode="&#xb9;" horiz-adv-x="684" d="M81 922zM81 1482l238 199h153v-642h118v-117h-442v117h143v368l5 53l-79 -63q-12 -9 -25 -11t-23.5 0.5t-19 7.5t-12.5 11z" />
<glyph unicode="&#xba;" horiz-adv-x="820" d="M75 1177q0 75 24.5 134.5t69 101t106.5 64t137 22.5t136 -22.5t105 -64t68 -101.5t24 -134q0 -76 -24 -137t-68 -103.5t-105.5 -65t-135.5 -22.5q-75 0 -137 22.5t-106.5 65t-69 103.5t-24.5 137zM273 1175q0 -91 33.5 -135t105.5 -44q69 0 102 43.5t33 135.5 q0 91 -33.5 134t-101.5 43q-72 0 -105.5 -43t-33.5 -134z" />
<glyph unicode="&#xbb;" horiz-adv-x="932" d="M115 129zM120.5 209q-5.5 27 11.5 57l142 242q8 13 16 24t17 19q-9 8 -16.5 18.5t-16.5 24.5l-142 241q-17 31 -11.5 58t38.5 41l83 39l262 -406v-32l-262 -406l-83 39q-33 14 -38.5 41zM457.5 209q-5.5 27 11.5 57l142 242q8 13 16 24t17 19q-9 8 -16.5 18.5t-16.5 24.5 l-142 241q-17 31 -11.5 58t38.5 41l83 39l262 -406v-32l-262 -406l-83 39q-33 14 -38.5 41z" />
<glyph unicode="&#xbc;" horiz-adv-x="1521" d="M75 0zM75 1283l238 199h153v-642h118v-117h-442v117h143v368l5 53l-79 -63q-12 -9 -25 -11t-23.5 0.5t-19 7.5t-12.5 11zM229 0l854 1398q25 39 56 61t76 22h108l-860 -1408q-27 -42 -57 -57.5t-70 -15.5h-107zM831 281l343 478h176v-470h95v-90q0 -13 -9.5 -23.5 t-24.5 -10.5h-61v-165h-152v165h-297q-24 0 -37.5 10.5t-17.5 27.5zM997 289h201v172q0 25 1.5 53t5.5 59z" />
<glyph unicode="&#xbd;" horiz-adv-x="1506" d="M77 0zM77 1283l238 199h153v-642h118v-117h-442v117h143v368l5 53l-79 -63q-12 -9 -25 -11t-23.5 0.5t-19 7.5t-12.5 11zM189 0l854 1398q25 39 56 61t76 22h108l-860 -1408q-27 -42 -57 -57.5t-70 -15.5h-107zM866 0v58q0 17 7 37t23 36l214 211q23 23 43.5 48t34.5 50 t23 50t9 49q0 37 -20 60t-56 23q-34 0 -54.5 -17t-33.5 -49q-14 -23 -31.5 -32t-53.5 -3l-102 16q9 58 33.5 101.5t61.5 72t85 42.5t105 14q59 0 106 -17.5t79 -47t48.5 -70t16.5 -87.5q0 -42 -13 -77t-34 -66.5t-48.5 -61.5t-57.5 -60l-131 -134q29 8 56.5 13t51.5 5h132 q29 0 44.5 -15.5t15.5 -40.5v-108h-554z" />
<glyph unicode="&#xbe;" horiz-adv-x="1534" d="M78 0zM78 921l78 31q31 12 57 6.5t37 -26.5q6 -11 14.5 -23.5t20 -22t28 -16t38.5 -6.5q46 0 70.5 26t24.5 61q0 28 -7 46.5t-24 29.5t-46 16t-72 5v118q43 0 71 7t43.5 18.5t22.5 29t7 39.5q0 38 -20 59.5t-60 21.5q-36 0 -56.5 -16t-31.5 -44q-7 -13 -14 -21.5t-16 -13 t-21.5 -5t-29.5 2.5l-94 16q8 58 32 101.5t60 72t82 42.5t98 14q58 0 104 -17t77 -44.5t47.5 -63t16.5 -73.5q0 -65 -26 -109t-85 -69q61 -20 93 -57.5t32 -97.5q0 -63 -23.5 -109t-61.5 -76.5t-86 -44.5t-98 -14q-55 0 -99 10.5t-78.5 34.5t-60 63.5t-44.5 97.5zM248 0 l854 1398q25 39 56 61t76 22h108l-860 -1408q-27 -42 -57 -57.5t-70 -15.5h-107zM845 281l343 478h176v-470h95v-90q0 -13 -9.5 -23.5t-24.5 -10.5h-61v-165h-152v165h-297q-24 0 -37.5 10.5t-17.5 27.5zM1011 289h201v172q0 25 1.5 53t5.5 59z" />
<glyph unicode="&#xbf;" horiz-adv-x="931" d="M78 -17q0 78 22.5 132t56 92.5t74 65t76.5 50t61.5 47.5t31.5 57l24 148h173l18 -166q6 -52 -13.5 -87t-53.5 -61.5t-75 -49t-76.5 -50t-59.5 -64.5t-24 -92q0 -37 14 -66t38.5 -50t58.5 -32.5t74 -11.5q58 0 98 13.5t68.5 29t48 28.5t35.5 13q37 0 53 -31l66 -106 q-36 -31 -76.5 -58t-89.5 -48t-104.5 -32.5t-121.5 -11.5q-89 0 -162 23.5t-125.5 67.5t-81 107t-28.5 143zM360 913q0 32 12 60.5t32.5 49t49 33t61.5 12.5t61 -12.5t49 -33t33.5 -49t12.5 -60.5q0 -33 -12.5 -61t-33.5 -48.5t-49 -32t-61 -11.5t-61.5 11.5t-49 32 t-32.5 48.5t-12 61z" />
<glyph unicode="&#xc0;" horiz-adv-x="1422" d="M-11 0l582 1481h281l582 -1481h-213q-36 0 -58.5 18t-34.5 44l-110 303h-614l-110 -303q-8 -24 -31.5 -43t-58.5 -19h-215zM0 0zM278 1906h265q20 0 35 -1t27 -6t22 -13t22 -22l223 -278h-184q-30 0 -46.5 3.5t-37.5 21.5zM475 559h472l-180 493q-13 33 -27.5 77.5 t-28.5 96.5q-14 -52 -28 -97.5t-28 -78.5z" />
<glyph unicode="&#xc1;" horiz-adv-x="1422" d="M-11 0l582 1481h281l582 -1481h-213q-36 0 -58.5 18t-34.5 44l-110 303h-614l-110 -303q-8 -24 -31.5 -43t-58.5 -19h-215zM0 0zM475 559h472l-180 493q-13 33 -27.5 77.5t-28.5 96.5q-14 -52 -28 -97.5t-28 -78.5zM540 1586l214 278q10 14 20.5 22.5t22.5 13t27 5.5 t35 1h282l-332 -293q-20 -18 -38.5 -22.5t-47.5 -4.5h-183z" />
<glyph unicode="&#xc2;" horiz-adv-x="1422" d="M-11 0l582 1481h281l582 -1481h-213q-36 0 -58.5 18t-34.5 44l-110 303h-614l-110 -303q-8 -24 -31.5 -43t-58.5 -19h-215zM0 0zM353 1586l247 282h229l247 -282h-183q-15 0 -37.5 5.5t-45.5 33.5l-84 109q-5 5 -8.5 11t-6.5 11l-16 -22l-84 -109q-24 -28 -45.5 -33.5 t-37.5 -5.5h-175zM475 559h472l-180 493q-13 33 -27.5 77.5t-28.5 96.5q-14 -52 -28 -97.5t-28 -78.5z" />
<glyph unicode="&#xc3;" horiz-adv-x="1422" d="M-11 0l582 1481h281l582 -1481h-213q-36 0 -58.5 18t-34.5 44l-110 303h-614l-110 -303q-8 -24 -31.5 -43t-58.5 -19h-215zM0 0zM353 1581q0 50 14.5 97.5t41.5 84t66.5 58.5t90.5 22q52 0 91 -16.5t70 -35t57.5 -35t54.5 -16.5q23 0 39.5 9t27 23t16 31t5.5 33h154 q0 -51 -13.5 -97.5t-41 -83t-66.5 -58t-91 -21.5t-90.5 16.5t-70 35.5t-57.5 35t-54 16q-24 0 -40 -9t-26.5 -23.5t-15.5 -32t-5 -33.5h-157zM475 559h472l-180 493q-13 33 -27.5 77.5t-28.5 96.5q-14 -52 -28 -97.5t-28 -78.5z" />
<glyph unicode="&#xc4;" horiz-adv-x="1422" d="M-11 0l582 1481h281l582 -1481h-213q-36 0 -58.5 18t-34.5 44l-110 303h-614l-110 -303q-8 -24 -31.5 -43t-58.5 -19h-215zM0 0zM348 1707q0 28 11.5 53t29.5 44t42.5 30t50.5 11q29 0 54.5 -11t44.5 -30t30.5 -44t11.5 -53t-11.5 -52.5t-30.5 -43t-44.5 -28.5t-54.5 -10 q-27 0 -51 10t-42 28.5t-29.5 43t-11.5 52.5zM475 559h472l-180 493q-13 33 -27.5 77.5t-28.5 96.5q-14 -52 -28 -97.5t-28 -78.5zM799 1707q0 28 10.5 53t29 44t43.5 30t54 11q28 0 53 -11t44 -30t29.5 -44t10.5 -53t-10.5 -52.5t-29.5 -43t-44 -28.5t-53 -10q-29 0 -54 10 t-43.5 28.5t-29 43t-10.5 52.5z" />
<glyph unicode="&#xc5;" horiz-adv-x="1422" d="M-11 0l582 1481h281l582 -1481h-213q-36 0 -58.5 18t-34.5 44l-110 303h-614l-110 -303q-8 -24 -31.5 -43t-58.5 -19h-215zM0 0zM475 559h472l-180 493q-13 33 -27.5 77.5t-28.5 96.5q-14 -52 -28 -97.5t-28 -78.5zM499 1747q0 44 17 80.5t46.5 62t67.5 40t80 14.5 q43 0 82 -14.5t68.5 -40t47 -62t17.5 -80.5q0 -43 -17.5 -78t-47 -60.5t-68.5 -39.5t-82 -14q-42 0 -80 14t-67.5 39.5t-46.5 60.5t-17 78zM620 1747q0 -40 24 -65.5t69 -25.5q41 0 65.5 25.5t24.5 65.5q0 43 -24.5 68t-65.5 25q-45 0 -69 -25t-24 -68z" />
<glyph unicode="&#xc6;" horiz-adv-x="1910" d="M-20 0l752 1481h1099v-219h-711l50 -411h522v-212h-496l51 -419h584v-220h-816l-45 365h-533l-145 -304q-13 -28 -40 -44.5t-64 -16.5h-208zM531 559h415l-88 717q-16 -52 -34 -98t-36 -85z" />
<glyph unicode="&#xc7;" horiz-adv-x="1354" d="M79 740q0 167 53 306t150 239t231 156t297 56q162 0 287.5 -53t213.5 -139l-92 -128q-8 -12 -21 -21.5t-36 -9.5q-15 0 -31.5 8.5t-36 21.5t-45 28.5t-59.5 28t-78.5 21.5t-102.5 9q-99 0 -181.5 -35.5t-142 -102.5t-92.5 -164t-33 -221q0 -125 35.5 -222t96 -163.5 t142.5 -102t176 -35.5q56 0 101.5 6t84 19.5t73 34.5t68.5 52q10 9 21 14.5t24 5.5q23 0 40 -17l108 -118q-81 -101 -196.5 -159t-273.5 -68l-13 -49q96 -23 135 -61.5t39 -91.5q0 -35 -18 -62.5t-51 -47t-79.5 -30t-101.5 -10.5q-42 0 -78.5 6t-71.5 17l23 79q6 23 30 23 q14 0 31 -7.5t50 -7.5q34 0 50.5 13t16.5 31q0 30 -36.5 42.5t-113.5 24.5l45 132q-147 12 -265.5 73t-201.5 160.5t-127 231.5t-44 287z" />
<glyph unicode="&#xc8;" horiz-adv-x="1177" d="M165 0v1481h934v-219h-658v-411h518v-212h-518v-419h658v-220h-934zM165 0zM214 1906h265q20 0 35 -1t27 -6t22 -13t22 -22l223 -278h-184q-30 0 -46.5 3.5t-37.5 21.5z" />
<glyph unicode="&#xc9;" horiz-adv-x="1177" d="M165 0v1481h934v-219h-658v-411h518v-212h-518v-419h658v-220h-934zM165 0zM476 1586l214 278q10 14 20.5 22.5t22.5 13t27 5.5t35 1h282l-332 -293q-20 -18 -38.5 -22.5t-47.5 -4.5h-183z" />
<glyph unicode="&#xca;" horiz-adv-x="1177" d="M165 0v1481h934v-219h-658v-411h518v-212h-518v-419h658v-220h-934zM165 0zM290 1586l247 282h229l247 -282h-183q-15 0 -37.5 5.5t-45.5 33.5l-84 109q-5 5 -8.5 11t-6.5 11l-16 -22l-84 -109q-24 -28 -45.5 -33.5t-37.5 -5.5h-175z" />
<glyph unicode="&#xcb;" horiz-adv-x="1177" d="M165 0v1481h934v-219h-658v-411h518v-212h-518v-419h658v-220h-934zM165 0zM285 1707q0 28 11.5 53t29.5 44t42.5 30t50.5 11q29 0 54.5 -11t44.5 -30t30.5 -44t11.5 -53t-11.5 -52.5t-30.5 -43t-44.5 -28.5t-54.5 -10q-27 0 -51 10t-42 28.5t-29.5 43t-11.5 52.5z M736 1707q0 28 10.5 53t29 44t43.5 30t54 11q28 0 53 -11t44 -30t29.5 -44t10.5 -53t-10.5 -52.5t-29.5 -43t-44 -28.5t-53 -10q-29 0 -54 10t-43.5 28.5t-29 43t-10.5 52.5z" />
<glyph unicode="&#xcc;" horiz-adv-x="607" d="M-126 1906h265q20 0 35 -1t27 -6t22 -13t22 -22l223 -278h-184q-30 0 -46.5 3.5t-37.5 21.5zM0 0zM165 0v1481h276v-1481h-276z" />
<glyph unicode="&#xcd;" horiz-adv-x="607" d="M136 0zM136 1586l214 278q10 14 20.5 22.5t22.5 13t27 5.5t35 1h282l-332 -293q-20 -18 -38.5 -22.5t-47.5 -4.5h-183zM165 0v1481h276v-1481h-276z" />
<glyph unicode="&#xce;" horiz-adv-x="607" d="M-50 1586l247 282h229l247 -282h-183q-15 0 -37.5 5.5t-45.5 33.5l-84 109q-5 5 -8.5 11t-6.5 11l-16 -22l-84 -109q-24 -28 -45.5 -33.5t-37.5 -5.5h-175zM0 0zM165 0v1481h276v-1481h-276z" />
<glyph unicode="&#xcf;" horiz-adv-x="607" d="M-55 1707q0 28 11.5 53t29.5 44t42.5 30t50.5 11q29 0 54.5 -11t44.5 -30t30.5 -44t11.5 -53t-11.5 -52.5t-30.5 -43t-44.5 -28.5t-54.5 -10q-27 0 -51 10t-42 28.5t-29.5 43t-11.5 52.5zM0 0zM165 0v1481h276v-1481h-276zM396 1707q0 28 10.5 53t29 44t43.5 30t54 11 q28 0 53 -11t44 -30t29.5 -44t10.5 -53t-10.5 -52.5t-29.5 -43t-44 -28.5t-53 -10q-29 0 -54 10t-43.5 28.5t-29 43t-10.5 52.5z" />
<glyph unicode="&#xd0;" horiz-adv-x="1576" d="M-1 667v156h185v658h565q169 0 307 -55t236.5 -152.5t152.5 -234t54 -299.5t-54 -299t-152.5 -234t-236.5 -152.5t-307 -54.5h-565v667h-185zM461 219h288q109 0 195 36t146.5 103t93.5 163.5t33 218.5t-33 219t-93.5 164t-147 103t-194.5 36h-288v-439h272v-156h-272 v-448z" />
<glyph unicode="&#xd1;" horiz-adv-x="1577" d="M165 0v1481h144q17 0 30 -1.5t23 -6.5t19 -13.5t20 -22.5l777 -992q-3 36 -5.5 71t-2.5 65v900h243v-1481h-141q-33 0 -55 11t-42 36l-774 986q3 -33 5 -65t2 -59v-909h-243zM440 1581q0 50 14.5 97.5t41.5 84t66.5 58.5t90.5 22q52 0 91 -16.5t70 -35t57.5 -35 t54.5 -16.5q23 0 39.5 9t27.5 23t16 31t5 33h154q0 -51 -13.5 -97.5t-41 -83t-66.5 -58t-91 -21.5t-90.5 16.5t-70 35.5t-57.5 35t-54 16q-24 0 -40 -9t-26.5 -23.5t-15.5 -32t-5 -33.5h-157z" />
<glyph unicode="&#xd2;" horiz-adv-x="1654" d="M77 0zM77 740q0 163 54 302t153 240t237 158t306 57q113 0 212.5 -26t182.5 -73.5t149 -116t112 -152t70 -182t24 -207.5q0 -163 -54 -301.5t-152 -240t-236.5 -158t-307.5 -56.5q-168 0 -306 56.5t-237 158t-153 240.5t-54 301zM358 740q0 -122 33 -218.5t94 -163.5 t147.5 -103t194.5 -36q109 0 195.5 36t147 103t93 163.5t32.5 218.5t-32.5 219t-93 164.5t-147 103.5t-195.5 36t-195 -36t-147 -103.5t-94 -164.5t-33 -219zM396 1906h265q20 0 35 -1t27 -6t22 -13t22 -22l223 -278h-184q-30 0 -46.5 3.5t-37.5 21.5z" />
<glyph unicode="&#xd3;" horiz-adv-x="1654" d="M77 0zM77 740q0 163 54 302t153 240t237 158t306 57q113 0 212.5 -26t182.5 -73.5t149 -116t112 -152t70 -182t24 -207.5q0 -163 -54 -301.5t-152 -240t-236.5 -158t-307.5 -56.5q-168 0 -306 56.5t-237 158t-153 240.5t-54 301zM358 740q0 -122 33 -218.5t94 -163.5 t147.5 -103t194.5 -36q109 0 195.5 36t147 103t93 163.5t32.5 218.5t-32.5 219t-93 164.5t-147 103.5t-195.5 36t-195 -36t-147 -103.5t-94 -164.5t-33 -219zM658 1586l214 278q10 14 20.5 22.5t22.5 13t27 5.5t35 1h282l-332 -293q-20 -18 -38.5 -22.5t-47.5 -4.5h-183z " />
<glyph unicode="&#xd4;" horiz-adv-x="1654" d="M77 0zM77 740q0 163 54 302t153 240t237 158t306 57q113 0 212.5 -26t182.5 -73.5t149 -116t112 -152t70 -182t24 -207.5q0 -163 -54 -301.5t-152 -240t-236.5 -158t-307.5 -56.5q-168 0 -306 56.5t-237 158t-153 240.5t-54 301zM358 740q0 -122 33 -218.5t94 -163.5 t147.5 -103t194.5 -36q109 0 195.5 36t147 103t93 163.5t32.5 218.5t-32.5 219t-93 164.5t-147 103.5t-195.5 36t-195 -36t-147 -103.5t-94 -164.5t-33 -219zM472 1586l247 282h229l247 -282h-183q-15 0 -37.5 5.5t-45.5 33.5l-84 109q-5 5 -8.5 11t-6.5 11l-16 -22 l-84 -109q-24 -28 -45.5 -33.5t-37.5 -5.5h-175z" />
<glyph unicode="&#xd5;" horiz-adv-x="1654" d="M77 0zM77 740q0 163 54 302t153 240t237 158t306 57q113 0 212.5 -26t182.5 -73.5t149 -116t112 -152t70 -182t24 -207.5q0 -163 -54 -301.5t-152 -240t-236.5 -158t-307.5 -56.5q-168 0 -306 56.5t-237 158t-153 240.5t-54 301zM358 740q0 -122 33 -218.5t94 -163.5 t147.5 -103t194.5 -36q109 0 195.5 36t147 103t93 163.5t32.5 218.5t-32.5 219t-93 164.5t-147 103.5t-195.5 36t-195 -36t-147 -103.5t-94 -164.5t-33 -219zM472 1581q0 50 14.5 97.5t41.5 84t66.5 58.5t90.5 22q52 0 91 -16.5t70 -35t57.5 -35t54.5 -16.5q23 0 39.5 9 t27 23t16 31t5.5 33h154q0 -51 -13.5 -97.5t-41 -83t-66.5 -58t-91 -21.5t-90.5 16.5t-70 35.5t-57.5 35t-54 16q-24 0 -40 -9t-26.5 -23.5t-15.5 -32t-5 -33.5h-157z" />
<glyph unicode="&#xd6;" horiz-adv-x="1654" d="M77 0zM77 740q0 163 54 302t153 240t237 158t306 57q113 0 212.5 -26t182.5 -73.5t149 -116t112 -152t70 -182t24 -207.5q0 -163 -54 -301.5t-152 -240t-236.5 -158t-307.5 -56.5q-168 0 -306 56.5t-237 158t-153 240.5t-54 301zM358 740q0 -122 33 -218.5t94 -163.5 t147.5 -103t194.5 -36q109 0 195.5 36t147 103t93 163.5t32.5 218.5t-32.5 219t-93 164.5t-147 103.5t-195.5 36t-195 -36t-147 -103.5t-94 -164.5t-33 -219zM467 1707q0 28 11.5 53t29.5 44t42.5 30t50.5 11q29 0 54.5 -11t44.5 -30t30.5 -44t11.5 -53t-11.5 -52.5 t-30.5 -43t-44.5 -28.5t-54.5 -10q-27 0 -51 10t-42 28.5t-29.5 43t-11.5 52.5zM918 1707q0 28 10.5 53t29 44t43.5 30t54 11q28 0 53 -11t44 -30t29.5 -44t10.5 -53t-10.5 -52.5t-29.5 -43t-44 -28.5t-53 -10q-29 0 -54 10t-43.5 28.5t-29 43t-10.5 52.5z" />
<glyph unicode="&#xd7;" horiz-adv-x="1187" d="M112 337l350 350l-334 335l133 133l334 -335l332 333l135 -133l-333 -333l348 -348l-134 -132l-347 347l-350 -349z" />
<glyph unicode="&#xd8;" horiz-adv-x="1654" d="M77 740q0 163 54 302t153 240t237 158t306 57q113 0 212.5 -26t182.5 -74l61 84q13 18 24.5 31t23.5 21t28 11.5t39 3.5h140l-183 -252q106 -102 164 -244t58 -312q0 -163 -54 -301.5t-152 -240t-236.5 -158t-307.5 -56.5q-103 0 -194 21.5t-171 62.5l-78 -108 q-30 -41 -71 -57.5t-81 -16.5h-108l200 275q-118 102 -182.5 250.5t-64.5 328.5zM358 740q0 -118 30 -211t86 -160l603 829q-106 65 -250 65q-109 0 -195 -36t-147 -103.5t-94 -164.5t-33 -219zM606 266q97 -47 221 -47q109 0 195.5 36t147 103t93 163.5t32.5 218.5 q0 105 -24.5 191.5t-70.5 151.5z" />
<glyph unicode="&#xd9;" horiz-adv-x="1520" d="M146 0zM146 594v887h276v-886q0 -85 23 -153.5t66.5 -117.5t106.5 -75.5t143 -26.5t143 26.5t106 75t66 117t23 153.5v887h275v-887q0 -132 -42.5 -244t-122 -193.5t-193 -127t-255.5 -45.5q-143 0 -257 45.5t-193.5 127t-122 193.5t-42.5 244zM328 1906h265q20 0 35 -1 t27 -6t22 -13t22 -22l223 -278h-184q-30 0 -46.5 3.5t-37.5 21.5z" />
<glyph unicode="&#xda;" horiz-adv-x="1520" d="M146 0zM146 594v887h276v-886q0 -85 23 -153.5t66.5 -117.5t106.5 -75.5t143 -26.5t143 26.5t106 75t66 117t23 153.5v887h275v-887q0 -132 -42.5 -244t-122 -193.5t-193 -127t-255.5 -45.5q-143 0 -257 45.5t-193.5 127t-122 193.5t-42.5 244zM590 1586l214 278 q10 14 20.5 22.5t22.5 13t27 5.5t35 1h282l-332 -293q-20 -18 -38.5 -22.5t-47.5 -4.5h-183z" />
<glyph unicode="&#xdb;" horiz-adv-x="1520" d="M146 0zM146 594v887h276v-886q0 -85 23 -153.5t66.5 -117.5t106.5 -75.5t143 -26.5t143 26.5t106 75t66 117t23 153.5v887h275v-887q0 -132 -42.5 -244t-122 -193.5t-193 -127t-255.5 -45.5q-143 0 -257 45.5t-193.5 127t-122 193.5t-42.5 244zM403 1586l247 282h229 l247 -282h-183q-15 0 -37.5 5.5t-45.5 33.5l-84 109q-5 5 -8.5 11t-6.5 11l-16 -22l-84 -109q-24 -28 -45.5 -33.5t-37.5 -5.5h-175z" />
<glyph unicode="&#xdc;" horiz-adv-x="1520" d="M146 0zM146 594v887h276v-886q0 -85 23 -153.5t66.5 -117.5t106.5 -75.5t143 -26.5t143 26.5t106 75t66 117t23 153.5v887h275v-887q0 -132 -42.5 -244t-122 -193.5t-193 -127t-255.5 -45.5q-143 0 -257 45.5t-193.5 127t-122 193.5t-42.5 244zM398 1707q0 28 11.5 53 t29.5 44t42.5 30t50.5 11q29 0 54.5 -11t44.5 -30t30.5 -44t11.5 -53t-11.5 -52.5t-30.5 -43t-44.5 -28.5t-54.5 -10q-27 0 -51 10t-42 28.5t-29.5 43t-11.5 52.5zM849 1707q0 28 10.5 53t29 44t43.5 30t54 11q28 0 53 -11t44 -30t29.5 -44t10.5 -53t-10.5 -52.5t-29.5 -43 t-44 -28.5t-53 -10q-29 0 -54 10t-43.5 28.5t-29 43t-10.5 52.5z" />
<glyph unicode="&#xdd;" horiz-adv-x="1327" d="M-13 1481h242q36 0 57 -17.5t36 -44.5l270 -494q24 -45 41.5 -84t32.5 -77q13 39 30.5 78t39.5 83l270 494q11 23 33.5 42.5t57.5 19.5h243l-539 -908v-573h-275v573zM0 0zM496 1586l214 278q10 14 20.5 22.5t22.5 13t27 5.5t35 1h282l-332 -293q-20 -18 -38.5 -22.5 t-47.5 -4.5h-183z" />
<glyph unicode="&#xde;" horiz-adv-x="1260" d="M165 0v1481h275v-254h206q148 0 257 -35t179.5 -97.5t105 -149.5t34.5 -190q0 -108 -36 -197.5t-107.5 -154t-179.5 -100.5t-253 -36h-206v-267h-275zM440 482h206q76 0 132.5 19t93.5 54.5t55.5 86t18.5 113.5q0 59 -18.5 107t-55 82t-93 52t-133.5 18h-206v-532z" />
<glyph unicode="&#xdf;" horiz-adv-x="1233" d="M125 0v1008q0 109 37 199.5t106.5 157.5t169 104t224.5 37q120 0 204.5 -34.5t138 -87t78 -113t24.5 -112.5q0 -59 -20 -101t-50 -74t-65 -55.5t-65 -45t-50 -44.5t-20 -53q0 -34 25.5 -58.5t63.5 -48t83 -50t82.5 -65t63.5 -92.5t26 -133q0 -87 -32.5 -153t-87.5 -111 t-128.5 -68t-155.5 -23q-47 0 -93 9.5t-88.5 27t-80.5 41t-69 51.5l60 96q10 17 25.5 26.5t38.5 9.5q24 0 45.5 -13.5t47 -29t58.5 -28.5t79 -13q65 0 104 38.5t39 99.5q0 48 -27.5 80t-68.5 57t-89.5 49t-89.5 56t-69 78.5t-28 116.5q0 58 21.5 100.5t54 75t70 58.5 t69.5 54t53.5 59.5t21.5 74.5q0 34 -11.5 64t-37.5 52t-65.5 35.5t-96.5 13.5q-134 0 -203 -82.5t-69 -241.5v-999h-253z" />
<glyph unicode="&#xe0;" horiz-adv-x="1039" d="M50 0zM50 268q0 59 31.5 117t104 105t193.5 77.5t301 34.5v62q0 105 -45 155.5t-130 50.5q-61 0 -102 -14t-71.5 -32t-55.5 -32.5t-56 -14.5q-27 0 -45 14t-30 32l-45 81q181 166 437 166q92 0 164.5 -30t122.5 -84t76.5 -128.5t26.5 -163.5v-664h-115q-36 0 -55.5 11 t-30.5 43l-23 75q-40 -36 -77.5 -63t-78.5 -45.5t-87.5 -27.5t-103.5 -9q-67 0 -123 17.5t-97 53.5t-63.5 89.5t-22.5 123.5zM185 1497h236q42 0 62.5 -14t35.5 -40l146 -249h-144q-29 0 -47 7.5t-36 28.5zM292 282q0 -67 39.5 -95.5t102.5 -28.5q78 0 135 28t111 85v178 q-111 -5 -185 -19t-119 -35.5t-64.5 -50.5t-19.5 -62z" />
<glyph unicode="&#xe1;" horiz-adv-x="1039" d="M50 0zM50 268q0 59 31.5 117t104 105t193.5 77.5t301 34.5v62q0 105 -45 155.5t-130 50.5q-61 0 -102 -14t-71.5 -32t-55.5 -32.5t-56 -14.5q-27 0 -45 14t-30 32l-45 81q181 166 437 166q92 0 164.5 -30t122.5 -84t76.5 -128.5t26.5 -163.5v-664h-115q-36 0 -55.5 11 t-30.5 43l-23 75q-40 -36 -77.5 -63t-78.5 -45.5t-87.5 -27.5t-103.5 -9q-67 0 -123 17.5t-97 53.5t-63.5 89.5t-22.5 123.5zM292 282q0 -67 39.5 -95.5t102.5 -28.5q78 0 135 28t111 85v178q-111 -5 -185 -19t-119 -35.5t-64.5 -50.5t-19.5 -62zM378 1194l146 249 q15 27 35.5 40.5t61.5 13.5h246l-253 -267q-19 -20 -37 -28t-47 -8h-152z" />
<glyph unicode="&#xe2;" horiz-adv-x="1039" d="M50 0zM50 268q0 59 31.5 117t104 105t193.5 77.5t301 34.5v62q0 105 -45 155.5t-130 50.5q-61 0 -102 -14t-71.5 -32t-55.5 -32.5t-56 -14.5q-27 0 -45 14t-30 32l-45 81q181 166 437 166q92 0 164.5 -30t122.5 -84t76.5 -128.5t26.5 -163.5v-664h-115q-36 0 -55.5 11 t-30.5 43l-23 75q-40 -36 -77.5 -63t-78.5 -45.5t-87.5 -27.5t-103.5 -9q-67 0 -123 17.5t-97 53.5t-63.5 89.5t-22.5 123.5zM159 1196l235 285h237l235 -285h-169q-14 0 -29 5.5t-29 20.5l-101 106q-11 10 -21 25q-11 -14 -22 -25l-102 -106q-12 -13 -27.5 -19.5 t-31.5 -6.5h-175zM292 282q0 -67 39.5 -95.5t102.5 -28.5q78 0 135 28t111 85v178q-111 -5 -185 -19t-119 -35.5t-64.5 -50.5t-19.5 -62z" />
<glyph unicode="&#xe3;" horiz-adv-x="1039" d="M50 0zM50 268q0 59 31.5 117t104 105t193.5 77.5t301 34.5v62q0 105 -45 155.5t-130 50.5q-61 0 -102 -14t-71.5 -32t-55.5 -32.5t-56 -14.5q-27 0 -45 14t-30 32l-45 81q181 166 437 166q92 0 164.5 -30t122.5 -84t76.5 -128.5t26.5 -163.5v-664h-115q-36 0 -55.5 11 t-30.5 43l-23 75q-40 -36 -77.5 -63t-78.5 -45.5t-87.5 -27.5t-103.5 -9q-67 0 -123 17.5t-97 53.5t-63.5 89.5t-22.5 123.5zM187 1222q0 57 16 103.5t44.5 80t67 52t83.5 18.5q37 0 69 -13.5t60 -29t51.5 -28.5t43.5 -13q31 0 48.5 16.5t17.5 60.5h153q0 -57 -15.5 -103.5 t-43.5 -80t-66.5 -51t-84.5 -17.5q-37 0 -68.5 13t-59 28.5t-51.5 28.5t-45 13q-30 0 -46.5 -17.5t-16.5 -60.5h-157zM292 282q0 -67 39.5 -95.5t102.5 -28.5q78 0 135 28t111 85v178q-111 -5 -185 -19t-119 -35.5t-64.5 -50.5t-19.5 -62z" />
<glyph unicode="&#xe4;" horiz-adv-x="1039" d="M50 0zM50 268q0 59 31.5 117t104 105t193.5 77.5t301 34.5v62q0 105 -45 155.5t-130 50.5q-61 0 -102 -14t-71.5 -32t-55.5 -32.5t-56 -14.5q-27 0 -45 14t-30 32l-45 81q181 166 437 166q92 0 164.5 -30t122.5 -84t76.5 -128.5t26.5 -163.5v-664h-115q-36 0 -55.5 11 t-30.5 43l-23 75q-40 -36 -77.5 -63t-78.5 -45.5t-87.5 -27.5t-103.5 -9q-67 0 -123 17.5t-97 53.5t-63.5 89.5t-22.5 123.5zM164 1323q0 30 11.5 56t30.5 45.5t44 30.5t53 11q30 0 56 -11t46 -30.5t31 -45.5t11 -56q0 -29 -11 -54t-31 -43.5t-46.5 -29t-55.5 -10.5 q-28 0 -53 10.5t-44 29t-30.5 43.5t-11.5 54zM292 282q0 -67 39.5 -95.5t102.5 -28.5q78 0 135 28t111 85v178q-111 -5 -185 -19t-119 -35.5t-64.5 -50.5t-19.5 -62zM578 1323q0 30 11.5 56t30.5 45.5t44.5 30.5t53.5 11q30 0 56 -11t45 -30.5t30.5 -45.5t11.5 -56 q0 -29 -11.5 -54t-30.5 -43.5t-45 -29t-56 -10.5q-29 0 -54 10.5t-44 29t-30.5 43.5t-11.5 54z" />
<glyph unicode="&#xe5;" horiz-adv-x="1039" d="M50 0zM50 268q0 59 31.5 117t104 105t193.5 77.5t301 34.5v62q0 105 -45 155.5t-130 50.5q-61 0 -102 -14t-71.5 -32t-55.5 -32.5t-56 -14.5q-27 0 -45 14t-30 32l-45 81q181 166 437 166q92 0 164.5 -30t122.5 -84t76.5 -128.5t26.5 -163.5v-664h-115q-36 0 -55.5 11 t-30.5 43l-23 75q-40 -36 -77.5 -63t-78.5 -45.5t-87.5 -27.5t-103.5 -9q-67 0 -123 17.5t-97 53.5t-63.5 89.5t-22.5 123.5zM285 1357q0 47 18.5 86t50 66.5t72 43t86.5 15.5t88 -15.5t73.5 -43t50.5 -66.5t19 -86q0 -46 -19 -84t-50.5 -65t-73.5 -42t-88 -15q-45 0 -86 15 t-72.5 42t-50 65t-18.5 84zM292 282q0 -67 39.5 -95.5t102.5 -28.5q78 0 135 28t111 85v178q-111 -5 -185 -19t-119 -35.5t-64.5 -50.5t-19.5 -62zM422 1357q0 -39 24.5 -65t69.5 -26q41 0 65.5 26t24.5 65q0 43 -24.5 68t-65.5 25q-45 0 -69.5 -25t-24.5 -68z" />
<glyph unicode="&#xe6;" horiz-adv-x="1657" d="M52 282q0 39 13.5 79t43.5 77.5t78.5 71t118.5 58.5t163 41t213 19v36q0 105 -45 159.5t-130 54.5q-61 0 -101.5 -16t-71.5 -34.5t-56 -34.5t-56 -16q-27 0 -45 14t-30 32l-45 81q91 83 190 124.5t220 41.5q118 0 193.5 -45t115.5 -124q58 77 145 121.5t205 44.5 q89 0 166 -34.5t133.5 -99t88.5 -156.5t32 -207q0 -29 -2.5 -47.5t-8.5 -29.5t-17 -15.5t-28 -4.5h-613q14 -151 85 -222t183 -71q70 0 114 13.5t72.5 30t47.5 29.5t40 13q37 0 52 -23l68 -86q-42 -49 -92.5 -82.5t-105 -53.5t-110.5 -28t-110 -8q-112 0 -208.5 50 t-158.5 156q-31 -55 -76.5 -94.5t-100 -64.5t-116 -36.5t-123.5 -11.5q-76 0 -137.5 19.5t-104.5 56.5t-66 93t-23 129zM295 294q0 -71 39.5 -103.5t109.5 -32.5q50 0 94 15t75.5 47.5t50 83.5t18.5 122v47q-111 -5 -185 -21t-119 -39.5t-64 -54t-19 -64.5zM923 626h443 q0 50 -12.5 97t-38 83.5t-64 58t-90.5 21.5q-108 0 -166.5 -68t-71.5 -192z" />
<glyph unicode="&#xe7;" horiz-adv-x="989" d="M69 527q0 116 33 215t97.5 171t160 113t219.5 41q118 0 206 -38t159 -108l-66 -93q-11 -14 -22 -22t-32 -8q-19 0 -37.5 11.5t-44 26.5t-61 26.5t-87.5 11.5q-67 0 -117 -24t-83.5 -69t-49.5 -109t-16 -145q0 -84 18 -149.5t51.5 -110t81.5 -67.5t109 -23q60 0 97.5 15 t63 33t44.5 32.5t43 14.5q31 0 46 -23l72 -92q-70 -82 -157.5 -120.5t-180.5 -47.5l-13 -51q96 -23 134.5 -61.5t38.5 -91.5q0 -35 -18 -62.5t-51 -47t-78.5 -30t-101.5 -10.5q-42 0 -78.5 6t-71.5 17l22 79q6 23 30 23q14 0 31.5 -7.5t50.5 -7.5q34 0 51 13t17 31 q0 30 -37 42.5t-114 24.5l45 134q-86 12 -159.5 53.5t-128 109.5t-85.5 162.5t-31 211.5z" />
<glyph unicode="&#xe8;" horiz-adv-x="1093" d="M68 0zM68 548q0 108 34.5 202.5t99.5 164.5t158.5 111t211.5 41q99 0 183.5 -31.5t145 -92.5t94.5 -149.5t34 -202.5q0 -57 -12 -77t-47 -20h-651q6 -81 29 -140t59.5 -97.5t87.5 -57.5t112 -19t106 14.5t78 32t58 31.5t49 14q32 0 47 -23l73 -92q-42 -49 -94.5 -82.5 t-109 -53.5t-115.5 -28t-114 -8q-110 0 -204 36t-164 107.5t-109.5 176.5t-39.5 243zM251 1497h236q42 0 62.5 -14t35.5 -40l146 -249h-144q-29 0 -47 7.5t-36 28.5zM325 646h477q0 49 -14 92.5t-41.5 76.5t-70 52t-98.5 19q-111 0 -173.5 -62.5t-79.5 -177.5z" />
<glyph unicode="&#xe9;" horiz-adv-x="1093" d="M68 0zM68 548q0 108 34.5 202.5t99.5 164.5t158.5 111t211.5 41q99 0 183.5 -31.5t145 -92.5t94.5 -149.5t34 -202.5q0 -57 -12 -77t-47 -20h-651q6 -81 29 -140t59.5 -97.5t87.5 -57.5t112 -19t106 14.5t78 32t58 31.5t49 14q32 0 47 -23l73 -92q-42 -49 -94.5 -82.5 t-109 -53.5t-115.5 -28t-114 -8q-110 0 -204 36t-164 107.5t-109.5 176.5t-39.5 243zM325 646h477q0 49 -14 92.5t-41.5 76.5t-70 52t-98.5 19q-111 0 -173.5 -62.5t-79.5 -177.5zM444 1194l146 249q15 27 35.5 40.5t61.5 13.5h246l-253 -267q-19 -20 -37 -28t-47 -8h-152z " />
<glyph unicode="&#xea;" horiz-adv-x="1093" d="M68 0zM68 548q0 108 34.5 202.5t99.5 164.5t158.5 111t211.5 41q99 0 183.5 -31.5t145 -92.5t94.5 -149.5t34 -202.5q0 -57 -12 -77t-47 -20h-651q6 -81 29 -140t59.5 -97.5t87.5 -57.5t112 -19t106 14.5t78 32t58 31.5t49 14q32 0 47 -23l73 -92q-42 -49 -94.5 -82.5 t-109 -53.5t-115.5 -28t-114 -8q-110 0 -204 36t-164 107.5t-109.5 176.5t-39.5 243zM225 1196l235 285h237l235 -285h-169q-14 0 -29 5.5t-29 20.5l-101 106q-11 10 -21 25q-11 -14 -22 -25l-102 -106q-12 -13 -27.5 -19.5t-31.5 -6.5h-175zM325 646h477q0 49 -14 92.5 t-41.5 76.5t-70 52t-98.5 19q-111 0 -173.5 -62.5t-79.5 -177.5z" />
<glyph unicode="&#xeb;" horiz-adv-x="1093" d="M68 0zM68 548q0 108 34.5 202.5t99.5 164.5t158.5 111t211.5 41q99 0 183.5 -31.5t145 -92.5t94.5 -149.5t34 -202.5q0 -57 -12 -77t-47 -20h-651q6 -81 29 -140t59.5 -97.5t87.5 -57.5t112 -19t106 14.5t78 32t58 31.5t49 14q32 0 47 -23l73 -92q-42 -49 -94.5 -82.5 t-109 -53.5t-115.5 -28t-114 -8q-110 0 -204 36t-164 107.5t-109.5 176.5t-39.5 243zM230 1323q0 30 11.5 56t30.5 45.5t44 30.5t53 11q30 0 56 -11t46 -30.5t31 -45.5t11 -56q0 -29 -11 -54t-31 -43.5t-46.5 -29t-55.5 -10.5q-28 0 -53 10.5t-44 29t-30.5 43.5t-11.5 54z M325 646h477q0 49 -14 92.5t-41.5 76.5t-70 52t-98.5 19q-111 0 -173.5 -62.5t-79.5 -177.5zM644 1323q0 30 11.5 56t30.5 45.5t44.5 30.5t53.5 11q30 0 56 -11t45 -30.5t30.5 -45.5t11.5 -56q0 -29 -11.5 -54t-30.5 -43.5t-45 -29t-56 -10.5q-29 0 -54 10.5t-44 29 t-30.5 43.5t-11.5 54z" />
<glyph unicode="&#xec;" horiz-adv-x="520" d="M-60 1497h236q42 0 62.5 -14t35.5 -40l146 -249h-144q-29 0 -47 7.5t-36 28.5zM0 0zM133 0v1051h253v-1051h-253z" />
<glyph unicode="&#xed;" horiz-adv-x="521" d="M134 0v1051h253v-1051h-253zM134 0zM134 1194l146 249q15 27 35.5 40.5t61.5 13.5h246l-253 -267q-19 -20 -37 -28t-47 -8h-152z" />
<glyph unicode="&#xee;" horiz-adv-x="520" d="M-86 1196l235 285h237l235 -285h-169q-14 0 -29 5.5t-29 20.5l-101 106q-11 10 -21 25q-11 -14 -22 -25l-102 -106q-12 -13 -27.5 -19.5t-31.5 -6.5h-175zM0 0zM133 0v1051h253v-1051h-253z" />
<glyph unicode="&#xef;" horiz-adv-x="520" d="M-48 1323q0 30 11.5 56t31 45.5t44.5 30.5t52 11q29 0 55 -11t46 -30.5t31.5 -45.5t11.5 -56q0 -29 -11.5 -54t-31.5 -43.5t-46 -29t-55 -10.5q-28 0 -52.5 10.5t-44 29t-31 43.5t-11.5 54zM0 0zM133 0v1051h253v-1051h-253zM300 1323q0 30 11.5 56t30.5 45.5t44.5 30.5 t54.5 11q30 0 56 -11t44.5 -30.5t30 -45.5t11.5 -56q0 -29 -11.5 -54t-30 -43.5t-45 -29t-55.5 -10.5t-54.5 10.5t-44.5 29t-30.5 43.5t-11.5 54z" />
<glyph unicode="&#xf0;" horiz-adv-x="1168" d="M66 485q0 94 33 179.5t94 149.5t147.5 101.5t193.5 37.5q195 0 320 -137q-22 109 -73 186.5t-138 136.5l-202 -131l-48 79q-15 24 -9 46.5t32 36.5l77 44q-33 13 -69.5 24.5t-76.5 23.5q-16 4 -29.5 13.5t-21 24.5t-8 35t8.5 44l29 87q103 -17 199 -49t181 -81l180 116 l50 -82q14 -23 8 -43.5t-28 -35.5l-82 -47q58 -52 105 -116t81 -141t52 -168t18 -196q0 -151 -34.5 -269t-101 -200.5t-165 -125.5t-225.5 -43q-106 0 -197.5 34t-158 98.5t-104.5 157.5t-38 210zM316 483q0 -75 20 -131.5t54.5 -95.5t81 -59t98.5 -20q59 0 109.5 21.5 t87.5 69t59 123.5t25 186q-16 38 -40 71.5t-56.5 58.5t-75 39.5t-94.5 14.5q-66 0 -116 -21.5t-84 -59.5t-51.5 -88t-17.5 -109z" />
<glyph unicode="&#xf1;" horiz-adv-x="1155" d="M125 0v1051h155q49 0 64 -46l17 -83q32 33 67.5 59.5t75 46t84.5 29.5t98 10q86 0 152.5 -29t111 -82t67.5 -126t23 -161v-669h-253v669q0 96 -44 148.5t-134 52.5q-66 0 -123 -29.5t-108 -80.5v-760h-253zM125 0zM262 1222q0 57 16 103.5t44.5 80t67 52t83.5 18.5 q37 0 69 -13.5t60 -29t51.5 -28.5t43.5 -13q31 0 48.5 16.5t17.5 60.5h153q0 -57 -15.5 -103.5t-43.5 -80t-66.5 -51t-84.5 -17.5q-37 0 -68.5 13t-59 28.5t-51.5 28.5t-45 13q-30 0 -46.5 -17.5t-16.5 -60.5h-157z" />
<glyph unicode="&#xf2;" horiz-adv-x="1176" d="M69 0zM69 527q0 124 37 224.5t105.5 170t164.5 107.5t214 38q117 0 212.5 -38t163.5 -107.5t105 -170t37 -224.5q0 -125 -37 -225t-105 -171t-163.5 -108.5t-212.5 -37.5q-118 0 -214 37.5t-164.5 108.5t-105.5 171t-37 225zM262 1497h236q42 0 62.5 -14t35.5 -40 l146 -249h-144q-29 0 -47 7.5t-36 28.5zM329 525q0 -169 64 -257.5t197 -88.5q131 0 194 88t63 258t-63 259t-194 89q-133 0 -197 -89.5t-64 -258.5z" />
<glyph unicode="&#xf3;" horiz-adv-x="1176" d="M69 0zM69 527q0 124 37 224.5t105.5 170t164.5 107.5t214 38q117 0 212.5 -38t163.5 -107.5t105 -170t37 -224.5q0 -125 -37 -225t-105 -171t-163.5 -108.5t-212.5 -37.5q-118 0 -214 37.5t-164.5 108.5t-105.5 171t-37 225zM329 525q0 -169 64 -257.5t197 -88.5 q131 0 194 88t63 258t-63 259t-194 89q-133 0 -197 -89.5t-64 -258.5zM455 1194l146 249q15 27 35.5 40.5t61.5 13.5h246l-253 -267q-19 -20 -37 -28t-47 -8h-152z" />
<glyph unicode="&#xf4;" horiz-adv-x="1176" d="M69 0zM69 527q0 124 37 224.5t105.5 170t164.5 107.5t214 38q117 0 212.5 -38t163.5 -107.5t105 -170t37 -224.5q0 -125 -37 -225t-105 -171t-163.5 -108.5t-212.5 -37.5q-118 0 -214 37.5t-164.5 108.5t-105.5 171t-37 225zM236 1196l235 285h237l235 -285h-169 q-14 0 -29 5.5t-29 20.5l-101 106q-11 10 -21 25q-11 -14 -22 -25l-102 -106q-12 -13 -27.5 -19.5t-31.5 -6.5h-175zM329 525q0 -169 64 -257.5t197 -88.5q131 0 194 88t63 258t-63 259t-194 89q-133 0 -197 -89.5t-64 -258.5z" />
<glyph unicode="&#xf5;" horiz-adv-x="1176" d="M69 0zM69 527q0 124 37 224.5t105.5 170t164.5 107.5t214 38q117 0 212.5 -38t163.5 -107.5t105 -170t37 -224.5q0 -125 -37 -225t-105 -171t-163.5 -108.5t-212.5 -37.5q-118 0 -214 37.5t-164.5 108.5t-105.5 171t-37 225zM264 1222q0 57 16 103.5t44.5 80t67 52 t83.5 18.5q37 0 69 -13.5t60 -29t51.5 -28.5t43.5 -13q31 0 48.5 16.5t17.5 60.5h153q0 -57 -15.5 -103.5t-43.5 -80t-66.5 -51t-84.5 -17.5q-37 0 -68.5 13t-59 28.5t-51.5 28.5t-45 13q-30 0 -46.5 -17.5t-16.5 -60.5h-157zM329 525q0 -169 64 -257.5t197 -88.5 q131 0 194 88t63 258t-63 259t-194 89q-133 0 -197 -89.5t-64 -258.5z" />
<glyph unicode="&#xf6;" horiz-adv-x="1176" d="M69 0zM69 527q0 124 37 224.5t105.5 170t164.5 107.5t214 38q117 0 212.5 -38t163.5 -107.5t105 -170t37 -224.5q0 -125 -37 -225t-105 -171t-163.5 -108.5t-212.5 -37.5q-118 0 -214 37.5t-164.5 108.5t-105.5 171t-37 225zM241 1323q0 30 11.5 56t30.5 45.5t44 30.5 t53 11q30 0 56 -11t46 -30.5t31 -45.5t11 -56q0 -29 -11 -54t-31 -43.5t-46.5 -29t-55.5 -10.5q-28 0 -53 10.5t-44 29t-30.5 43.5t-11.5 54zM329 525q0 -169 64 -257.5t197 -88.5q131 0 194 88t63 258t-63 259t-194 89q-133 0 -197 -89.5t-64 -258.5zM655 1323 q0 30 11.5 56t30.5 45.5t44.5 30.5t53.5 11q30 0 56 -11t45 -30.5t30.5 -45.5t11.5 -56q0 -29 -11.5 -54t-30.5 -43.5t-45 -29t-56 -10.5q-29 0 -54 10.5t-44 29t-30.5 43.5t-11.5 54z" />
<glyph unicode="&#xf7;" horiz-adv-x="1187" d="M94 594v187h999v-187h-999zM437 323q0 32 12 60.5t33 49t49.5 32.5t61.5 12q32 0 60.5 -12t49.5 -32.5t33.5 -49.5t12.5 -60q0 -33 -12.5 -61.5t-33.5 -48.5t-49.5 -32t-60.5 -12q-33 0 -61.5 12t-49.5 32t-33 48.5t-12 61.5zM437 1052q0 32 12 60.5t33 49t49.5 32.5 t61.5 12q32 0 60.5 -12t49.5 -32.5t33.5 -49.5t12.5 -60q0 -33 -12.5 -61t-33.5 -48.5t-49.5 -32.5t-60.5 -12q-33 0 -61.5 12t-49.5 32.5t-33 48.5t-12 61z" />
<glyph unicode="&#xf8;" horiz-adv-x="1175" d="M50 -79l158 214q-68 71 -103.5 169.5t-35.5 222.5t37 224.5t105.5 170t164.5 107.5t214 38q147 0 260 -59l57 76q12 18 23 31.5t24 21.5t29 11.5t39 3.5h125l-175 -238q66 -71 101 -168t35 -219q0 -125 -37 -225t-105 -171t-163.5 -108.5t-212.5 -37.5q-74 0 -139 14.5 t-121 43.5l-35 -48q-14 -20 -32 -34.5t-38 -23.5t-41.5 -12.5t-41.5 -3.5h-92zM313 525q0 -122 33 -201l385 522q-57 35 -141 35q-134 0 -205.5 -93t-71.5 -263zM449 204q56 -33 141 -33q131 0 201.5 92t70.5 262q0 116 -32 197z" />
<glyph unicode="&#xf9;" horiz-adv-x="1155" d="M115 0zM115 383v668h253v-668q0 -96 44.5 -149t133.5 -53q66 0 123 29.5t108 80.5v760h253v-1051h-154q-50 0 -64 46l-17 84q-33 -33 -68 -60t-75 -46.5t-85 -29.5t-98 -10q-86 0 -152 29t-111 82t-68 126.5t-23 161.5zM250 1497h236q42 0 62.5 -14t35.5 -40l146 -249 h-144q-29 0 -47 7.5t-36 28.5z" />
<glyph unicode="&#xfa;" horiz-adv-x="1155" d="M115 0zM115 383v668h253v-668q0 -96 44.5 -149t133.5 -53q66 0 123 29.5t108 80.5v760h253v-1051h-154q-50 0 -64 46l-17 84q-33 -33 -68 -60t-75 -46.5t-85 -29.5t-98 -10q-86 0 -152 29t-111 82t-68 126.5t-23 161.5zM443 1194l146 249q15 27 35.5 40.5t61.5 13.5h246 l-253 -267q-19 -20 -37 -28t-47 -8h-152z" />
<glyph unicode="&#xfb;" horiz-adv-x="1155" d="M115 0zM115 383v668h253v-668q0 -96 44.5 -149t133.5 -53q66 0 123 29.5t108 80.5v760h253v-1051h-154q-50 0 -64 46l-17 84q-33 -33 -68 -60t-75 -46.5t-85 -29.5t-98 -10q-86 0 -152 29t-111 82t-68 126.5t-23 161.5zM224 1196l235 285h237l235 -285h-169 q-14 0 -29 5.5t-29 20.5l-101 106q-11 10 -21 25q-11 -14 -22 -25l-102 -106q-12 -13 -27.5 -19.5t-31.5 -6.5h-175z" />
<glyph unicode="&#xfc;" horiz-adv-x="1155" d="M115 0zM115 383v668h253v-668q0 -96 44.5 -149t133.5 -53q66 0 123 29.5t108 80.5v760h253v-1051h-154q-50 0 -64 46l-17 84q-33 -33 -68 -60t-75 -46.5t-85 -29.5t-98 -10q-86 0 -152 29t-111 82t-68 126.5t-23 161.5zM229 1323q0 30 11.5 56t30.5 45.5t44 30.5t53 11 q30 0 56 -11t46 -30.5t31 -45.5t11 -56q0 -29 -11 -54t-31 -43.5t-46.5 -29t-55.5 -10.5q-28 0 -53 10.5t-44 29t-30.5 43.5t-11.5 54zM643 1323q0 30 11.5 56t30.5 45.5t44.5 30.5t53.5 11q30 0 56 -11t45 -30.5t30.5 -45.5t11.5 -56q0 -29 -11.5 -54t-30.5 -43.5t-45 -29 t-56 -10.5q-29 0 -54 10.5t-44 29t-30.5 43.5t-11.5 54z" />
<glyph unicode="&#xfd;" horiz-adv-x="1080" d="M6 0zM6 1051h222q30 0 47 -14.5t25 -32.5l223 -545q20 -56 34 -112q8 29 18 57t21 56l211 544q8 20 27 33.5t43 13.5h202l-572 -1340q-11 -27 -29 -40.5t-55 -13.5h-189l197 421zM432 1194l146 249q15 27 35.5 40.5t61.5 13.5h246l-253 -267q-19 -20 -37 -28t-47 -8h-152 z" />
<glyph unicode="&#xfe;" horiz-adv-x="1163" d="M125 -343v1865h253v-600q62 67 141 106t184 39q86 0 157.5 -35.5t123 -103t80 -166.5t28.5 -228q0 -118 -32 -218.5t-91 -174t-142.5 -115t-186.5 -41.5q-45 0 -83 8t-69.5 24t-58.5 38t-51 49v-447h-253zM378 272q43 -53 93.5 -74t110.5 -21q57 0 103 21.5t78.5 65.5 t49.5 111t17 159t-14.5 156t-42.5 104t-67.5 58t-89.5 18q-79 0 -134.5 -33t-103.5 -94v-471z" />
<glyph unicode="&#xff;" horiz-adv-x="1080" d="M6 0zM6 1051h222q30 0 47 -14.5t25 -32.5l223 -545q20 -56 34 -112q8 29 18 57t21 56l211 544q8 20 27 33.5t43 13.5h202l-572 -1340q-11 -27 -29 -40.5t-55 -13.5h-189l197 421zM218 1323q0 30 11.5 56t30.5 45.5t44 30.5t53 11q30 0 56 -11t46 -30.5t31 -45.5t11 -56 q0 -29 -11 -54t-31 -43.5t-46.5 -29t-55.5 -10.5q-28 0 -53 10.5t-44 29t-30.5 43.5t-11.5 54zM632 1323q0 30 11.5 56t30.5 45.5t44.5 30.5t53.5 11q30 0 56 -11t45 -30.5t30.5 -45.5t11.5 -56q0 -29 -11.5 -54t-30.5 -43.5t-45 -29t-56 -10.5q-29 0 -54 10.5t-44 29 t-30.5 43.5t-11.5 54z" />
<glyph unicode="&#x100;" horiz-adv-x="1422" d="M-11 0l582 1481h281l582 -1481h-213q-36 0 -58.5 18t-34.5 44l-110 303h-614l-110 -303q-8 -24 -31.5 -43t-58.5 -19h-215zM0 0zM403 1608v145h615v-145h-615zM475 559h472l-180 493q-13 33 -27.5 77.5t-28.5 96.5q-14 -52 -28 -97.5t-28 -78.5z" />
<glyph unicode="&#x101;" horiz-adv-x="1039" d="M50 0zM50 268q0 59 31.5 117t104 105t193.5 77.5t301 34.5v62q0 105 -45 155.5t-130 50.5q-61 0 -102 -14t-71.5 -32t-55.5 -32.5t-56 -14.5q-27 0 -45 14t-30 32l-45 81q181 166 437 166q92 0 164.5 -30t122.5 -84t76.5 -128.5t26.5 -163.5v-664h-115q-36 0 -55.5 11 t-30.5 43l-23 75q-40 -36 -77.5 -63t-78.5 -45.5t-87.5 -27.5t-103.5 -9q-67 0 -123 17.5t-97 53.5t-63.5 89.5t-22.5 123.5zM206 1243v162h613v-162h-613zM292 282q0 -67 39.5 -95.5t102.5 -28.5q78 0 135 28t111 85v178q-111 -5 -185 -19t-119 -35.5t-64.5 -50.5 t-19.5 -62z" />
<glyph unicode="&#x102;" horiz-adv-x="1422" d="M-11 0l582 1481h281l582 -1481h-213q-36 0 -58.5 18t-34.5 44l-110 303h-614l-110 -303q-8 -24 -31.5 -43t-58.5 -19h-215zM0 0zM373 1863h193q0 -31 7.5 -54.5t24 -40t44.5 -25t69 -8.5q81 0 112.5 33t31.5 95h194q0 -66 -24.5 -117.5t-68.5 -88t-106 -55.5t-139 -19 t-139.5 17t-106.5 51.5t-68 87t-24 124.5zM475 559h472l-180 493q-13 33 -27.5 77.5t-28.5 96.5q-14 -52 -28 -97.5t-28 -78.5z" />
<glyph unicode="&#x103;" horiz-adv-x="1039" d="M50 0zM50 268q0 59 31.5 117t104 105t193.5 77.5t301 34.5v62q0 105 -45 155.5t-130 50.5q-61 0 -102 -14t-71.5 -32t-55.5 -32.5t-56 -14.5q-27 0 -45 14t-30 32l-45 81q181 166 437 166q92 0 164.5 -30t122.5 -84t76.5 -128.5t26.5 -163.5v-664h-115q-36 0 -55.5 11 t-30.5 43l-23 75q-40 -36 -77.5 -63t-78.5 -45.5t-87.5 -27.5t-103.5 -9q-67 0 -123 17.5t-97 53.5t-63.5 89.5t-22.5 123.5zM203 1481h178q0 -31 5.5 -55.5t20 -41.5t40.5 -26t66 -9t65.5 9t40 26t20.5 41.5t6 55.5h177q0 -59 -15.5 -112.5t-52 -93.5t-95.5 -63t-146 -23 q-88 0 -147 23t-95.5 63t-52 93t-15.5 113zM292 282q0 -67 39.5 -95.5t102.5 -28.5q78 0 135 28t111 85v178q-111 -5 -185 -19t-119 -35.5t-64.5 -50.5t-19.5 -62z" />
<glyph unicode="&#x104;" horiz-adv-x="1420" d="M-13 0l582 1481h281l582 -1481h-54q-20 -11 -39.5 -25.5t-35 -32.5t-24.5 -38.5t-9 -42.5q0 -31 19.5 -49t53.5 -18q19 0 32 2t20.5 5t13 5.5t10.5 2.5q18 0 24 -17l39 -93q-34 -23 -84.5 -37.5t-107.5 -14.5q-100 0 -154.5 42t-54.5 108q0 56 37.5 108.5t107.5 94.5h-7 q-36 0 -58.5 18t-34.5 44l-110 303h-614l-110 -303q-8 -24 -31.5 -43t-58.5 -19h-215zM473 559h472l-180 493q-13 33 -27.5 77.5t-28.5 96.5q-14 -52 -28 -97.5t-28 -78.5z" />
<glyph unicode="&#x105;" horiz-adv-x="1039" d="M50 268q0 59 31.5 117t104 105t193.5 77.5t301 34.5v62q0 105 -45 155.5t-130 50.5q-61 0 -102 -14t-71.5 -32t-55.5 -32.5t-56 -14.5q-27 0 -45 14t-30 32l-45 81q181 166 437 166q92 0 164.5 -30t122.5 -84t76.5 -128.5t26.5 -163.5v-664q-20 -11 -40 -25.5t-35 -32.5 t-24.5 -38.5t-9.5 -42.5q0 -31 19.5 -49t54.5 -18q19 0 31.5 2t20 5t13.5 5.5t11 2.5q18 0 23 -17l39 -93q-34 -23 -84.5 -37.5t-106.5 -14.5q-100 0 -154.5 42t-54.5 108q0 57 38.5 110t109.5 96q-19 4 -31.5 16t-20.5 35l-23 75q-40 -36 -77.5 -63t-78.5 -45.5 t-87.5 -27.5t-103.5 -9q-67 0 -123 17.5t-97 53.5t-63.5 89.5t-22.5 123.5zM292 282q0 -67 39.5 -95.5t102.5 -28.5q78 0 135 28t111 85v178q-111 -5 -185 -19t-119 -35.5t-64.5 -50.5t-19.5 -62z" />
<glyph unicode="&#x106;" horiz-adv-x="1353" d="M78 0zM78 740q0 167 53 306t150 239t231 156t297 56q162 0 287.5 -53t213.5 -139l-92 -128q-8 -12 -21 -21.5t-36 -9.5q-15 0 -31.5 8.5t-36 21.5t-45 28.5t-59.5 28t-78.5 21.5t-102.5 9q-99 0 -181.5 -35.5t-142 -102.5t-92.5 -164t-33 -221q0 -125 35.5 -222 t96 -163.5t142.5 -102t176 -35.5q56 0 101.5 6t84 19.5t73 34.5t68.5 52q10 9 21.5 14.5t23.5 5.5q23 0 40 -17l108 -118q-90 -112 -221.5 -171t-315.5 -59q-165 0 -296.5 56t-225 156.5t-143 239.5t-49.5 304zM658 1586l214 278q10 14 20.5 22.5t22.5 13t27 5.5t35 1h282 l-332 -293q-20 -18 -38.5 -22.5t-47.5 -4.5h-183z" />
<glyph unicode="&#x107;" horiz-adv-x="987" d="M69 0zM69 527q0 116 33 215t97.5 171t160 113t219.5 41q118 0 206 -38t159 -108l-66 -93q-11 -14 -22 -22t-32 -8q-19 0 -37.5 11.5t-44 26.5t-61 26.5t-87.5 11.5q-67 0 -117 -24t-83.5 -69t-49.5 -109t-16 -145q0 -84 18 -149.5t51.5 -110t81.5 -67.5t109 -23 q60 0 97.5 15t63 33t44.5 32.5t43 14.5q31 0 46 -23l72 -92q-42 -49 -91 -82.5t-101.5 -53.5t-108.5 -28t-111 -8q-97 0 -183.5 36t-151 106t-101.5 170.5t-37 229.5zM438 1194l146 249q15 27 35.5 40.5t61.5 13.5h246l-253 -267q-19 -20 -37 -28t-47 -8h-152z" />
<glyph unicode="&#x108;" horiz-adv-x="1353" d="M78 0zM78 740q0 167 53 306t150 239t231 156t297 56q162 0 287.5 -53t213.5 -139l-92 -128q-8 -12 -21 -21.5t-36 -9.5q-15 0 -31.5 8.5t-36 21.5t-45 28.5t-59.5 28t-78.5 21.5t-102.5 9q-99 0 -181.5 -35.5t-142 -102.5t-92.5 -164t-33 -221q0 -125 35.5 -222 t96 -163.5t142.5 -102t176 -35.5q56 0 101.5 6t84 19.5t73 34.5t68.5 52q10 9 21.5 14.5t23.5 5.5q23 0 40 -17l108 -118q-90 -112 -221.5 -171t-315.5 -59q-165 0 -296.5 56t-225 156.5t-143 239.5t-49.5 304zM472 1586l247 282h229l247 -282h-183q-15 0 -37.5 5.5 t-45.5 33.5l-84 109q-5 5 -8.5 11t-6.5 11l-16 -22l-84 -109q-24 -28 -45.5 -33.5t-37.5 -5.5h-175z" />
<glyph unicode="&#x109;" horiz-adv-x="987" d="M69 0zM69 527q0 116 33 215t97.5 171t160 113t219.5 41q118 0 206 -38t159 -108l-66 -93q-11 -14 -22 -22t-32 -8q-19 0 -37.5 11.5t-44 26.5t-61 26.5t-87.5 11.5q-67 0 -117 -24t-83.5 -69t-49.5 -109t-16 -145q0 -84 18 -149.5t51.5 -110t81.5 -67.5t109 -23 q60 0 97.5 15t63 33t44.5 32.5t43 14.5q31 0 46 -23l72 -92q-42 -49 -91 -82.5t-101.5 -53.5t-108.5 -28t-111 -8q-97 0 -183.5 36t-151 106t-101.5 170.5t-37 229.5zM219 1196l235 285h237l235 -285h-169q-14 0 -29 5.5t-29 20.5l-101 106q-11 10 -21 25q-11 -14 -22 -25 l-102 -106q-12 -13 -27.5 -19.5t-31.5 -6.5h-175z" />
<glyph unicode="&#x10a;" horiz-adv-x="1353" d="M78 0zM78 740q0 167 53 306t150 239t231 156t297 56q162 0 287.5 -53t213.5 -139l-92 -128q-8 -12 -21 -21.5t-36 -9.5q-15 0 -31.5 8.5t-36 21.5t-45 28.5t-59.5 28t-78.5 21.5t-102.5 9q-99 0 -181.5 -35.5t-142 -102.5t-92.5 -164t-33 -221q0 -125 35.5 -222 t96 -163.5t142.5 -102t176 -35.5q56 0 101.5 6t84 19.5t73 34.5t68.5 52q10 9 21.5 14.5t23.5 5.5q23 0 40 -17l108 -118q-90 -112 -221.5 -171t-315.5 -59q-165 0 -296.5 56t-225 156.5t-143 239.5t-49.5 304zM675 1735q0 32 12.5 60t33.5 49t48.5 33t57.5 12 q32 0 60.5 -12t50 -33t34 -49t12.5 -60q0 -31 -12.5 -58t-34 -48t-50.5 -33.5t-60 -12.5q-30 0 -57.5 12.5t-48.5 33.5t-33.5 48t-12.5 58z" />
<glyph unicode="&#x10b;" horiz-adv-x="987" d="M69 0zM69 527q0 116 33 215t97.5 171t160 113t219.5 41q118 0 206 -38t159 -108l-66 -93q-11 -14 -22 -22t-32 -8q-19 0 -37.5 11.5t-44 26.5t-61 26.5t-87.5 11.5q-67 0 -117 -24t-83.5 -69t-49.5 -109t-16 -145q0 -84 18 -149.5t51.5 -110t81.5 -67.5t109 -23 q60 0 97.5 15t63 33t44.5 32.5t43 14.5q31 0 46 -23l72 -92q-42 -49 -91 -82.5t-101.5 -53.5t-108.5 -28t-111 -8q-97 0 -183.5 36t-151 106t-101.5 170.5t-37 229.5zM412 1361q0 34 12.5 63t34 51t50.5 35t62 13q34 0 64 -13t52 -35t35 -51t13 -63q0 -33 -13 -62t-35 -50.5 t-52.5 -34.5t-63.5 -13t-62 13t-50.5 34.5t-34 50.5t-12.5 62z" />
<glyph unicode="&#x10c;" horiz-adv-x="1353" d="M78 0zM78 740q0 167 53 306t150 239t231 156t297 56q162 0 287.5 -53t213.5 -139l-92 -128q-8 -12 -21 -21.5t-36 -9.5q-15 0 -31.5 8.5t-36 21.5t-45 28.5t-59.5 28t-78.5 21.5t-102.5 9q-99 0 -181.5 -35.5t-142 -102.5t-92.5 -164t-33 -221q0 -125 35.5 -222 t96 -163.5t142.5 -102t176 -35.5q56 0 101.5 6t84 19.5t73 34.5t68.5 52q10 9 21.5 14.5t23.5 5.5q23 0 40 -17l108 -118q-90 -112 -221.5 -171t-315.5 -59q-165 0 -296.5 56t-225 156.5t-143 239.5t-49.5 304zM464 1868h183q15 0 37 -4t39 -27l91 -120l16 -22q5 8 15 22 l90 119q17 24 39.5 28t37.5 4h183l-247 -282h-237z" />
<glyph unicode="&#x10d;" horiz-adv-x="987" d="M69 0zM69 527q0 116 33 215t97.5 171t160 113t219.5 41q118 0 206 -38t159 -108l-66 -93q-11 -14 -22 -22t-32 -8q-19 0 -37.5 11.5t-44 26.5t-61 26.5t-87.5 11.5q-67 0 -117 -24t-83.5 -69t-49.5 -109t-16 -145q0 -84 18 -149.5t51.5 -110t81.5 -67.5t109 -23 q60 0 97.5 15t63 33t44.5 32.5t43 14.5q31 0 46 -23l72 -92q-42 -49 -91 -82.5t-101.5 -53.5t-108.5 -28t-111 -8q-97 0 -183.5 36t-151 106t-101.5 170.5t-37 229.5zM219 1481h175q15 0 29 -5.5t23 -12.5l108 -113q5 -5 11 -12t11 -14q10 13 22 26l108 113q8 6 22.5 12 t28.5 6h169l-235 -285h-237z" />
<glyph unicode="&#x10e;" horiz-adv-x="1557" d="M165 0v1481h564q169 0 307.5 -55t236.5 -152.5t152.5 -234t54.5 -299.5t-54.5 -299t-152.5 -234t-236.5 -152.5t-307.5 -54.5h-564zM165 0zM331 1868h183q15 0 37 -4t39 -27l91 -120l16 -22q5 8 15 22l90 119q17 24 39.5 28t37.5 4h183l-247 -282h-237zM441 219h288 q109 0 195.5 36t147.5 103t93 163.5t32 218.5t-32 219t-93 164t-147.5 103t-195.5 36h-288v-1043z" />
<glyph unicode="&#x10f;" horiz-adv-x="1162" d="M71 0zM71 522q0 117 31.5 217.5t91 174t142.5 115t186 41.5q88 0 150.5 -28t111.5 -75v555h253v-1522h-154q-50 0 -64 46l-21 101q-33 -37 -69 -66.5t-77.5 -51t-89 -33t-102.5 -11.5q-86 0 -158 35.5t-123.5 104t-79.5 168.5t-28 229zM332 522q0 -92 14.5 -156 t42.5 -104.5t68 -58.5t89 -18q79 0 134 33t104 93v471q-43 52 -93.5 74t-108.5 22q-57 0 -103.5 -21.5t-79 -65t-50 -111t-17.5 -158.5zM1117 1169l63 355h170q29 0 35.5 -13t6.5 -25q0 -9 -3.5 -25t-14.5 -46.5t-30.5 -78t-49.5 -121.5q-13 -30 -34 -38t-53 -8h-90z" />
<glyph unicode="&#x110;" horiz-adv-x="1576" d="M-1 667v156h185v658h565q169 0 307 -55t236.5 -152.5t152.5 -234t54 -299.5t-54 -299t-152.5 -234t-236.5 -152.5t-307 -54.5h-565v667h-185zM461 219h288q109 0 195 36t146.5 103t93.5 163.5t33 218.5t-33 219t-93.5 164t-147 103t-194.5 36h-288v-439h272v-156h-272 v-448z" />
<glyph unicode="&#x111;" horiz-adv-x="1163" d="M73 506q0 118 31.5 215.5t90.5 168.5t142.5 110t186.5 39q88 0 150 -27.5t111 -74.5v221h-231v157h231v207h254v-207h147v-157h-147v-1158h-155q-50 0 -64 46l-21 100q-63 -73 -146 -117t-192 -44q-86 0 -157.5 33t-123 98.5t-79.5 163t-28 226.5zM334 506 q0 -92 15 -153.5t42.5 -98.5t67 -53t88.5 -16q79 0 134 32.5t104 92.5v443q-43 52 -93.5 72.5t-108.5 20.5q-57 0 -103.5 -19t-78.5 -60t-49.5 -105.5t-17.5 -155.5z" />
<glyph unicode="&#x112;" horiz-adv-x="1177" d="M165 0v1481h934v-219h-658v-411h518v-212h-518v-419h658v-220h-934zM165 0zM340 1608v145h615v-145h-615z" />
<glyph unicode="&#x113;" horiz-adv-x="1093" d="M68 0zM68 548q0 108 34.5 202.5t99.5 164.5t158.5 111t211.5 41q99 0 183.5 -31.5t145 -92.5t94.5 -149.5t34 -202.5q0 -57 -12 -77t-47 -20h-651q6 -81 29 -140t59.5 -97.5t87.5 -57.5t112 -19t106 14.5t78 32t58 31.5t49 14q32 0 47 -23l73 -92q-42 -49 -94.5 -82.5 t-109 -53.5t-115.5 -28t-114 -8q-110 0 -204 36t-164 107.5t-109.5 176.5t-39.5 243zM272 1243v162h613v-162h-613zM325 646h477q0 49 -14 92.5t-41.5 76.5t-70 52t-98.5 19q-111 0 -173.5 -62.5t-79.5 -177.5z" />
<glyph unicode="&#x114;" horiz-adv-x="1177" d="M165 0v1481h934v-219h-658v-411h518v-212h-518v-419h658v-220h-934zM165 0zM310 1863h193q0 -31 7.5 -54.5t24 -40t44.5 -25t69 -8.5q81 0 112.5 33t31.5 95h194q0 -66 -24.5 -117.5t-68.5 -88t-106 -55.5t-139 -19t-139.5 17t-106.5 51.5t-68 87t-24 124.5z" />
<glyph unicode="&#x115;" horiz-adv-x="1093" d="M68 0zM68 548q0 108 34.5 202.5t99.5 164.5t158.5 111t211.5 41q99 0 183.5 -31.5t145 -92.5t94.5 -149.5t34 -202.5q0 -57 -12 -77t-47 -20h-651q6 -81 29 -140t59.5 -97.5t87.5 -57.5t112 -19t106 14.5t78 32t58 31.5t49 14q32 0 47 -23l73 -92q-42 -49 -94.5 -82.5 t-109 -53.5t-115.5 -28t-114 -8q-110 0 -204 36t-164 107.5t-109.5 176.5t-39.5 243zM269 1481h178q0 -31 5.5 -55.5t20 -41.5t40.5 -26t66 -9t65.5 9t40 26t20.5 41.5t6 55.5h177q0 -59 -15.5 -112.5t-52 -93.5t-95.5 -63t-146 -23q-88 0 -147 23t-95.5 63t-52 93 t-15.5 113zM325 646h477q0 49 -14 92.5t-41.5 76.5t-70 52t-98.5 19q-111 0 -173.5 -62.5t-79.5 -177.5z" />
<glyph unicode="&#x116;" horiz-adv-x="1177" d="M165 0v1481h934v-219h-658v-411h518v-212h-518v-419h658v-220h-934zM165 0zM492 1735q0 32 12.5 60t33.5 49t48.5 33t57.5 12q32 0 60.5 -12t50 -33t34 -49t12.5 -60q0 -31 -12.5 -58t-34 -48t-50.5 -33.5t-60 -12.5q-30 0 -57.5 12.5t-48.5 33.5t-33.5 48t-12.5 58z" />
<glyph unicode="&#x117;" horiz-adv-x="1093" d="M68 0zM68 548q0 108 34.5 202.5t99.5 164.5t158.5 111t211.5 41q99 0 183.5 -31.5t145 -92.5t94.5 -149.5t34 -202.5q0 -57 -12 -77t-47 -20h-651q6 -81 29 -140t59.5 -97.5t87.5 -57.5t112 -19t106 14.5t78 32t58 31.5t49 14q32 0 47 -23l73 -92q-42 -49 -94.5 -82.5 t-109 -53.5t-115.5 -28t-114 -8q-110 0 -204 36t-164 107.5t-109.5 176.5t-39.5 243zM325 646h477q0 49 -14 92.5t-41.5 76.5t-70 52t-98.5 19q-111 0 -173.5 -62.5t-79.5 -177.5zM418 1361q0 34 12.5 63t34 51t50.5 35t62 13q34 0 64 -13t52 -35t35 -51t13 -63 q0 -33 -13 -62t-35 -50.5t-52.5 -34.5t-63.5 -13t-62 13t-50.5 34.5t-34 50.5t-12.5 62z" />
<glyph unicode="&#x118;" horiz-adv-x="1177" d="M165 0v1481h934v-219h-658v-411h518v-212h-518v-419h658v-220h-94q-20 -11 -40 -25.5t-35.5 -32.5t-24.5 -38.5t-9 -42.5q0 -31 19.5 -49t54.5 -18q19 0 31.5 2t20 5t13.5 5.5t11 2.5q18 0 23 -17l39 -93q-34 -23 -84.5 -37.5t-107.5 -14.5q-100 0 -154 42t-54 108 q0 56 37 108.5t107 94.5h-687z" />
<glyph unicode="&#x119;" horiz-adv-x="1093" d="M68 548q0 108 34.5 202.5t99.5 164.5t159 111t211 41q99 0 183.5 -31.5t145 -92.5t94.5 -149.5t34 -202.5q0 -57 -12 -77t-47 -20h-651q6 -81 29 -140t59.5 -97.5t87.5 -57.5t112 -19t106 14.5t78 32t58 31.5t49 14q32 0 47 -23l73 -92q-61 -72 -142.5 -110t-166.5 -52 q-18 -11 -36.5 -25t-32 -31.5t-22 -37t-8.5 -40.5q0 -31 19.5 -49t54.5 -18q19 0 31.5 2t20 5t13.5 5.5t11 2.5q18 0 23 -17l39 -93q-34 -23 -84.5 -37.5t-106.5 -14.5q-100 0 -154.5 42t-54.5 108q0 52 31.5 100.5t91.5 89.5q-102 6 -189.5 45t-151.5 109.5t-100 172.5 t-36 234zM325 646h477q0 49 -14 92.5t-41.5 76.5t-70 52t-98.5 19q-111 0 -173.5 -62.5t-79.5 -177.5z" />
<glyph unicode="&#x11a;" horiz-adv-x="1177" d="M165 0v1481h934v-219h-658v-411h518v-212h-518v-419h658v-220h-934zM165 0zM282 1868h183q15 0 37 -4t39 -27l91 -120l16 -22q5 8 15 22l90 119q17 24 39.5 28t37.5 4h183l-247 -282h-237z" />
<glyph unicode="&#x11b;" horiz-adv-x="1093" d="M68 0zM68 548q0 108 34.5 202.5t99.5 164.5t158.5 111t211.5 41q99 0 183.5 -31.5t145 -92.5t94.5 -149.5t34 -202.5q0 -57 -12 -77t-47 -20h-651q6 -81 29 -140t59.5 -97.5t87.5 -57.5t112 -19t106 14.5t78 32t58 31.5t49 14q32 0 47 -23l73 -92q-42 -49 -94.5 -82.5 t-109 -53.5t-115.5 -28t-114 -8q-110 0 -204 36t-164 107.5t-109.5 176.5t-39.5 243zM225 1481h175q15 0 29 -5.5t23 -12.5l108 -113q5 -5 11 -12t11 -14q10 13 22 26l108 113q8 6 22.5 12t28.5 6h169l-235 -285h-237zM325 646h477q0 49 -14 92.5t-41.5 76.5t-70 52 t-98.5 19q-111 0 -173.5 -62.5t-79.5 -177.5z" />
<glyph unicode="&#x11c;" horiz-adv-x="1486" d="M77 740q0 167 54 306.5t154 239.5t242.5 155.5t319.5 55.5q90 0 168.5 -14.5t145.5 -39.5t122 -60.5t101 -78.5l-78 -125q-18 -30 -48 -36.5t-65 14.5q-34 19 -67.5 38.5t-75 34t-93.5 24t-119 9.5q-110 0 -198.5 -37t-151 -105.5t-96.5 -165t-34 -215.5 q0 -127 36.5 -226.5t102.5 -169t159.5 -105.5t207.5 -36q82 0 146.5 17t126.5 46v270h-187q-27 0 -41.5 14.5t-14.5 36.5v155h491v-599q-113 -83 -240 -121t-273 -38q-181 0 -328 56t-251 156.5t-160 239.5t-56 304zM487 1586l247 282h230l246 -282h-183q-15 0 -37 5.5 t-46 33.5l-84 109q-5 5 -8.5 11t-6.5 11l-16 -22l-84 -109q-24 -28 -45.5 -33.5t-36.5 -5.5h-176z" />
<glyph unicode="&#x11d;" horiz-adv-x="1081" d="M50 0zM50 -92q0 73 44.5 123t121.5 80q-41 22 -65.5 57.5t-24.5 93.5q0 24 8 49t25 49.5t43 46.5t61 39q-80 43 -125.5 115t-45.5 168q0 78 31.5 141t87 107.5t132 68t166.5 23.5q68 0 126.5 -14t108.5 -40h303v-94q0 -45 -55 -56l-94 -17q10 -27 16 -56.5t6 -62.5 q0 -78 -31.5 -141t-87 -107t-130.5 -68t-162 -24q-59 0 -116 11q-49 -30 -49 -66q0 -32 29 -47t77.5 -21t110 -7.5t126 -6.5t125.5 -18t109.5 -40.5t77.5 -75t29 -122.5q0 -70 -34.5 -135.5t-99.5 -116.5t-159.5 -82.5t-215.5 -31.5q-119 0 -207 23t-146 61.5t-87 89 t-29 104.5zM180 1196l235 285h237l235 -285h-169q-14 0 -29 5.5t-29 20.5l-101 106q-11 10 -21 25q-11 -14 -22 -25l-102 -106q-12 -13 -27.5 -19.5t-31.5 -6.5h-175zM270 -59q0 -28 14 -52t44 -41.5t78.5 -27t117.5 -9.5q71 0 122 10.5t84.5 29.5t49 45t15.5 57t-18.5 50 t-50.5 30t-74.5 16t-90 7.5t-98 4.5t-98.5 9q-42 -24 -68.5 -55.5t-26.5 -73.5zM323 723q0 -37 11.5 -68.5t34.5 -54.5t58.5 -36t81.5 -13q47 0 82 13t58 35.5t34.5 54t11.5 69.5q0 78 -46.5 123.5t-139.5 45.5t-139.5 -45.5t-46.5 -123.5z" />
<glyph unicode="&#x11e;" horiz-adv-x="1486" d="M77 740q0 167 54 306.5t154 239.5t242.5 155.5t319.5 55.5q90 0 168.5 -14.5t145.5 -39.5t122 -60.5t101 -78.5l-78 -125q-18 -30 -48 -36.5t-65 14.5q-34 19 -67.5 38.5t-75 34t-93.5 24t-119 9.5q-110 0 -198.5 -37t-151 -105.5t-96.5 -165t-34 -215.5 q0 -127 36.5 -226.5t102.5 -169t159.5 -105.5t207.5 -36q82 0 146.5 17t126.5 46v270h-187q-27 0 -41.5 14.5t-14.5 36.5v155h491v-599q-113 -83 -240 -121t-273 -38q-181 0 -328 56t-251 156.5t-160 239.5t-56 304zM507 1863h193q0 -31 7.5 -54.5t24.5 -40t44.5 -25 t68.5 -8.5q81 0 112.5 33t31.5 95h194q0 -66 -24 -117.5t-68 -88t-106.5 -55.5t-139.5 -19t-139.5 17t-106.5 51.5t-68 87t-24 124.5z" />
<glyph unicode="&#x11f;" horiz-adv-x="1081" d="M50 0zM50 -92q0 73 44.5 123t121.5 80q-41 22 -65.5 57.5t-24.5 93.5q0 24 8 49t25 49.5t43 46.5t61 39q-80 43 -125.5 115t-45.5 168q0 78 31.5 141t87 107.5t132 68t166.5 23.5q68 0 126.5 -14t108.5 -40h303v-94q0 -45 -55 -56l-94 -17q10 -27 16 -56.5t6 -62.5 q0 -78 -31.5 -141t-87 -107t-130.5 -68t-162 -24q-59 0 -116 11q-49 -30 -49 -66q0 -32 29 -47t77.5 -21t110 -7.5t126 -6.5t125.5 -18t109.5 -40.5t77.5 -75t29 -122.5q0 -70 -34.5 -135.5t-99.5 -116.5t-159.5 -82.5t-215.5 -31.5q-119 0 -207 23t-146 61.5t-87 89 t-29 104.5zM224 1481h178q0 -31 5.5 -55.5t20 -41.5t40.5 -26t66 -9t65.5 9t40 26t20.5 41.5t6 55.5h177q0 -59 -15.5 -112.5t-52 -93.5t-95.5 -63t-146 -23q-88 0 -147 23t-95.5 63t-52 93t-15.5 113zM270 -59q0 -28 14 -52t44 -41.5t78.5 -27t117.5 -9.5q71 0 122 10.5 t84.5 29.5t49 45t15.5 57t-18.5 50t-50.5 30t-74.5 16t-90 7.5t-98 4.5t-98.5 9q-42 -24 -68.5 -55.5t-26.5 -73.5zM323 723q0 -37 11.5 -68.5t34.5 -54.5t58.5 -36t81.5 -13q47 0 82 13t58 35.5t34.5 54t11.5 69.5q0 78 -46.5 123.5t-139.5 45.5t-139.5 -45.5t-46.5 -123.5 z" />
<glyph unicode="&#x120;" horiz-adv-x="1486" d="M77 740q0 167 54 306.5t154 239.5t242.5 155.5t319.5 55.5q90 0 168.5 -14.5t145.5 -39.5t122 -60.5t101 -78.5l-78 -125q-18 -30 -48 -36.5t-65 14.5q-34 19 -67.5 38.5t-75 34t-93.5 24t-119 9.5q-110 0 -198.5 -37t-151 -105.5t-96.5 -165t-34 -215.5 q0 -127 36.5 -226.5t102.5 -169t159.5 -105.5t207.5 -36q82 0 146.5 17t126.5 46v270h-187q-27 0 -41.5 14.5t-14.5 36.5v155h491v-599q-113 -83 -240 -121t-273 -38q-181 0 -328 56t-251 156.5t-160 239.5t-56 304zM690 1735q0 32 12.5 60t33.5 49t48.5 33t57.5 12 q32 0 60.5 -12t50 -33t34 -49t12.5 -60q0 -31 -12.5 -58t-34 -48t-50.5 -33.5t-60 -12.5q-30 0 -57.5 12.5t-48.5 33.5t-33.5 48t-12.5 58z" />
<glyph unicode="&#x121;" horiz-adv-x="1081" d="M50 0zM50 -92q0 73 44.5 123t121.5 80q-41 22 -65.5 57.5t-24.5 93.5q0 24 8 49t25 49.5t43 46.5t61 39q-80 43 -125.5 115t-45.5 168q0 78 31.5 141t87 107.5t132 68t166.5 23.5q68 0 126.5 -14t108.5 -40h303v-94q0 -45 -55 -56l-94 -17q10 -27 16 -56.5t6 -62.5 q0 -78 -31.5 -141t-87 -107t-130.5 -68t-162 -24q-59 0 -116 11q-49 -30 -49 -66q0 -32 29 -47t77.5 -21t110 -7.5t126 -6.5t125.5 -18t109.5 -40.5t77.5 -75t29 -122.5q0 -70 -34.5 -135.5t-99.5 -116.5t-159.5 -82.5t-215.5 -31.5q-119 0 -207 23t-146 61.5t-87 89 t-29 104.5zM270 -59q0 -28 14 -52t44 -41.5t78.5 -27t117.5 -9.5q71 0 122 10.5t84.5 29.5t49 45t15.5 57t-18.5 50t-50.5 30t-74.5 16t-90 7.5t-98 4.5t-98.5 9q-42 -24 -68.5 -55.5t-26.5 -73.5zM323 723q0 -37 11.5 -68.5t34.5 -54.5t58.5 -36t81.5 -13q47 0 82 13 t58 35.5t34.5 54t11.5 69.5q0 78 -46.5 123.5t-139.5 45.5t-139.5 -45.5t-46.5 -123.5zM373 1361q0 34 12.5 63t34 51t50.5 35t62 13q34 0 64 -13t52 -35t35 -51t13 -63q0 -33 -13 -62t-35 -50.5t-52.5 -34.5t-63.5 -13t-62 13t-50.5 34.5t-34 50.5t-12.5 62z" />
<glyph unicode="&#x122;" horiz-adv-x="1486" d="M77 740q0 167 54 306.5t154 239.5t242.5 155.5t319.5 55.5q90 0 168.5 -14.5t145.5 -39.5t122 -60.5t101 -78.5l-78 -125q-18 -30 -48 -36.5t-65 14.5q-34 19 -67.5 38.5t-75 34t-93.5 24t-119 9.5q-110 0 -198.5 -37t-151 -105.5t-96.5 -165t-34 -215.5 q0 -127 36.5 -226.5t102.5 -169t159.5 -105.5t207.5 -36q82 0 146.5 17t126.5 46v270h-187q-27 0 -41.5 14.5t-14.5 36.5v155h491v-599q-113 -83 -240 -121t-273 -38q-181 0 -328 56t-251 156.5t-160 239.5t-56 304zM627 -397l51 305h155q29 0 35 -13t6 -25q0 -9 -2.5 -25.5 t-9.5 -42.5t-21.5 -64t-36.5 -90q-14 -29 -34.5 -37t-53.5 -8h-89z" />
<glyph unicode="&#x123;" horiz-adv-x="1081" d="M50 0zM50 -92q0 73 44.5 123t121.5 80q-41 22 -65.5 57.5t-24.5 93.5q0 24 8 49t25 49.5t43 46.5t61 39q-80 43 -125.5 115t-45.5 168q0 78 31.5 141t87 107.5t132 68t166.5 23.5q68 0 126.5 -14t108.5 -40h303v-94q0 -45 -55 -56l-94 -17q10 -27 16 -56.5t6 -62.5 q0 -78 -31.5 -141t-87 -107t-130.5 -68t-162 -24q-59 0 -116 11q-49 -30 -49 -66q0 -32 29 -47t77.5 -21t110 -7.5t126 -6.5t125.5 -18t109.5 -40.5t77.5 -75t29 -122.5q0 -70 -34.5 -135.5t-99.5 -116.5t-159.5 -82.5t-215.5 -31.5q-119 0 -207 23t-146 61.5t-87 89 t-29 104.5zM270 -59q0 -28 14 -52t44 -41.5t78.5 -27t117.5 -9.5q71 0 122 10.5t84.5 29.5t49 45t15.5 57t-18.5 50t-50.5 30t-74.5 16t-90 7.5t-98 4.5t-98.5 9q-42 -24 -68.5 -55.5t-26.5 -73.5zM323 723q0 -37 11.5 -68.5t34.5 -54.5t58.5 -36t81.5 -13q47 0 82 13 t58 35.5t34.5 54t11.5 69.5q0 78 -46.5 123.5t-139.5 45.5t-139.5 -45.5t-46.5 -123.5zM423 1195l112 290h158l-52 -290h-218z" />
<glyph unicode="&#x124;" horiz-adv-x="1577" d="M165 0v1481h276v-637h696v637h276v-1481h-276v647h-696v-647h-276zM165 0zM434 1586l247 282h229l247 -282h-183q-15 0 -37.5 5.5t-45.5 33.5l-84 109q-5 5 -8.5 11t-6.5 11l-16 -22l-84 -109q-24 -28 -45.5 -33.5t-37.5 -5.5h-175z" />
<glyph unicode="&#x125;" horiz-adv-x="1155" d="M-112 1586l247 282h229l247 -282h-183q-15 0 -37.5 5.5t-45.5 33.5l-84 109q-5 5 -8.5 11t-6.5 11l-16 -22l-84 -109q-24 -28 -45.5 -33.5t-37.5 -5.5h-175zM0 0zM125 0v1522h253v-585q61 58 135 94t173 36q86 0 152.5 -29t111 -82t67.5 -126t23 -161v-669h-253v669 q0 96 -44 148.5t-134 52.5q-66 0 -123 -29.5t-108 -80.5v-760h-253z" />
<glyph unicode="&#x126;" horiz-adv-x="1598" d="M20 1061v161h155v259h277v-259h695v259h276v-259h155v-161h-155v-1061h-276v647h-695v-647h-277v1061h-155zM452 844h695v217h-695v-217z" />
<glyph unicode="&#x127;" horiz-adv-x="1155" d="M-23 1165v157h148v200h253v-200h288v-157h-288v-260q61 58 135 94t173 36q86 0 152 -29t110.5 -82t67.5 -126t23 -161v-637h-253v637q0 96 -44 149t-133 53q-66 0 -123.5 -30t-107.5 -81v-728h-253v1165h-148z" />
<glyph unicode="&#x128;" horiz-adv-x="607" d="M-50 1581q0 50 14.5 97.5t41.5 84t66.5 58.5t90.5 22q52 0 91 -16.5t70 -35t57.5 -35t54.5 -16.5q23 0 39.5 9t27 23t16 31t5.5 33h154q0 -51 -13.5 -97.5t-41 -83t-66.5 -58t-91 -21.5t-90.5 16.5t-70 35.5t-57.5 35t-54 16q-24 0 -40 -9t-26.5 -23.5t-15.5 -32 t-5 -33.5h-157zM0 0zM165 0v1481h276v-1481h-276z" />
<glyph unicode="&#x129;" horiz-adv-x="520" d="M-58 1222q0 57 16 103.5t44.5 80t67 52t83.5 18.5q37 0 69 -13.5t60 -29t51.5 -28.5t43.5 -13q31 0 48.5 16.5t17.5 60.5h153q0 -57 -15.5 -103.5t-43.5 -80t-66.5 -51t-84.5 -17.5q-37 0 -68.5 13t-59 28.5t-51.5 28.5t-45 13q-30 0 -46.5 -17.5t-16.5 -60.5h-157zM0 0z M133 0v1051h253v-1051h-253z" />
<glyph unicode="&#x12a;" horiz-adv-x="607" d="M0 0zM0 1608v145h615v-145h-615zM165 0v1481h276v-1481h-276z" />
<glyph unicode="&#x12b;" horiz-adv-x="520" d="M-39 1243v162h613v-162h-613zM0 0zM133 0v1051h253v-1051h-253z" />
<glyph unicode="&#x12c;" horiz-adv-x="607" d="M-30 1863h193q0 -31 7.5 -54.5t24 -40t44.5 -25t69 -8.5q81 0 112.5 33t31.5 95h194q0 -66 -24.5 -117.5t-68.5 -88t-106 -55.5t-139 -19t-139.5 17t-106.5 51.5t-68 87t-24 124.5zM0 0zM165 0v1481h276v-1481h-276z" />
<glyph unicode="&#x12d;" horiz-adv-x="520" d="M-42 1481h178q0 -31 5.5 -55.5t20 -41.5t40.5 -26t66 -9t65.5 9t40 26t20.5 41.5t6 55.5h177q0 -59 -15.5 -112.5t-52 -93.5t-95.5 -63t-146 -23q-88 0 -147 23t-95.5 63t-52 93t-15.5 113zM0 0zM133 0v1051h253v-1051h-253z" />
<glyph unicode="&#x12e;" horiz-adv-x="607" d="M104 -203q0 56 37.5 108.5t107.5 94.5h-84v1481h276v-1481h-40q-20 -11 -39.5 -25.5t-35 -32.5t-24.5 -38.5t-9 -42.5q0 -31 19.5 -49t54.5 -18q19 0 31.5 2t20 5t13 5.5t10.5 2.5q18 0 24 -17l39 -93q-34 -23 -84.5 -37.5t-107.5 -14.5q-100 0 -154.5 42t-54.5 108z" />
<glyph unicode="&#x12f;" horiz-adv-x="520" d="M67 -203q0 60 43 116t123 99l131 -12q-20 -11 -39.5 -25.5t-35 -32.5t-24.5 -38.5t-9 -42.5q0 -31 19 -49t54 -18q19 0 31.5 2t20.5 5t13.5 5.5t10.5 2.5q18 0 24 -17l38 -93q-34 -23 -84.5 -37.5t-106.5 -14.5q-100 0 -154.5 42t-54.5 108zM68 0zM98 1357q0 34 13 63.5 t34.5 51t50.5 34.5t62 13q34 0 63.5 -13t51.5 -34.5t35.5 -51t13.5 -63.5q0 -33 -13.5 -61.5t-35.5 -50t-51.5 -34.5t-63.5 -13q-33 0 -62 13t-50.5 34.5t-34.5 50t-13 61.5zM133 0v1051h254v-1051h-254z" />
<glyph unicode="&#x130;" horiz-adv-x="607" d="M152 1735q0 32 12 60t33 49t48.5 33t57.5 12q32 0 60.5 -12t50 -33t34.5 -49t13 -60q0 -31 -13 -58t-34.5 -48t-50 -33.5t-60.5 -12.5q-30 0 -57.5 12.5t-48.5 33.5t-33 48t-12 58zM165 0v1481h276v-1481h-276z" />
<glyph unicode="&#x131;" horiz-adv-x="522" d="M134 0v1051h253v-1051h-253z" />
<glyph unicode="&#x132;" horiz-adv-x="1520" d="M165 0v1481h276v-1481h-276zM165 0zM664 11q3 41 7 82t7 82q3 23 18 36.5t42 13.5q17 0 45.5 -7t71.5 -7q58 0 103 17t75.5 53.5t46 95.5t15.5 143v961h275v-955q0 -125 -30.5 -225t-91.5 -171t-152 -108.5t-212 -37.5q-55 0 -108.5 6.5t-111.5 20.5z" />
<glyph unicode="&#x133;" horiz-adv-x="1063" d="M98 0zM98 1357q0 34 13 63.5t34.5 51t50.5 34.5t62 13q34 0 63.5 -13t51.5 -34.5t35.5 -51t13.5 -63.5q0 -33 -13.5 -61.5t-35.5 -50t-51.5 -34.5t-63.5 -13q-33 0 -62 13t-50.5 34.5t-34.5 50t-13 61.5zM133 0v1051h254v-1051h-254zM466 -349l9 136q3 20 16.5 26t51.5 6 t64 7.5t41.5 24.5t22 44.5t6.5 68.5v1087h254v-1087q0 -69 -18 -129t-57.5 -105.5t-103.5 -72t-156 -26.5q-36 0 -66.5 5t-63.5 15zM642 1357q0 34 13 63.5t34.5 51t50 34.5t61.5 13q34 0 64 -13t52 -34.5t35.5 -51t13.5 -63.5q0 -33 -13.5 -61.5t-35.5 -50t-52 -34.5 t-64 -13q-33 0 -61.5 13t-50 34.5t-34.5 50t-13 61.5z" />
<glyph unicode="&#x134;" horiz-adv-x="879" d="M23 0zM23 11q3 41 7 82t7 82q3 23 18 36.5t42 13.5q17 0 45.5 -7t71.5 -7q58 0 103 17t75.5 53.5t46 95.5t15.5 143v961h275v-955q0 -125 -30.5 -225t-91.5 -171t-152 -108.5t-212 -37.5q-55 0 -108.5 6.5t-111.5 20.5zM233 1586l247 282h229l247 -282h-183 q-15 0 -37.5 5.5t-45.5 33.5l-84 109q-5 5 -8.5 11t-6.5 11l-16 -22l-84 -109q-24 -28 -45.5 -33.5t-37.5 -5.5h-175z" />
<glyph unicode="&#x135;" horiz-adv-x="520" d="M-92 1196l235 285h237l235 -285h-169q-14 0 -29 5.5t-29 20.5l-101 106q-11 10 -21 25q-11 -14 -22 -25l-102 -106q-12 -13 -27.5 -19.5t-31.5 -6.5h-175zM-78 -349l9 136q3 20 16 26t52 6q38 0 63.5 7.5t41.5 24.5t22.5 44.5t6.5 68.5v1087h253v-1087q0 -69 -18 -129 t-57.5 -105.5t-103.5 -72t-156 -26.5q-36 0 -66.5 5t-62.5 15zM0 0z" />
<glyph unicode="&#x136;" horiz-adv-x="1403" d="M165 0v1481h275v-621h65q39 0 64.5 11t43.5 34l409 517q26 33 54 46t71 13h237l-498 -616q-44 -56 -91 -80q34 -12 61 -34t51 -58l514 -693h-242q-49 0 -73.5 14t-40.5 40l-419 547q-19 28 -45 39t-74 11h-87v-651h-275zM165 0zM573 -397l51 305h155q29 0 35.5 -13 t6.5 -25q0 -9 -3 -25.5t-10 -42.5t-21.5 -64t-36.5 -90q-14 -29 -34.5 -37t-53.5 -8h-89z" />
<glyph unicode="&#x137;" horiz-adv-x="1094" d="M125 0v1522h253v-872h47q26 0 40.5 7t30.5 27l261 323q16 22 36 33t52 11h231l-326 -391q-35 -46 -76 -70q22 -15 38.5 -35.5t31.5 -44.5l351 -510h-229q-30 0 -51 9.5t-36 35.5l-268 398q-14 24 -29.5 31t-46.5 7h-57v-481h-253zM125 0zM428 -397l51 305h155 q29 0 35.5 -13t6.5 -25q0 -9 -3 -25.5t-10 -42.5t-21.5 -64t-36.5 -90q-14 -29 -34.5 -37t-53.5 -8h-89z" />
<glyph unicode="&#x138;" horiz-adv-x="1094" d="M125 0v1051h253v-401h47q26 0 40.5 7t30.5 27l261 323q16 22 36 33t52 11h231l-326 -391q-35 -46 -76 -70q22 -15 38.5 -35.5t31.5 -44.5l351 -510h-229q-30 0 -51 9.5t-36 35.5l-268 398q-14 24 -29.5 31t-46.5 7h-57v-481h-253z" />
<glyph unicode="&#x139;" horiz-adv-x="1063" d="M152 0zM152 1586l214 278q10 14 20.5 22.5t22.5 13t27 5.5t35 1h282l-332 -293q-20 -18 -38.5 -22.5t-47.5 -4.5h-183zM165 0v1481h275v-1254h592v-227h-867z" />
<glyph unicode="&#x13a;" horiz-adv-x="508" d="M87 0zM87 1586l214 278q10 14 20.5 22.5t22.5 13t27 5.5t35 1h282l-332 -293q-20 -18 -38.5 -22.5t-47.5 -4.5h-183zM128 0v1522h253v-1522h-253z" />
<glyph unicode="&#x13b;" horiz-adv-x="1063" d="M165 0v1481h275v-1254h592v-227h-867zM165 0zM450 -397l51 305h155q29 0 35.5 -13t6.5 -25q0 -9 -3 -25.5t-10 -42.5t-21.5 -64t-36.5 -90q-14 -29 -34.5 -37t-53.5 -8h-89z" />
<glyph unicode="&#x13c;" horiz-adv-x="508" d="M128 0v1522h253v-1522h-253zM128 0zM133 -397l51 305h155q29 0 35.5 -13t6.5 -25q0 -9 -3 -25.5t-10 -42.5t-21.5 -64t-36.5 -90q-14 -29 -34.5 -37t-53.5 -8h-89z" />
<glyph unicode="&#x13d;" horiz-adv-x="1063" d="M165 0v1481h275v-1254h592v-227h-867zM165 0zM594 1169l63 355h170q29 0 35.5 -13t6.5 -25q0 -9 -3.5 -25t-14.5 -46.5t-30.5 -78t-49.5 -121.5q-13 -30 -34 -38t-53 -8h-90z" />
<glyph unicode="&#x13e;" horiz-adv-x="507" d="M128 0v1522h253v-1522h-253zM128 0zM478 1169l63 355h170q29 0 35.5 -13t6.5 -25q0 -9 -3.5 -25t-14.5 -46.5t-30.5 -78t-49.5 -121.5q-13 -30 -34 -38t-53 -8h-90z" />
<glyph unicode="&#x13f;" horiz-adv-x="1110" d="M165 0v1481h275v-1254h592v-227h-867zM165 0zM679 813q0 34 12.5 63t34 51t50.5 35t62 13q34 0 64 -13t52 -35t35 -51t13 -63q0 -33 -13 -62t-35 -50.5t-52.5 -34.5t-63.5 -13t-62 13t-50.5 34.5t-34 50.5t-12.5 62z" />
<glyph unicode="&#x140;" horiz-adv-x="800" d="M128 0v1522h253v-1522h-253zM128 0zM508 780q0 32 12 60.5t32.5 49t49 33t61.5 12.5t61 -12.5t49 -33t33 -49t12 -60.5q0 -33 -12 -61t-33 -48.5t-49.5 -32t-60.5 -11.5q-33 0 -61.5 11.5t-49 32t-32.5 48.5t-12 61z" />
<glyph unicode="&#x141;" horiz-adv-x="1096" d="M13 447v191q0 35 31 49l154 80v714h275v-590l367 183v-185q0 -42 -35 -55l-332 -172v-435h592v-227h-867v540z" />
<glyph unicode="&#x142;" horiz-adv-x="674" d="M40 636v149q0 35 31 50l141 60v627h253v-539l182 74v-145q0 -42 -35 -55l-147 -62v-795h-253v707z" />
<glyph unicode="&#x143;" horiz-adv-x="1577" d="M165 0v1481h144q17 0 30 -1.5t23 -6.5t19 -13.5t20 -22.5l777 -992q-3 36 -5.5 71t-2.5 65v900h243v-1481h-141q-33 0 -55 11t-42 36l-774 986q3 -33 5 -65t2 -59v-909h-243zM627 1586l214 278q10 14 20 22.5t22.5 13t27.5 5.5t35 1h282l-332 -293q-20 -18 -38.5 -22.5 t-47.5 -4.5h-183z" />
<glyph unicode="&#x144;" horiz-adv-x="1155" d="M125 0v1051h155q49 0 64 -46l17 -83q32 33 67.5 59.5t75 46t84.5 29.5t98 10q86 0 152.5 -29t111 -82t67.5 -126t23 -161v-669h-253v669q0 96 -44 148.5t-134 52.5q-66 0 -123 -29.5t-108 -80.5v-760h-253zM125 0zM453 1194l146 249q15 27 35.5 40.5t61.5 13.5h246 l-253 -267q-19 -20 -37 -28t-47 -8h-152z" />
<glyph unicode="&#x145;" horiz-adv-x="1577" d="M165 0v1481h144q17 0 30 -1.5t23 -6.5t19 -13.5t20 -22.5l777 -992q-3 36 -5.5 71t-2.5 65v900h243v-1481h-141q-33 0 -55 11t-42 36l-774 986q3 -33 5 -65t2 -59v-909h-243zM666 -397l51 305h154q29 0 35.5 -13t6.5 -25q0 -9 -2.5 -25.5t-9.5 -42.5t-21.5 -64t-36.5 -90 q-14 -29 -35 -37t-53 -8h-89z" />
<glyph unicode="&#x146;" horiz-adv-x="1155" d="M125 0v1051h155q49 0 64 -46l17 -83q32 33 67.5 59.5t75 46t84.5 29.5t98 10q86 0 152.5 -29t111 -82t67.5 -126t23 -161v-669h-253v669q0 96 -44 148.5t-134 52.5q-66 0 -123 -29.5t-108 -80.5v-760h-253zM125 0zM451 -397l51 305h155q29 0 35.5 -13t6.5 -25 q0 -9 -3 -25.5t-10 -42.5t-21.5 -64t-36.5 -90q-14 -29 -34.5 -37t-53.5 -8h-89z" />
<glyph unicode="&#x147;" horiz-adv-x="1577" d="M165 0v1481h144q17 0 30 -1.5t23 -6.5t19 -13.5t20 -22.5l777 -992q-3 36 -5.5 71t-2.5 65v900h243v-1481h-141q-33 0 -55 11t-42 36l-774 986q3 -33 5 -65t2 -59v-909h-243zM432 1868h183q15 0 37 -4t39 -27l91 -120l16 -22q5 8 15 22l90 119q17 24 39.5 28t37.5 4h183 l-247 -282h-237z" />
<glyph unicode="&#x148;" horiz-adv-x="1155" d="M125 0v1051h155q49 0 64 -46l17 -83q32 33 67.5 59.5t75 46t84.5 29.5t98 10q86 0 152.5 -29t111 -82t67.5 -126t23 -161v-669h-253v669q0 96 -44 148.5t-134 52.5q-66 0 -123 -29.5t-108 -80.5v-760h-253zM125 0zM234 1481h175q15 0 29 -5.5t23 -12.5l108 -113 q5 -5 11 -12t11 -14q10 13 22 26l108 113q8 6 22.5 12t28.5 6h169l-235 -285h-237z" />
<glyph unicode="&#x149;" horiz-adv-x="1291" d="M-1.5 1014.5q0.5 8.5 4 17t9.5 14.5q22 26 41 67.5t27 94t-2 112t-47 118.5q-17 30 -9.5 52t33.5 31l154 59q49 -81 66 -168.5t3 -173t-59.5 -163.5t-122.5 -141l-80 48q-10 6 -14 15t-3.5 17.5zM0 0zM261 0v1051h155q49 0 64 -46l17 -83q32 33 67.5 59.5t75 46 t84.5 29.5t98 10q86 0 152.5 -29t111 -82t67.5 -126t23 -161v-669h-253v669q0 96 -44 148.5t-134 52.5q-66 0 -123 -29.5t-108 -80.5v-760h-253z" />
<glyph unicode="&#x14a;" horiz-adv-x="1577" d="M165 0v1481h144q17 0 30 -1.5t23 -6.5t19 -13.5t20 -22.5l777 -992q-3 36 -5.5 71t-2.5 65v900h243v-1441q0 -89 -20.5 -163.5t-65 -128t-115.5 -84t-172 -30.5q-54 0 -97.5 10t-93.5 31l28 110q8 30 22.5 39.5t32.5 9.5q15 0 33 -6t52 -6q77 0 115 46t38 143v41 l-769 981q3 -33 5 -65t2 -59v-909h-243z" />
<glyph unicode="&#x14b;" horiz-adv-x="1155" d="M125 0v1051h155q49 0 64 -46l17 -83q32 33 67.5 59.5t75 46t84.5 29.5t98 10q86 0 152.5 -29t111 -82t67.5 -126t23 -161v-632q0 -89 -22 -164t-68.5 -128.5t-119 -84t-173.5 -30.5q-54 0 -97.5 10.5t-93.5 30.5l28 111q8 30 22.5 39t33.5 9q15 0 33 -6t51 -6 q77 0 115 46t38 143v662q0 96 -44 148.5t-134 52.5q-66 0 -123 -29.5t-108 -80.5v-760h-253z" />
<glyph unicode="&#x14c;" horiz-adv-x="1654" d="M77 0zM77 740q0 163 54 302t153 240t237 158t306 57q113 0 212.5 -26t182.5 -73.5t149 -116t112 -152t70 -182t24 -207.5q0 -163 -54 -301.5t-152 -240t-236.5 -158t-307.5 -56.5q-168 0 -306 56.5t-237 158t-153 240.5t-54 301zM358 740q0 -122 33 -218.5t94 -163.5 t147.5 -103t194.5 -36q109 0 195.5 36t147 103t93 163.5t32.5 218.5t-32.5 219t-93 164.5t-147 103.5t-195.5 36t-195 -36t-147 -103.5t-94 -164.5t-33 -219zM522 1608v145h615v-145h-615z" />
<glyph unicode="&#x14d;" horiz-adv-x="1176" d="M69 0zM69 527q0 124 37 224.5t105.5 170t164.5 107.5t214 38q117 0 212.5 -38t163.5 -107.5t105 -170t37 -224.5q0 -125 -37 -225t-105 -171t-163.5 -108.5t-212.5 -37.5q-118 0 -214 37.5t-164.5 108.5t-105.5 171t-37 225zM283 1243v162h613v-162h-613zM329 525 q0 -169 64 -257.5t197 -88.5q131 0 194 88t63 258t-63 259t-194 89q-133 0 -197 -89.5t-64 -258.5z" />
<glyph unicode="&#x14e;" horiz-adv-x="1654" d="M77 0zM77 740q0 163 54 302t153 240t237 158t306 57q113 0 212.5 -26t182.5 -73.5t149 -116t112 -152t70 -182t24 -207.5q0 -163 -54 -301.5t-152 -240t-236.5 -158t-307.5 -56.5q-168 0 -306 56.5t-237 158t-153 240.5t-54 301zM358 740q0 -122 33 -218.5t94 -163.5 t147.5 -103t194.5 -36q109 0 195.5 36t147 103t93 163.5t32.5 218.5t-32.5 219t-93 164.5t-147 103.5t-195.5 36t-195 -36t-147 -103.5t-94 -164.5t-33 -219zM492 1863h193q0 -31 7.5 -54.5t24 -40t44.5 -25t69 -8.5q81 0 112.5 33t31.5 95h194q0 -66 -24.5 -117.5 t-68.5 -88t-106 -55.5t-139 -19t-139.5 17t-106.5 51.5t-68 87t-24 124.5z" />
<glyph unicode="&#x14f;" horiz-adv-x="1176" d="M69 0zM69 527q0 124 37 224.5t105.5 170t164.5 107.5t214 38q117 0 212.5 -38t163.5 -107.5t105 -170t37 -224.5q0 -125 -37 -225t-105 -171t-163.5 -108.5t-212.5 -37.5q-118 0 -214 37.5t-164.5 108.5t-105.5 171t-37 225zM280 1481h178q0 -31 5.5 -55.5t20 -41.5 t40.5 -26t66 -9t65.5 9t40 26t20.5 41.5t6 55.5h177q0 -59 -15.5 -112.5t-52 -93.5t-95.5 -63t-146 -23q-88 0 -147 23t-95.5 63t-52 93t-15.5 113zM329 525q0 -169 64 -257.5t197 -88.5q131 0 194 88t63 258t-63 259t-194 89q-133 0 -197 -89.5t-64 -258.5z" />
<glyph unicode="&#x150;" horiz-adv-x="1654" d="M77 0zM77 740q0 163 54 302t153 240t237 158t306 57q113 0 212.5 -26t182.5 -73.5t149 -116t112 -152t70 -182t24 -207.5q0 -163 -54 -301.5t-152 -240t-236.5 -158t-307.5 -56.5q-168 0 -306 56.5t-237 158t-153 240.5t-54 301zM358 740q0 -122 33 -218.5t94 -163.5 t147.5 -103t194.5 -36q109 0 195.5 36t147 103t93 163.5t32.5 218.5t-32.5 219t-93 164.5t-147 103.5t-195.5 36t-195 -36t-147 -103.5t-94 -164.5t-33 -219zM556 1586l142 228q16 26 41.5 40t67.5 14h164l-211 -245q-20 -17 -37.5 -27t-46.5 -10h-120zM886 1586l187 228 q20 25 47 39.5t69 14.5h188l-264 -245q-20 -18 -41 -27.5t-51 -9.5h-135z" />
<glyph unicode="&#x151;" horiz-adv-x="1176" d="M69 0zM69 527q0 124 37 224.5t105.5 170t164.5 107.5t214 38q117 0 212.5 -38t163.5 -107.5t105 -170t37 -224.5q0 -125 -37 -225t-105 -171t-163.5 -108.5t-212.5 -37.5q-118 0 -214 37.5t-164.5 108.5t-105.5 171t-37 225zM329 525q0 -169 64 -257.5t197 -88.5 q131 0 194 88t63 258t-63 259t-194 89q-133 0 -197 -89.5t-64 -258.5zM334 1194l129 249q14 27 35 40.5t62 13.5h165l-204 -267q-16 -20 -35.5 -28t-48.5 -8h-103zM621 1194l182 249q9 13 17.5 23t19.5 17t25 10.5t35 3.5h182l-258 -267q-18 -20 -36 -28t-48 -8h-119z" />
<glyph unicode="&#x152;" horiz-adv-x="2214" d="M79 740q0 163 48.5 302t137.5 240t213.5 158t276.5 57q150 0 270.5 -54.5t209.5 -152.5v191h900v-219h-656v-411h518v-212h-518v-419h657l-1 -220h-900v190q-89 -97 -210 -151t-270 -54q-152 0 -276.5 56.5t-213.5 157.5t-137.5 240t-48.5 301zM361 740 q0 -122 29.5 -219.5t83.5 -166t132.5 -105.5t176.5 -37q97 0 175 37t132.5 105.5t83 166t28.5 219.5t-28.5 220t-83 167t-132 106t-175.5 37t-176.5 -37t-132.5 -106t-83.5 -167t-29.5 -220z" />
<glyph unicode="&#x153;" horiz-adv-x="1794" d="M69 527q0 124 35.5 224.5t99.5 170t153.5 107.5t197.5 38q127 0 222.5 -52.5t156.5 -150.5q56 92 150.5 147.5t224.5 55.5q89 0 165 -34.5t132.5 -99t88 -156.5t31.5 -207q0 -29 -2.5 -47.5t-8.5 -29.5t-16.5 -15.5t-28.5 -4.5h-612q14 -151 85 -222t184 -71 q56 0 97.5 14.5t73 32t56 31.5t48.5 14q30 0 44 -23l74 -92q-42 -49 -92.5 -82.5t-105 -53.5t-110.5 -28t-109 -8q-111 0 -208 49.5t-159 155.5q-61 -99 -160 -152t-231 -53q-103 0 -191 37.5t-151.5 108.5t-98.5 171t-35 225zM330 525q0 -170 57.5 -258t181.5 -88 q121 0 179.5 88t58.5 258t-58.5 259t-179.5 89q-123 0 -181 -89.5t-58 -258.5zM1059 626h442q0 50 -12 97t-37.5 83.5t-64 58t-90.5 21.5q-108 0 -166.5 -68t-71.5 -192z" />
<glyph unicode="&#x154;" horiz-adv-x="1316" d="M165 0v1481h451q151 0 259 -31.5t177 -87.5t102 -134.5t33 -172.5q0 -75 -22 -141.5t-63.5 -121t-102.5 -95.5t-139 -65q52 -30 90 -85l371 -547h-249q-71 0 -102 55l-312 474q-17 27 -38 38.5t-62 11.5h-118v-579h-275zM165 0zM440 776h172q78 0 136 19.5t95.5 54 t56 81.5t18.5 103q0 113 -74.5 173.5t-227.5 60.5h-176v-492zM461 1586l214 278q10 14 20.5 22.5t22.5 13t27 5.5t35 1h282l-332 -293q-20 -18 -38.5 -22.5t-47.5 -4.5h-183z" />
<glyph unicode="&#x155;" horiz-adv-x="763" d="M125 0v1051h148q39 0 54.5 -14t20.5 -50l14 -119q50 94 118 148t160 54q73 0 117 -32l-17 -189q-5 -18 -14.5 -26t-26.5 -8q-15 0 -45 5t-59 5q-42 0 -75 -12t-59 -35t-46 -56t-37 -75v-647h-253zM125 0zM298 1194l146 249q15 27 35.5 40.5t61.5 13.5h246l-253 -267 q-19 -20 -37 -28t-47 -8h-152z" />
<glyph unicode="&#x156;" horiz-adv-x="1316" d="M165 0v1481h451q151 0 259 -31.5t177 -87.5t102 -134.5t33 -172.5q0 -75 -22 -141.5t-63.5 -121t-102.5 -95.5t-139 -65q52 -30 90 -85l371 -547h-249q-71 0 -102 55l-312 474q-17 27 -38 38.5t-62 11.5h-118v-579h-275zM165 0zM440 776h172q78 0 136 19.5t95.5 54 t56 81.5t18.5 103q0 113 -74.5 173.5t-227.5 60.5h-176v-492zM558 -397l51 305h155q29 0 35.5 -13t6.5 -25q0 -9 -3 -25.5t-10 -42.5t-21.5 -64t-36.5 -90q-14 -29 -34.5 -37t-53.5 -8h-89z" />
<glyph unicode="&#x157;" horiz-adv-x="763" d="M125 0v1051h148q39 0 54.5 -14t20.5 -50l14 -119q50 94 118 148t160 54q73 0 117 -32l-17 -189q-5 -18 -14.5 -26t-26.5 -8q-15 0 -45 5t-59 5q-42 0 -75 -12t-59 -35t-46 -56t-37 -75v-647h-253zM125 0zM132 -397l51 305h155q29 0 35.5 -13t6.5 -25q0 -9 -3 -25.5 t-10 -42.5t-21.5 -64t-36.5 -90q-14 -29 -34.5 -37t-53.5 -8h-89z" />
<glyph unicode="&#x158;" horiz-adv-x="1316" d="M165 0v1481h451q151 0 259 -31.5t177 -87.5t102 -134.5t33 -172.5q0 -75 -22 -141.5t-63.5 -121t-102.5 -95.5t-139 -65q52 -30 90 -85l371 -547h-249q-71 0 -102 55l-312 474q-17 27 -38 38.5t-62 11.5h-118v-579h-275zM165 0zM265 1868h183q15 0 37 -4t39 -27l91 -120 l16 -22q5 8 15 22l90 119q17 24 39.5 28t37.5 4h183l-247 -282h-237zM440 776h172q78 0 136 19.5t95.5 54t56 81.5t18.5 103q0 113 -74.5 173.5t-227.5 60.5h-176v-492z" />
<glyph unicode="&#x159;" horiz-adv-x="763" d="M78 0zM78 1481h175q15 0 29 -5.5t23 -12.5l108 -113q5 -5 11 -12t11 -14q10 13 22 26l108 113q8 6 22.5 12t28.5 6h169l-235 -285h-237zM124 0v1051h148q39 0 54.5 -14t20.5 -50l14 -119q50 94 118 148t160 54q73 0 117 -32l-17 -189q-5 -18 -14.5 -26t-26.5 -8 q-15 0 -45 5t-59 5q-42 0 -75 -12t-59 -35t-46 -56t-37 -75v-647h-253z" />
<glyph unicode="&#x15a;" horiz-adv-x="1123" d="M47 0zM47 178l81 132q10 14 26.5 24t34.5 10q26 0 55.5 -21t70.5 -46.5t96 -46.5t132 -21q118 0 182.5 56t64.5 160q0 58 -29.5 95t-77.5 62t-109.5 42.5t-125 38t-125 49t-109.5 75t-77 115.5t-29 170q0 81 32 158t93.5 136t151.5 95t207 36q131 0 241.5 -41t188.5 -115 l-69 -130q-12 -22 -26 -31.5t-34 -9.5q-22 0 -47 16t-59.5 35.5t-81.5 35.5t-110 16q-57 0 -100 -14t-72.5 -38.5t-43.5 -59t-14 -75.5q0 -52 29 -86.5t77 -59.5t109.5 -44t126 -41t126 -51.5t109.5 -74t77.5 -109t29.5 -156.5q0 -100 -34.5 -188t-100.5 -153t-161.5 -102 t-217.5 -37q-71 0 -139.5 13.5t-131.5 39t-118.5 61.5t-98.5 80zM437 1586l214 278q10 14 20.5 22.5t22.5 13t27 5.5t35 1h282l-332 -293q-20 -18 -38.5 -22.5t-47.5 -4.5h-183z" />
<glyph unicode="&#x15b;" horiz-adv-x="900" d="M50 0zM50 113l59 96q11 17 26.5 26.5t38.5 9.5q24 0 45 -13.5t48.5 -29t65 -28.5t94.5 -13q45 0 77.5 10.5t53.5 28t30.5 40.5t9.5 48q0 37 -22 60.5t-58.5 41t-83 31t-95 30t-95 38.5t-83 56t-58.5 83t-22 118q0 65 25.5 123.5t75 102t124 69.5t171.5 26q109 0 198 -36 t148 -94l-57 -91q-10 -16 -21.5 -23t-28.5 -7q-18 0 -39.5 10.5t-49 23t-63 23t-83.5 10.5q-75 0 -117 -32t-42 -83q0 -34 22 -57t58 -40.5t82 -31t94 -30t94 -37.5t82.5 -53.5t58.5 -77.5t22 -108q0 -76 -27.5 -140t-80.5 -110.5t-131.5 -72.5t-180.5 -26q-54 0 -106 9.5 t-99.5 27t-88 41t-71.5 51.5zM331 1194l146 249q15 27 35.5 40.5t61.5 13.5h246l-253 -267q-19 -20 -37 -28t-47 -8h-152z" />
<glyph unicode="&#x15c;" horiz-adv-x="1123" d="M47 0zM47 178l81 132q10 14 26.5 24t34.5 10q26 0 55.5 -21t70.5 -46.5t96 -46.5t132 -21q118 0 182.5 56t64.5 160q0 58 -29.5 95t-77.5 62t-109.5 42.5t-125 38t-125 49t-109.5 75t-77 115.5t-29 170q0 81 32 158t93.5 136t151.5 95t207 36q131 0 241.5 -41t188.5 -115 l-69 -130q-12 -22 -26 -31.5t-34 -9.5q-22 0 -47 16t-59.5 35.5t-81.5 35.5t-110 16q-57 0 -100 -14t-72.5 -38.5t-43.5 -59t-14 -75.5q0 -52 29 -86.5t77 -59.5t109.5 -44t126 -41t126 -51.5t109.5 -74t77.5 -109t29.5 -156.5q0 -100 -34.5 -188t-100.5 -153t-161.5 -102 t-217.5 -37q-71 0 -139.5 13.5t-131.5 39t-118.5 61.5t-98.5 80zM250 1586l247 282h229l247 -282h-183q-15 0 -37.5 5.5t-45.5 33.5l-84 109q-5 5 -8.5 11t-6.5 11l-16 -22l-84 -109q-24 -28 -45.5 -33.5t-37.5 -5.5h-175z" />
<glyph unicode="&#x15d;" horiz-adv-x="900" d="M50 0zM50 113l59 96q11 17 26.5 26.5t38.5 9.5q24 0 45 -13.5t48.5 -29t65 -28.5t94.5 -13q45 0 77.5 10.5t53.5 28t30.5 40.5t9.5 48q0 37 -22 60.5t-58.5 41t-83 31t-95 30t-95 38.5t-83 56t-58.5 83t-22 118q0 65 25.5 123.5t75 102t124 69.5t171.5 26q109 0 198 -36 t148 -94l-57 -91q-10 -16 -21.5 -23t-28.5 -7q-18 0 -39.5 10.5t-49 23t-63 23t-83.5 10.5q-75 0 -117 -32t-42 -83q0 -34 22 -57t58 -40.5t82 -31t94 -30t94 -37.5t82.5 -53.5t58.5 -77.5t22 -108q0 -76 -27.5 -140t-80.5 -110.5t-131.5 -72.5t-180.5 -26q-54 0 -106 9.5 t-99.5 27t-88 41t-71.5 51.5zM112 1196l235 285h237l235 -285h-169q-14 0 -29 5.5t-29 20.5l-101 106q-11 10 -21 25q-11 -14 -22 -25l-102 -106q-12 -13 -27.5 -19.5t-31.5 -6.5h-175z" />
<glyph unicode="&#x15e;" horiz-adv-x="1123" d="M47 178l81 132q10 14 26.5 24t34.5 10q26 0 55.5 -21t70.5 -46.5t96 -46.5t132 -21q118 0 182.5 56t64.5 160q0 58 -29.5 95t-77.5 62t-109.5 42.5t-125 38t-125 49t-109.5 75t-77 115.5t-29 170q0 81 32 158t93.5 136t151.5 95t207 36q131 0 241.5 -41t188.5 -115 l-69 -130q-12 -22 -26 -31.5t-34 -9.5q-22 0 -47 16t-59.5 35.5t-81.5 35.5t-110 16q-57 0 -100 -14t-72.5 -38.5t-43.5 -59t-14 -75.5q0 -52 29 -86.5t77 -59.5t109.5 -44t126 -41t126 -51.5t109.5 -74t77.5 -109t29.5 -156.5q0 -89 -27.5 -168.5t-79.5 -142t-128.5 -104.5 t-174.5 -57l-15 -54q96 -23 135 -61.5t39 -91.5q0 -35 -18 -62.5t-51.5 -47t-79.5 -30t-101 -10.5q-42 0 -78.5 6t-72.5 17l24 79q6 23 30 23q14 0 31 -7.5t49 -7.5q34 0 51 13t17 31q0 30 -37 42.5t-113 24.5l44 129q-65 4 -128 19t-120.5 40.5t-107.5 59t-90 74.5z" />
<glyph unicode="&#x15f;" horiz-adv-x="900" d="M50 113l59 96q11 17 26.5 26.5t38.5 9.5q24 0 45 -13.5t48.5 -29t65 -28.5t94.5 -13q45 0 77.5 10.5t53.5 28t30.5 40.5t9.5 48q0 37 -22 60.5t-58.5 41t-83 31t-95 30t-95 38.5t-83 56t-58.5 83t-22 118q0 65 25.5 123.5t75 102t124 69.5t171.5 26q109 0 198 -36 t148 -94l-57 -91q-10 -16 -21.5 -23t-28.5 -7q-18 0 -39.5 10.5t-49 23t-63 23t-83.5 10.5q-75 0 -117 -32t-42 -83q0 -34 22 -57t58 -40.5t82 -31t94 -30t94 -37.5t82.5 -53.5t58.5 -77.5t22 -108q0 -68 -22 -126.5t-64.5 -103.5t-105.5 -74.5t-145 -39.5l-15 -51 q96 -23 135 -61.5t39 -91.5q0 -35 -17.5 -62.5t-51 -47t-79.5 -30t-101 -10.5q-42 0 -78.5 6t-72.5 17l24 79q5 23 29 23q14 0 31 -7.5t50 -7.5q34 0 51 13t17 31q0 30 -37 42.5t-114 24.5l44 132q-90 9 -170 43t-132 82z" />
<glyph unicode="&#x160;" horiz-adv-x="1123" d="M47 0zM47 178l81 132q10 14 26.5 24t34.5 10q26 0 55.5 -21t70.5 -46.5t96 -46.5t132 -21q118 0 182.5 56t64.5 160q0 58 -29.5 95t-77.5 62t-109.5 42.5t-125 38t-125 49t-109.5 75t-77 115.5t-29 170q0 81 32 158t93.5 136t151.5 95t207 36q131 0 241.5 -41t188.5 -115 l-69 -130q-12 -22 -26 -31.5t-34 -9.5q-22 0 -47 16t-59.5 35.5t-81.5 35.5t-110 16q-57 0 -100 -14t-72.5 -38.5t-43.5 -59t-14 -75.5q0 -52 29 -86.5t77 -59.5t109.5 -44t126 -41t126 -51.5t109.5 -74t77.5 -109t29.5 -156.5q0 -100 -34.5 -188t-100.5 -153t-161.5 -102 t-217.5 -37q-71 0 -139.5 13.5t-131.5 39t-118.5 61.5t-98.5 80zM242 1868h183q15 0 37 -4t39 -27l91 -120l16 -22q5 8 15 22l90 119q17 24 39.5 28t37.5 4h183l-247 -282h-237z" />
<glyph unicode="&#x161;" horiz-adv-x="900" d="M50 0zM50 113l59 96q11 17 26.5 26.5t38.5 9.5q24 0 45 -13.5t48.5 -29t65 -28.5t94.5 -13q45 0 77.5 10.5t53.5 28t30.5 40.5t9.5 48q0 37 -22 60.5t-58.5 41t-83 31t-95 30t-95 38.5t-83 56t-58.5 83t-22 118q0 65 25.5 123.5t75 102t124 69.5t171.5 26q109 0 198 -36 t148 -94l-57 -91q-10 -16 -21.5 -23t-28.5 -7q-18 0 -39.5 10.5t-49 23t-63 23t-83.5 10.5q-75 0 -117 -32t-42 -83q0 -34 22 -57t58 -40.5t82 -31t94 -30t94 -37.5t82.5 -53.5t58.5 -77.5t22 -108q0 -76 -27.5 -140t-80.5 -110.5t-131.5 -72.5t-180.5 -26q-54 0 -106 9.5 t-99.5 27t-88 41t-71.5 51.5zM112 1481h175q15 0 29 -5.5t23 -12.5l108 -113q5 -5 11 -12t11 -14q10 13 22 26l108 113q8 6 22.5 12t28.5 6h169l-235 -285h-237z" />
<glyph unicode="&#x162;" horiz-adv-x="1228" d="M31 1254v227h1168v-227h-446v-1254h-66l-17 -62q96 -23 135 -61.5t39 -91.5q0 -35 -18 -62.5t-51.5 -47t-79.5 -30t-101 -10.5q-42 0 -78.5 6t-72.5 17l24 79q6 23 30 23q14 0 31 -7.5t50 -7.5q34 0 50.5 13t16.5 31q0 30 -37 42.5t-113 24.5l49 144h-67v1254h-446z" />
<glyph unicode="&#x163;" horiz-adv-x="761" d="M36 914v101l169 27l53 287q5 20 19.5 31.5t36.5 11.5h131v-331h281v-180h-281v-569q0 -49 24.5 -77t66.5 -28q24 0 39.5 6t27 12t21 11.5t18.5 5.5q11 0 18.5 -5.5t15.5 -16.5l76 -123q-45 -37 -101 -59.5t-117 -29.5l-14 -50q96 -23 135 -61.5t39 -91.5q0 -35 -18 -62.5 t-51 -47t-79 -30t-102 -10.5q-42 0 -78 6t-72 17l23 79q6 23 30 23q14 0 31 -7.5t50 -7.5q34 0 51 13t17 31q0 30 -37 42.5t-114 24.5l46 137q-96 22 -147 94.5t-51 186.5v587h-108q-20 0 -34.5 13.5t-14.5 39.5z" />
<glyph unicode="&#x164;" horiz-adv-x="1228" d="M31 0zM31 1254v227h1168v-227h-446v-1254h-276v1254h-446zM253 1868h183q15 0 37 -4t39 -27l91 -120l16 -22q5 8 15 22l90 119q17 24 39.5 28t37.5 4h183l-247 -282h-237z" />
<glyph unicode="&#x165;" horiz-adv-x="760" d="M34 0zM34 914v101l169 27l53 287q5 20 19.5 31.5t36.5 11.5h131v-331h281v-180h-281v-569q0 -49 24.5 -77t66.5 -28q24 0 39.5 6t27 12t21 11.5t18.5 5.5q11 0 18.5 -5.5t15.5 -16.5l76 -123q-55 -46 -127 -69.5t-149 -23.5q-137 0 -210.5 77t-73.5 213v587h-107 q-20 0 -34.5 13.5t-14.5 39.5zM614 1169l63 355h170q29 0 35.5 -13t6.5 -25q0 -9 -3.5 -25t-14.5 -46.5t-30.5 -78t-49.5 -121.5q-13 -30 -34 -38t-53 -8h-90z" />
<glyph unicode="&#x166;" horiz-adv-x="1254" d="M43 1254v227h1168v-227h-446v-381h320v-156h-320v-717h-276v717h-320v156h320v381h-446z" />
<glyph unicode="&#x167;" horiz-adv-x="770" d="M37 914v101l169 27l53 287q5 20 19.5 31.5t36.5 11.5h131v-331h281v-180h-281v-150h288v-156h-288v-263q0 -49 24.5 -77t66.5 -28q24 0 39.5 6t27 12t21 11.5t18.5 5.5q11 0 18.5 -5.5t15.5 -16.5l76 -123q-55 -46 -127 -69.5t-149 -23.5q-137 0 -210 77t-73 213v281 h-134v156h134v150h-108q-20 0 -34.5 13.5t-14.5 39.5z" />
<glyph unicode="&#x168;" horiz-adv-x="1520" d="M146 0zM146 594v887h276v-886q0 -85 23 -153.5t66.5 -117.5t106.5 -75.5t143 -26.5t143 26.5t106 75t66 117t23 153.5v887h275v-887q0 -132 -42.5 -244t-122 -193.5t-193 -127t-255.5 -45.5q-143 0 -257 45.5t-193.5 127t-122 193.5t-42.5 244zM403 1581q0 50 14.5 97.5 t41.5 84t66.5 58.5t90.5 22q52 0 91 -16.5t70 -35t57.5 -35t54.5 -16.5q23 0 39.5 9t27 23t16 31t5.5 33h154q0 -51 -13.5 -97.5t-41 -83t-66.5 -58t-91 -21.5t-90.5 16.5t-70 35.5t-57.5 35t-54 16q-24 0 -40 -9t-26.5 -23.5t-15.5 -32t-5 -33.5h-157z" />
<glyph unicode="&#x169;" horiz-adv-x="1155" d="M115 0zM115 383v668h253v-668q0 -96 44.5 -149t133.5 -53q66 0 123 29.5t108 80.5v760h253v-1051h-154q-50 0 -64 46l-17 84q-33 -33 -68 -60t-75 -46.5t-85 -29.5t-98 -10q-86 0 -152 29t-111 82t-68 126.5t-23 161.5zM252 1222q0 57 16 103.5t44.5 80t67 52t83.5 18.5 q37 0 69 -13.5t60 -29t51.5 -28.5t43.5 -13q31 0 48.5 16.5t17.5 60.5h153q0 -57 -15.5 -103.5t-43.5 -80t-66.5 -51t-84.5 -17.5q-37 0 -68.5 13t-59 28.5t-51.5 28.5t-45 13q-30 0 -46.5 -17.5t-16.5 -60.5h-157z" />
<glyph unicode="&#x16a;" horiz-adv-x="1520" d="M146 0zM146 594v887h276v-886q0 -85 23 -153.5t66.5 -117.5t106.5 -75.5t143 -26.5t143 26.5t106 75t66 117t23 153.5v887h275v-887q0 -132 -42.5 -244t-122 -193.5t-193 -127t-255.5 -45.5q-143 0 -257 45.5t-193.5 127t-122 193.5t-42.5 244zM453 1608v145h615v-145 h-615z" />
<glyph unicode="&#x16b;" horiz-adv-x="1155" d="M115 0zM115 383v668h253v-668q0 -96 44.5 -149t133.5 -53q66 0 123 29.5t108 80.5v760h253v-1051h-154q-50 0 -64 46l-17 84q-33 -33 -68 -60t-75 -46.5t-85 -29.5t-98 -10q-86 0 -152 29t-111 82t-68 126.5t-23 161.5zM271 1243v162h613v-162h-613z" />
<glyph unicode="&#x16c;" horiz-adv-x="1520" d="M146 0zM146 594v887h276v-886q0 -85 23 -153.5t66.5 -117.5t106.5 -75.5t143 -26.5t143 26.5t106 75t66 117t23 153.5v887h275v-887q0 -132 -42.5 -244t-122 -193.5t-193 -127t-255.5 -45.5q-143 0 -257 45.5t-193.5 127t-122 193.5t-42.5 244zM423 1863h193 q0 -31 7.5 -54.5t24 -40t44.5 -25t69 -8.5q81 0 112.5 33t31.5 95h194q0 -66 -24.5 -117.5t-68.5 -88t-106 -55.5t-139 -19t-139.5 17t-106.5 51.5t-68 87t-24 124.5z" />
<glyph unicode="&#x16d;" horiz-adv-x="1155" d="M115 0zM115 383v668h253v-668q0 -96 44.5 -149t133.5 -53q66 0 123 29.5t108 80.5v760h253v-1051h-154q-50 0 -64 46l-17 84q-33 -33 -68 -60t-75 -46.5t-85 -29.5t-98 -10q-86 0 -152 29t-111 82t-68 126.5t-23 161.5zM268 1481h178q0 -31 5.5 -55.5t20 -41.5t40.5 -26 t66 -9t65.5 9t40 26t20.5 41.5t6 55.5h177q0 -59 -15.5 -112.5t-52 -93.5t-95.5 -63t-146 -23q-88 0 -147 23t-95.5 63t-52 93t-15.5 113z" />
<glyph unicode="&#x16e;" horiz-adv-x="1520" d="M146 0zM146 594v887h276v-886q0 -85 23 -153.5t66.5 -117.5t106.5 -75.5t143 -26.5t143 26.5t106 75t66 117t23 153.5v887h275v-887q0 -132 -42.5 -244t-122 -193.5t-193 -127t-255.5 -45.5q-143 0 -257 45.5t-193.5 127t-122 193.5t-42.5 244zM549 1747q0 44 17 80.5 t46.5 62t67.5 40t80 14.5q43 0 82 -14.5t68.5 -40t47 -62t17.5 -80.5q0 -43 -17.5 -78t-47 -60.5t-68.5 -39.5t-82 -14q-42 0 -80 14t-67.5 39.5t-46.5 60.5t-17 78zM670 1747q0 -40 24 -65.5t69 -25.5q41 0 65.5 25.5t24.5 65.5q0 43 -24.5 68t-65.5 25q-45 0 -69 -25 t-24 -68z" />
<glyph unicode="&#x16f;" horiz-adv-x="1155" d="M115 0zM115 383v668h253v-668q0 -96 44.5 -149t133.5 -53q66 0 123 29.5t108 80.5v760h253v-1051h-154q-50 0 -64 46l-17 84q-33 -33 -68 -60t-75 -46.5t-85 -29.5t-98 -10q-86 0 -152 29t-111 82t-68 126.5t-23 161.5zM351 1357q0 47 18.5 86t50 66.5t72 43t86.5 15.5 t88 -15.5t73.5 -43t50.5 -66.5t19 -86q0 -46 -19 -84t-50.5 -65t-73.5 -42t-88 -15q-45 0 -86 15t-72.5 42t-50 65t-18.5 84zM488 1357q0 -39 24.5 -65t69.5 -26q41 0 65.5 26t24.5 65q0 43 -24.5 68t-65.5 25q-45 0 -69.5 -25t-24.5 -68z" />
<glyph unicode="&#x170;" horiz-adv-x="1520" d="M146 0zM146 594v887h276v-886q0 -85 23 -153.5t66.5 -117.5t106.5 -75.5t143 -26.5t143 26.5t106 75t66 117t23 153.5v887h275v-887q0 -132 -42.5 -244t-122 -193.5t-193 -127t-255.5 -45.5q-143 0 -257 45.5t-193.5 127t-122 193.5t-42.5 244zM487 1586l142 228 q16 26 41.5 40t67.5 14h164l-211 -245q-20 -17 -37.5 -27t-46.5 -10h-120zM817 1586l187 228q20 25 47 39.5t69 14.5h188l-264 -245q-20 -18 -41 -27.5t-51 -9.5h-135z" />
<glyph unicode="&#x171;" horiz-adv-x="1154" d="M115 0zM115 383v668h253v-668q0 -96 44.5 -149t133.5 -53q66 0 123 29.5t108 80.5v760h253v-1051h-154q-50 0 -64 46l-17 84q-33 -33 -68 -60t-75 -46.5t-85 -29.5t-98 -10q-86 0 -152 29t-111 82t-68 126.5t-23 161.5zM322 1194l129 249q14 27 35 40.5t62 13.5h165 l-204 -267q-16 -20 -35.5 -28t-48.5 -8h-103zM609 1194l182 249q9 13 17.5 23t19.5 17t25 10.5t35 3.5h182l-258 -267q-18 -20 -36 -28t-48 -8h-119z" />
<glyph unicode="&#x172;" horiz-adv-x="1520" d="M146 594v887h276v-886q0 -85 23 -153.5t66.5 -117.5t106.5 -75.5t143 -26.5t143 26.5t106 75t66 117t23 153.5v887h275v-887q0 -119 -33.5 -221t-97.5 -180.5t-156.5 -130.5t-208.5 -69q-19 -11 -37 -25.5t-31.5 -31.5t-22 -36.5t-8.5 -40.5q0 -31 19.5 -49t54.5 -18 q19 0 31.5 2t20 5t13.5 5t11 2q18 0 23 -16l39 -93q-34 -23 -84.5 -37.5t-106.5 -14.5q-100 0 -154.5 42t-54.5 108q0 52 31.5 101t92.5 90q-132 7 -237.5 55t-179.5 129t-113 189t-39 235z" />
<glyph unicode="&#x173;" horiz-adv-x="1155" d="M115 383v668h253v-668q0 -96 44.5 -149t133.5 -53q66 0 123 29.5t108 80.5v760h253v-1051q-20 -11 -39.5 -25.5t-35 -32.5t-24.5 -38.5t-9 -42.5q0 -31 19.5 -49t53.5 -18q19 0 31.5 2t20.5 5t13.5 5.5t10.5 2.5q18 0 24 -17l39 -93q-34 -23 -85 -37.5t-107 -14.5 q-100 0 -154.5 42t-54.5 108q0 56 37.5 108.5t107.5 94.5h-2q-50 0 -64 46l-17 84q-33 -33 -68 -60t-75 -46.5t-85 -29.5t-98 -10q-86 0 -152 29t-111 82t-68 126.5t-23 161.5z" />
<glyph unicode="&#x174;" horiz-adv-x="2152" d="M17 0zM17 1481h231q36 0 60 -17t32 -46l252 -886q8 -33 15.5 -71t16.5 -81q8 43 17.5 81.5t21.5 70.5l290 886q8 24 32.5 43.5t58.5 19.5h81q36 0 58.5 -17.5t34.5 -45.5l289 -886q22 -63 39 -146q13 81 30 146l252 886q6 26 31 44.5t60 18.5h216l-460 -1481h-249 l-323 1012q-7 19 -13.5 41.5t-12.5 47.5q-5 -25 -11.5 -47.5t-12.5 -41.5l-327 -1012h-250zM718 1586l247 282h229l247 -282h-183q-15 0 -37.5 5.5t-45.5 33.5l-84 109q-5 5 -8.5 11t-6.5 11l-16 -22l-84 -109q-24 -28 -45.5 -33.5t-37.5 -5.5h-175z" />
<glyph unicode="&#x175;" horiz-adv-x="1643" d="M18 0zM18 1051h202q28 0 47.5 -13.5t25.5 -33.5l150 -562q11 -46 19.5 -90t15.5 -87q11 43 24 87t27 90l174 564q6 20 24 33.5t44 13.5h112q27 0 45.5 -13.5t24.5 -33.5l169 -564q13 -47 25 -91t22 -88q8 44 17.5 88t21.5 91l155 562q7 20 25.5 33.5t44.5 13.5h192 l-334 -1051h-202q-35 0 -49 45l-188 607q-19 62 -30 121q-12 -61 -30 -123l-192 -605q-12 -45 -54 -45h-195zM470 1196l235 285h237l235 -285h-169q-14 0 -29 5.5t-29 20.5l-101 106q-11 10 -21 25q-11 -14 -22 -25l-102 -106q-12 -13 -27.5 -19.5t-31.5 -6.5h-175z" />
<glyph unicode="&#x176;" horiz-adv-x="1327" d="M-13 1481h242q36 0 57 -17.5t36 -44.5l270 -494q24 -45 41.5 -84t32.5 -77q13 39 30.5 78t39.5 83l270 494q11 23 33.5 42.5t57.5 19.5h243l-539 -908v-573h-275v573zM0 0zM308 1586l247 282h229l247 -282h-183q-15 0 -37.5 5.5t-45.5 33.5l-84 109q-5 5 -8.5 11t-6.5 11 l-16 -22l-84 -109q-24 -28 -45.5 -33.5t-37.5 -5.5h-175z" />
<glyph unicode="&#x177;" horiz-adv-x="1080" d="M6 0zM6 1051h222q30 0 47 -14.5t25 -32.5l223 -545q20 -56 34 -112q8 29 18 57t21 56l211 544q8 20 27 33.5t43 13.5h202l-572 -1340q-11 -27 -29 -40.5t-55 -13.5h-189l197 421zM213 1196l235 285h237l235 -285h-169q-14 0 -29 5.5t-29 20.5l-101 106q-11 10 -21 25 q-11 -14 -22 -25l-102 -106q-12 -13 -27.5 -19.5t-31.5 -6.5h-175z" />
<glyph unicode="&#x178;" horiz-adv-x="1327" d="M-13 1481h242q36 0 57 -17.5t36 -44.5l270 -494q24 -45 41.5 -84t32.5 -77q13 39 30.5 78t39.5 83l270 494q11 23 33.5 42.5t57.5 19.5h243l-539 -908v-573h-275v573zM0 0zM303 1707q0 28 11.5 53t29.5 44t42.5 30t50.5 11q29 0 54.5 -11t44.5 -30t30.5 -44t11.5 -53 t-11.5 -52.5t-30.5 -43t-44.5 -28.5t-54.5 -10q-27 0 -51 10t-42 28.5t-29.5 43t-11.5 52.5zM754 1707q0 28 10.5 53t29 44t43.5 30t54 11q28 0 53 -11t44 -30t29.5 -44t10.5 -53t-10.5 -52.5t-29.5 -43t-44 -28.5t-53 -10q-29 0 -54 10t-43.5 28.5t-29 43t-10.5 52.5z" />
<glyph unicode="&#x179;" horiz-adv-x="1240" d="M41 0v109q0 20 7 39t19 35l761 1079h-739v219h1096v-102q0 -47 -27 -86l-760 -1073h769v-220h-1126zM41 0zM470 1586l214 278q10 14 20.5 22.5t22.5 13t27 5.5t35 1h282l-332 -293q-20 -18 -38.5 -22.5t-47.5 -4.5h-183z" />
<glyph unicode="&#x17a;" horiz-adv-x="941" d="M53 0v105q0 17 8.5 41.5t24.5 46.5l504 664h-507v194h797v-105q0 -27 -9.5 -52.5t-24.5 -41.5l-500 -657h518v-195h-811zM53 0zM360 1194l146 249q15 27 35.5 40.5t61.5 13.5h246l-253 -267q-19 -20 -37 -28t-47 -8h-152z" />
<glyph unicode="&#x17b;" horiz-adv-x="1240" d="M41 0v109q0 20 7 39t19 35l761 1079h-739v219h1096v-102q0 -47 -27 -86l-760 -1073h769v-220h-1126zM41 0zM486 1735q0 32 12.5 60t33.5 49t48.5 33t57.5 12q32 0 60.5 -12t50 -33t34 -49t12.5 -60q0 -31 -12.5 -58t-34 -48t-50.5 -33.5t-60 -12.5q-30 0 -57.5 12.5 t-48.5 33.5t-33.5 48t-12.5 58z" />
<glyph unicode="&#x17c;" horiz-adv-x="941" d="M53 0v105q0 17 8.5 41.5t24.5 46.5l504 664h-507v194h797v-105q0 -27 -9.5 -52.5t-24.5 -41.5l-500 -657h518v-195h-811zM53 0zM334 1361q0 34 12.5 63t34 51t50.5 35t62 13q34 0 64 -13t52 -35t35 -51t13 -63q0 -33 -13 -62t-35 -50.5t-52.5 -34.5t-63.5 -13t-62 13 t-50.5 34.5t-34 50.5t-12.5 62z" />
<glyph unicode="&#x17d;" horiz-adv-x="1240" d="M41 0v109q0 20 7 39t19 35l761 1079h-739v219h1096v-102q0 -47 -27 -86l-760 -1073h769v-220h-1126zM41 0zM275 1868h183q15 0 37 -4t39 -27l91 -120l16 -22q5 8 15 22l90 119q17 24 39.5 28t37.5 4h183l-247 -282h-237z" />
<glyph unicode="&#x17e;" horiz-adv-x="941" d="M53 0v105q0 17 8.5 41.5t24.5 46.5l504 664h-507v194h797v-105q0 -27 -9.5 -52.5t-24.5 -41.5l-500 -657h518v-195h-811zM53 0zM141 1481h175q15 0 29 -5.5t23 -12.5l108 -113q5 -5 11 -12t11 -14q10 13 22 26l108 113q8 6 22.5 12t28.5 6h169l-235 -285h-237z" />
<glyph unicode="&#x17f;" horiz-adv-x="617" d="M43 938v103h157v78q0 90 27 162t77.5 122t123.5 76.5t164 26.5q73 0 135 -19l-8 -131q-2 -24 -26.5 -28.5t-57.5 -4.5q-45 0 -79 -11.5t-57 -36.5t-34.5 -65.5t-11.5 -98.5v-1111h-253v860l-91 14q-30 6 -48 21t-18 43z" />
<glyph unicode="&#x180;" horiz-adv-x="1163" d="M-23 1158v157h148v207h253v-207h231v-157h-231v-268q62 66 141 105.5t183 39.5q86 0 157.5 -32.5t123 -97t80 -162t28.5 -226.5q0 -117 -32 -214.5t-91 -168.5t-142.5 -110t-186.5 -39q-48 0 -88 9.5t-73 27t-61 42.5t-53 56l-12 -71q-5 -27 -20.5 -38t-40.5 -11h-166 v1158h-148zM378 271q43 -52 93 -73t110 -21q57 0 103 19t79 60t50 105.5t17 155.5q0 92 -14.5 153.5t-42.5 99t-68 53.5t-89 16q-80 0 -135 -33t-103 -93v-442z" />
<glyph unicode="&#x181;" horiz-adv-x="1682" d="M34 1110q0 84 29.5 152.5t87 117t141 75t191.5 26.5h527q145 0 248 -28t169 -79t96.5 -123.5t30.5 -164.5q0 -52 -15 -99.5t-47.5 -89t-82 -75.5t-118.5 -57q305 -69 305 -330q0 -94 -35.5 -174t-104 -137.5t-169 -90.5t-229.5 -33h-559v1281h-16q-59 0 -100 -11.5 t-66.5 -33.5t-37.5 -54t-12 -74q0 -27 4.5 -50.5t8.5 -34.5q7 -25 -0.5 -48t-45.5 -33l-159 -36q-20 52 -30.5 99.5t-10.5 104.5zM774 215h280q77 0 128.5 18.5t82.5 49t45 71.5t14 87q0 48 -15.5 86.5t-48 66t-84.5 41.5t-124 14h-278v-434zM774 840h220q140 0 213 51 t73 163q0 116 -65.5 165t-204.5 49h-236v-428z" />
<glyph unicode="&#x182;" horiz-adv-x="1289" d="M165 0v1481h1004v-213h-729v-400h242q144 0 247 -31.5t168 -86.5t96 -129t31 -159q0 -104 -36.5 -189.5t-106 -146t-170.5 -93.5t-230 -33h-516zM440 215h241q77 0 128.5 17t83.5 46.5t45 69.5t13 86q0 50 -13 91t-45 69.5t-83 43.5t-128 15h-242v-438z" />
<glyph unicode="&#x183;" horiz-adv-x="1162" d="M125 0v1522h874v-180h-621v-420q62 67 141 106t184 39q86 0 157.5 -35.5t123 -103t80 -166.5t28.5 -228q0 -118 -32 -218.5t-91 -174t-142.5 -115t-186.5 -41.5q-48 0 -88 9.5t-73 27t-61 42.5t-53 56l-12 -71q-6 -27 -21 -38t-40 -11h-167zM378 272q43 -53 93.5 -74 t110.5 -21q57 0 103 21.5t78.5 65.5t49.5 111t17 159t-14.5 156t-42.5 104t-67.5 58t-89.5 18q-79 0 -134.5 -33t-103.5 -94v-471z" />
<glyph unicode="&#x184;" horiz-adv-x="1437" d="M29 1073l326 408h202v-515h277q143 0 249 -38.5t176 -104.5t104.5 -153t34.5 -184q0 -103 -36 -192t-105 -154t-170.5 -102.5t-233.5 -37.5h-570v902zM557 752l1 -502v-35h290q80 0 133.5 26t85.5 67t45 89.5t13 95.5q0 48 -14.5 94.5t-48 83t-86 59t-129.5 22.5h-290z " />
<glyph unicode="&#x185;" horiz-adv-x="1206" d="M-58 1154l291 368h189v-600q62 67 141 106t185 39q86 0 157 -35.5t122.5 -103t80 -166.5t28.5 -228q0 -118 -32 -218.5t-91 -174t-142.5 -115t-186.5 -41.5q-48 0 -88 9.5t-73 27t-61 42.5t-53 56l-12 -71q-6 -27 -21 -38t-40 -11h-167v1001zM422 272q43 -53 93.5 -74 t109.5 -21q57 0 103.5 21.5t79 65.5t49.5 111t17 159t-14.5 156t-42 104t-67.5 58t-90 18q-79 0 -134.5 -33t-103.5 -94v-471z" />
<glyph unicode="&#x186;" horiz-adv-x="1360" d="M31 214l108 118q17 17 39 17q13 0 24.5 -5.5t21.5 -14.5q34 -31 68.5 -52t72.5 -34.5t84 -19.5t102 -6q93 0 175.5 35.5t143 102t95.5 163.5t35 222q0 124 -32.5 221t-92 164t-142 102.5t-181.5 35.5q-88 0 -145.5 -18.5t-96 -40t-64 -40t-47.5 -18.5q-23 0 -35.5 9 t-21.5 22l-92 128q87 86 213 139t288 53q163 0 297 -56t231 -156t150 -239t53 -306q0 -165 -49.5 -304t-143 -239.5t-225.5 -156.5t-296 -56q-184 0 -315.5 59t-221.5 171z" />
<glyph unicode="&#x187;" horiz-adv-x="1364" d="M80 740q0 167 53 306t150 239t231.5 156t297.5 56q77 0 144.5 -12t128.5 -36v21q0 66 16.5 128.5t55 110.5t102 78t157.5 30q35 0 64 -3t55.5 -8t51 -12.5t50.5 -17.5l-35 -142q-5 -18 -14 -29t-20.5 -15t-23.5 -4t-24 3q-15 4 -35.5 6.5t-40.5 2.5q-70 0 -100.5 -48 t-30.5 -141v-104l-92 -128q-9 -12 -22 -21.5t-36 -9.5q-15 0 -31 8.5t-35.5 21.5t-45 28.5t-59.5 28t-79 21.5t-103 9q-98 0 -180.5 -35.5t-142 -102.5t-92.5 -164t-33 -221q0 -125 35 -222t96 -163.5t142.5 -102t175.5 -35.5q56 0 101.5 6t84.5 19.5t73.5 34.5t68.5 52 q10 9 21 14.5t24 5.5q23 0 39 -17l109 -118q-90 -112 -222 -171t-316 -59q-164 0 -296 56t-225 156.5t-143 239.5t-50 304z" />
<glyph unicode="&#x188;" horiz-adv-x="996" d="M70 527q0 116 33 215t97.5 171t160 113t219.5 41q78 0 145 -18v76q0 66 16.5 127.5t52 109.5t93.5 77t141 29q45 0 90.5 -9.5t95.5 -31.5l-27 -109q-8 -30 -24.5 -39.5t-30.5 -9.5q-15 0 -37 6.5t-52 6.5q-55 0 -76.5 -37.5t-21.5 -106.5v-217l-66 -93q-11 -14 -22 -22 t-32 -8q-19 0 -37.5 11.5t-44 26.5t-61 26.5t-87.5 11.5q-67 0 -117 -24t-83.5 -69t-49.5 -109t-16 -145q0 -84 18 -149.5t51.5 -110t81.5 -67.5t109 -23q60 0 97.5 15t63 33t44.5 32.5t43 14.5q31 0 46 -23l72 -92q-42 -49 -91 -82.5t-101.5 -53.5t-108.5 -28t-111 -8 q-97 0 -183.5 36t-151 106t-101.5 170.5t-37 229.5z" />
<glyph unicode="&#x189;" horiz-adv-x="1576" d="M-1 667v156h185v658h565q169 0 307 -55t236.5 -152.5t152.5 -234t54 -299.5t-54 -299t-152.5 -234t-236.5 -152.5t-307 -54.5h-565v667h-185zM461 219h288q109 0 195 36t146.5 103t93.5 163.5t33 218.5t-33 219t-93.5 164t-147 103t-194.5 36h-288v-439h272v-156h-272 v-448z" />
<glyph unicode="&#x18a;" horiz-adv-x="1892" d="M34 1110q0 84 29.5 152.5t87 117t141 75t191.5 26.5h581q168 0 306 -55t236.5 -152.5t153 -234t54.5 -299.5t-54.5 -299t-153 -234t-236.5 -152.5t-306 -54.5h-565v1281h-16q-59 0 -100 -11.5t-66.5 -33.5t-37.5 -54t-12 -74q0 -27 4.5 -50.5t8.5 -34.5q7 -25 -0.5 -48 t-45.5 -33l-159 -36q-20 52 -30.5 99.5t-10.5 104.5zM776 219h288q109 0 195.5 36t146.5 103t92.5 163.5t32.5 218.5t-32.5 219t-92.5 164t-147 103t-195 36h-288v-1043z" />
<glyph unicode="&#x18b;" horiz-adv-x="1289" d="M66 462q0 85 30.5 159t96 129t168.5 86.5t247 31.5h241v400h-729v213h1004v-1481h-516q-129 0 -229.5 33t-170.5 93.5t-106 145.5t-36 190zM338 434q0 -46 13.5 -86t45 -69.5t83 -46.5t128.5 -17h241v438h-241q-77 0 -128.5 -15t-83 -43.5t-45 -69.5t-13.5 -91z" />
<glyph unicode="&#x18c;" horiz-adv-x="1162" d="M71 522q0 117 31.5 217.5t91 174t142.5 115t186 41.5q88 0 150.5 -28t111.5 -75v375h-620v180h873v-1522h-154q-50 0 -64 46l-21 101q-33 -37 -69 -66.5t-77.5 -51t-89 -33t-102.5 -11.5q-86 0 -158 35.5t-123.5 104t-79.5 168.5t-28 229zM332 522q0 -92 14.5 -156 t42.5 -104.5t68 -58.5t89 -18q79 0 134 33t104 93v471q-43 52 -93.5 74t-108.5 22q-57 0 -103.5 -21.5t-79 -65t-50 -111t-17.5 -158.5z" />
<glyph unicode="&#x18d;" horiz-adv-x="1086" d="M33 1002q0 106 34 196t99 155t159.5 101.5t213.5 36.5q120 0 214.5 -37t159.5 -102t100 -155t35 -197q0 -165 -84.5 -282.5t-257.5 -183.5q43 -26 80 -54t65 -61.5t44 -74.5t16 -91q0 -58 -23 -107t-69.5 -84t-118 -55t-168.5 -20q-39 0 -88 3t-100 9t-102 13.5t-92 17.5 l19 153q5 33 20 44t45 11q17 0 53.5 -9t81 -18.5t92 -18.5t89.5 -9q68 0 96 20.5t28 50.5t-28 57t-73 54.5t-102 58.5t-117.5 69t-118 86t-102.5 109.5t-72.5 139t-27.5 174.5zM285 1009q0 -74 21 -131t55.5 -102.5t80.5 -81t98 -65.5q48 19 92.5 49.5t78.5 74.5t54.5 102.5 t20.5 136.5q0 63 -14.5 119t-45.5 98t-77.5 66.5t-109.5 24.5q-56 0 -103 -19.5t-80.5 -57.5t-52 -91.5t-18.5 -122.5z" />
<glyph unicode="&#x18e;" horiz-adv-x="1171" d="M73 0v220h656v419h-517v212h517v411h-656v219h934v-1481h-934z" />
<glyph unicode="&#x18f;" horiz-adv-x="1500" d="M73 652q0 40 3.5 66t12.5 41.5t24.5 21.5t40.5 6h980q-16 239 -138.5 357t-331.5 118q-89 0 -154.5 -21t-114.5 -47t-86.5 -47t-70.5 -21q-22 0 -38.5 9t-27.5 23l-84 104q62 71 135 116.5t151.5 73.5t159.5 39t160 11q154 0 286.5 -50.5t230.5 -150.5t153.5 -247.5 t55.5 -340.5q0 -151 -49 -284t-140.5 -232t-222.5 -156t-296 -57q-139 0 -256.5 44.5t-202.5 130t-132.5 210t-47.5 283.5zM339 599q0 -85 25 -156t73 -122.5t118 -80t159 -28.5q90 0 161.5 27t124 78t84.5 122t44 160h-789z" />
<glyph unicode="&#x190;" horiz-adv-x="1216" d="M86 438q0 61 19 116.5t53.5 101.5t83 82.5t106.5 62.5q-65 22 -109 54.5t-72 71.5t-40 82.5t-12 87.5q0 79 37 151.5t109 128t175 88.5t235 33q81 0 150 -11.5t128.5 -33.5t109 -53t91.5 -69l-61 -107q-17 -31 -36 -38.5t-33 -7.5q-22 0 -48 14.5t-66 32.5t-98 33 t-144 15q-68 0 -116.5 -15.5t-80 -41.5t-46 -60.5t-14.5 -72.5q0 -95 72 -145t207 -50h246v-197h-269q-77 0 -133 -20.5t-92 -52.5t-52.5 -73t-16.5 -81q0 -52 20.5 -97t60.5 -78.5t99.5 -53t138.5 -19.5q70 0 119.5 13t85.5 32t61 40.5t44 37.5q10 9 22 14.5t24 5.5 q23 0 39 -17l102 -118q-56 -70 -122 -115.5t-138 -73t-150.5 -38.5t-159.5 -11q-96 0 -190.5 28t-170 85t-122 142t-46.5 197z" />
<glyph unicode="&#x191;" horiz-adv-x="1159" d="M-160 -328l35 142q5 19 14 29.5t20 15t24 4.5t25 -3q15 -5 35 -7.5t41 -2.5q70 0 100.5 48.5t30.5 141.5v1441h934v-219h-658v-439h555v-220h-555v-563q0 -89 -21.5 -164t-67 -129.5t-115 -85t-165.5 -30.5q-40 0 -71.5 2.5t-58.5 8.5t-51.5 13.5t-50.5 16.5z" />
<glyph unicode="&#x192;" horiz-adv-x="717" d="M-141 -364l27 110q8 30 23 39t33 9q15 0 33 -6t52 -6q77 0 115 46.5t38 143.5v888l-91 14q-30 6 -47.5 21t-17.5 43v103h156v78q0 90 27 162t78 122t123.5 76.5t163.5 26.5q73 0 136 -19l-7 -127q-2 -30 -27 -37t-59 -7q-45 0 -80 -10t-59.5 -34t-37.5 -63.5t-13 -97.5 v-70h272v-180h-264v-860q0 -89 -22 -163.5t-68.5 -128t-119 -83.5t-173.5 -30q-54 0 -97.5 9.5t-93.5 30.5z" />
<glyph unicode="&#x193;" horiz-adv-x="1495" d="M77 740q0 167 54 306.5t154 239.5t242.5 155.5t319.5 55.5q90 0 167 -14t144 -39v26q0 66 16.5 128.5t55 110.5t102 78t157.5 30q35 0 64 -3t55 -8t50.5 -12.5t51.5 -17.5l-36 -142q-5 -18 -13.5 -29t-20 -15t-23.5 -4t-25 3q-16 4 -35.5 6.5t-39.5 2.5q-70 0 -101.5 -48 t-31.5 -141v-105l-78 -125q-18 -30 -48 -36.5t-65 14.5q-34 19 -67.5 38.5t-75 34t-93.5 24t-119 9.5q-110 0 -198.5 -37t-151 -105.5t-96.5 -165t-34 -215.5q0 -128 36 -227.5t100.5 -168.5t153 -105t194.5 -36q94 0 163 17t132 46v270h-187q-27 0 -41.5 14.5t-14.5 36.5 v155h491v-599q-56 -41 -117 -71t-129.5 -49.5t-147.5 -29t-170 -9.5q-162 0 -298.5 56t-235.5 156.5t-154.5 239.5t-55.5 304z" />
<glyph unicode="&#x194;" horiz-adv-x="1417" d="M-45 1481h267q29 0 42.5 -9t27.5 -29l432 -631l416 631q11 18 25 28t33 10h264l-588 -850l459 -631h-1249l467 645zM509 207h412q-23 14 -38 36l-178 247q-11 -30 -25 -56t-33 -50l-105 -150q-12 -14 -33 -27z" />
<glyph unicode="&#x195;" horiz-adv-x="1744" d="M125 0v1522h253v-585q61 58 135 94t173 36q86 0 152.5 -29t111 -82t67.5 -126t23 -161v-286q0 -109 43 -159.5t126 -50.5t125.5 50.5t42.5 159.5v668h253v-668q0 -88 -24.5 -161.5t-76 -126.5t-131 -82t-189.5 -29q-111 0 -190 29t-130.5 82t-76.5 126.5t-25 161.5v286 q0 96 -44 148.5t-134 52.5q-66 0 -123 -29.5t-108 -80.5v-760h-253z" />
<glyph unicode="&#x196;" horiz-adv-x="694" d="M158 323v1159h277v-1144q0 -75 29 -109t97 -34h102v-90q0 -33 -17.5 -55t-47 -36t-66.5 -19.5t-78 -5.5q-73 0 -128.5 25t-92.5 69.5t-56 106t-19 133.5z" />
<glyph unicode="&#x197;" horiz-adv-x="656" d="M-4 672v159h193v650h278v-650h193v-159h-193v-672h-278v672h-193z" />
<glyph unicode="&#x198;" horiz-adv-x="1453" d="M165 0v1482h275v-622h65q39 0 66.5 11t49.5 42l230 368q35 59 77.5 100t92 66.5t107.5 36t124 10.5q71 0 115 -9t77 -24l-25 -139q-5 -18 -13.5 -28.5t-19.5 -15t-22.5 -5t-23.5 1.5q-13 3 -33.5 6t-39.5 3q-55 0 -97.5 -24t-68.5 -65l-199 -311q-42 -69 -107 -98 q36 -12 64 -34.5t54 -59.5l508 -692h-242q-49 0 -73.5 14t-40.5 40l-413 545q-20 28 -46 40t-76 12h-90v-651h-275z" />
<glyph unicode="&#x199;" horiz-adv-x="1094" d="M125 0v1091q0 89 22 163.5t68.5 128.5t119.5 84t173 30q54 0 98 -9.5t93 -31.5l-27 -109q-8 -30 -23 -40t-33 -10q-15 0 -33 6.5t-52 6.5q-77 0 -115 -46t-38 -144v-470h47q26 0 40.5 7t30.5 27l261 323q16 22 36 33t52 11h231l-326 -391q-35 -46 -76 -70 q22 -15 38.5 -35.5t31.5 -44.5l351 -510h-229q-30 0 -51 9.5t-36 35.5l-268 398q-14 24 -29.5 31t-46.5 7h-57v-481h-253z" />
<glyph unicode="&#x19a;" horiz-adv-x="590" d="M25 675v179h130v668h253v-668h154v-179h-154v-675h-253v675h-130z" />
<glyph unicode="&#x19b;" horiz-adv-x="1111" d="M-4 0l402 939l-25 72l-190 -67l-52 149l191 66l-17 47q-11 32 -23.5 52.5t-30 32.5t-41.5 16.5t-57 4.5h-79v92q0 19 6.5 36t23.5 30t45 20t71 7q42 0 85 -8.5t81.5 -30.5t70 -60t53.5 -98l24 -66l194 69l51 -149l-192 -68l291 -812q9 -26 20 -44.5t27.5 -31t38.5 -18.5 t52 -6h62v-100q0 -27 -8 -44t-24 -26t-39.5 -12.5t-54.5 -3.5q-41 0 -82 9t-78 33t-69 65.5t-54 107.5l-135 382q-9 27 -15.5 50t-11.5 47q-6 -24 -13.5 -47.5t-17.5 -46.5l-186 -541q-8 -18 -25.5 -32.5t-47.5 -14.5h-221z" />
<glyph unicode="&#x19c;" horiz-adv-x="2237" d="M151 542v939h277v-939q0 -86 19.5 -151t54.5 -108.5t84 -65.5t107 -22q62 0 114 22t89 65.5t57 108.5t20 151v939h277v-939q0 -80 14 -144.5t43 -109.5t75.5 -69t113.5 -24q96 0 173.5 68t125.5 212v1006h278v-1477h-144q-71 0 -87 65l-30 146q-33 -54 -70.5 -97 t-82.5 -73t-99.5 -45.5t-119.5 -15.5q-70 0 -128 17t-104 49.5t-80.5 78t-58.5 102.5q-36 -67 -85 -113t-106 -76.5t-119 -44t-122 -13.5q-125 0 -216 37t-151.5 108.5t-89.5 175.5t-29 237z" />
<glyph unicode="&#x19d;" horiz-adv-x="1577" d="M-160 -364l35 142q5 18 14 29t20 15t24 4t25 -3q15 -4 35 -6.5t41 -2.5q70 0 100.5 48t30.5 141v1478h144q17 0 30 -1.5t23 -6.5t19 -13.5t20 -22.5l777 -992q-3 36 -5.5 71t-2.5 65v900h243v-1481h-141q-33 0 -55 11t-42 36l-774 986q3 -33 5 -65t2 -59v-906 q0 -89 -19 -164t-60.5 -129t-107.5 -84t-161 -30q-36 0 -64.5 2.5t-54.5 7.5t-50.5 12.5t-50.5 17.5z" />
<glyph unicode="&#x19e;" horiz-adv-x="1236" d="M40 876v100q0 16 6.5 31.5t22 28t40 19.5t60.5 7q81 0 146 -37t96 -114q35 35 74.5 64t84 49t94 31.5t104.5 11.5q86 0 152 -29t111 -82t68 -126t23 -161v-1012h-253v1012q0 96 -44.5 148.5t-133.5 52.5q-66 0 -123.5 -29.5t-107.5 -80.5v-760h-253v741q0 69 -30 102 t-87 33h-50z" />
<glyph unicode="&#x19f;" horiz-adv-x="1654" d="M77 740q0 163 54 302t153 240t237 158t306 57q113 0 212.5 -26t182.5 -73.5t149 -116t112 -152t70 -182t24 -207.5q0 -163 -54 -301.5t-152 -240t-236.5 -158t-307.5 -56.5q-168 0 -306 56.5t-237 158t-153 240.5t-54 301zM364 649q11 -101 48.5 -181t96.5 -135 t139.5 -84.5t178.5 -29.5q97 0 177.5 29.5t140 84.5t97 135t48.5 181h-926zM366 854h921q-14 96 -52 172t-97 128.5t-137.5 80.5t-173.5 28t-174 -28t-137.5 -80.5t-97 -128.5t-52.5 -172z" />
<glyph unicode="&#x1a0;" horiz-adv-x="1764" d="M77 740q0 163 54 302t153 240t237 158t306 57q171 0 309.5 -58t237.5 -161q55 12 83.5 41t28.5 65q0 19 -6.5 34t-15 29.5t-15 32.5t-6.5 43q0 53 33.5 80t104.5 27h135q7 -23 11 -53.5t4 -63.5q0 -61 -17 -117t-50.5 -101.5t-83.5 -79t-118 -53.5q55 -90 85 -196 t30 -226q0 -163 -54 -301.5t-152 -240t-236.5 -158t-307.5 -56.5q-168 0 -306 56.5t-237 158t-153 240.5t-54 301zM358 740q0 -122 33 -218.5t94 -163.5t147.5 -103t194.5 -36q109 0 195.5 36t147 103t93 163.5t32.5 218.5t-32.5 219t-93 164.5t-147 103.5t-195.5 36 t-195 -36t-147 -103.5t-94 -164.5t-33 -219z" />
<glyph unicode="&#x1a1;" horiz-adv-x="1281" d="M69 527q0 124 37 224.5t105.5 170t164.5 107.5t214 38q133 0 237.5 -47.5t171.5 -137.5q49 14 74.5 42.5t25.5 63.5q0 16 -7.5 29t-16 26.5t-15.5 30.5t-7 41q0 46 30.5 71t97.5 25h124q6 -20 9.5 -48.5t3.5 -60.5q0 -58 -15.5 -110t-47 -94.5t-80.5 -73.5t-114 -47 q47 -112 47 -250q0 -125 -37 -225t-105 -171t-163.5 -108.5t-212.5 -37.5q-118 0 -214 37.5t-164.5 108.5t-105.5 171t-37 225zM329 525q0 -169 64 -257.5t197 -88.5q131 0 194 88t63 258t-63 259t-194 89q-133 0 -197 -89.5t-64 -258.5z" />
<glyph unicode="&#x1a2;" horiz-adv-x="2107" d="M79 740q0 163 48 302t138.5 240t220.5 158t294 57q139 0 253 -41t201 -116q72 71 157.5 113.5t195.5 42.5q89 0 157 -27.5t114.5 -79.5t70 -125.5t23.5 -164.5v-1451h-278v1451q0 37 -9 68.5t-27 55t-45.5 37t-64.5 13.5q-47 0 -90.5 -19t-82.5 -52q61 -95 93.5 -211.5 t32.5 -250.5q0 -163 -48.5 -301.5t-139 -239.5t-220 -157.5t-293.5 -56.5t-294 56.5t-220.5 157.5t-138.5 240t-48 301zM361 740q0 -122 29 -219.5t83 -166t132 -105.5t175 -37t175 37t132.5 105.5t83 166t28.5 219.5t-28.5 220t-83 167t-132 106t-175.5 37q-97 0 -175 -37 t-132 -106t-83 -167t-29 -220z" />
<glyph unicode="&#x1a3;" horiz-adv-x="1673" d="M69 527q0 124 37 224.5t105.5 170t164.5 107.5t214 38q102 0 192 -30t162 -95q58 60 129 92.5t161 32.5q83 0 144 -27.5t101 -79.5t59.5 -125.5t19.5 -164.5v-1013h-253v1013q0 39 -5.5 74t-19.5 62.5t-39.5 43.5t-63.5 16t-71.5 -14.5t-63.5 -39.5v-433 q0 -70 -26.5 -140.5t-82 -127t-141 -91.5t-202.5 -35q-118 0 -214 37.5t-164.5 108.5t-105.5 171t-37 225zM329 525q0 -169 64 -257.5t197 -88.5q65 0 104 20t60.5 50.5t28.5 64.5t7 64v396q-27 44 -75 71.5t-125 27.5q-133 0 -197 -89.5t-64 -258.5z" />
<glyph unicode="&#x1a4;" horiz-adv-x="1601" d="M34 1110q0 84 29.5 152.5t87 117t141 75t191.5 26.5h498q148 0 257 -35t179.5 -97.5t104 -149.5t33.5 -190q0 -108 -35.5 -197.5t-107.5 -154t-179.5 -100.5t-251.5 -36h-207v-521h-275v1281h-16q-59 0 -100 -11.5t-66.5 -33.5t-37.5 -54t-12 -74q0 -27 4.5 -50.5 t8.5 -34.5q7 -25 -0.5 -48t-45.5 -33l-159 -36q-20 52 -30.5 99.5t-10.5 104.5zM774 736h207q76 0 132 19t93 54.5t55.5 86t18.5 113.5q0 59 -18.5 107t-55.5 82t-93 52t-132 18h-207v-532z" />
<glyph unicode="&#x1a5;" horiz-adv-x="1163" d="M125 -343v1364v70q0 89 22 163.5t68.5 128.5t119.5 84t173 30q54 0 98 -9.5t93 -31.5l-27 -109q-8 -30 -23 -40t-33 -10q-15 0 -33 6.5t-52 6.5q-77 0 -115 -46t-38 -144v-198q62 67 141 106t184 39q86 0 157.5 -35.5t123 -103t80 -166.5t28.5 -228q0 -118 -32 -218.5 t-91 -174t-142.5 -115t-186.5 -41.5q-45 0 -83 8t-69.5 24t-58.5 38t-51 49v-447h-253zM378 272q43 -53 93.5 -74t110.5 -21q57 0 103 21.5t78.5 65.5t49.5 111t17 159t-14.5 156t-42.5 104t-67.5 58t-89.5 18q-79 0 -134.5 -33t-103.5 -94v-471z" />
<glyph unicode="&#x1a6;" horiz-adv-x="1258" d="M165 0v1497h275v-228h176q151 0 259 -31.5t177 -87.5t102 -134.5t33 -172.5q0 -75 -21.5 -141.5t-63 -121t-102.5 -95.5t-139 -65q26 -14 48.5 -35t40.5 -50l371 -547h-249q-72 0 -102 55l-312 474q-17 27 -38 38.5t-62 11.5h-118v-367h-275zM440 564h172q78 0 136 19.5 t95.5 54t56 81.5t18.5 103q0 113 -74.5 173.5t-227.5 60.5h-176v-492z" />
<glyph unicode="&#x1a7;" horiz-adv-x="1115" d="M61 432q0 90 30 154.5t78 110.5t109.5 78t126 56.5t126 47t109.5 50.5t78 65.5t30 91.5q0 40 -13.5 74.5t-40.5 59t-67 39t-93 14.5q-63 0 -110 -16t-82 -35.5t-60.5 -35.5t-45.5 -16t-35 10t-27 31l-68 130q78 74 189 115t242 41q117 0 207 -35t151 -92.5t93.5 -133.5 t32.5 -157q0 -99 -29 -167.5t-77.5 -116t-110 -78t-126 -54t-125.5 -44.5t-109.5 -49t-77.5 -68t-29 -101q0 -97 62.5 -144.5t167.5 -47.5q77 0 132 21t96 46.5t70 46.5t56 21q19 0 35 -9.5t26 -24.5l81 -132q-43 -44 -98.5 -80t-118.5 -61.5t-131.5 -39t-139.5 -13.5 q-123 0 -218 32.5t-161 91.5t-100.5 141.5t-34.5 182.5z" />
<glyph unicode="&#x1a8;" horiz-adv-x="900" d="M57 293q0 66 22.5 114t60 83t85 60t97 44.5t97 36.5t85 36.5t60 44t22.5 59.5q0 49 -43.5 80.5t-120.5 31.5q-47 0 -82 -10.5t-62 -23t-49 -23t-42 -10.5q-15 0 -25.5 6.5t-21.5 23.5l-57 91q59 58 150.5 94t210.5 36q92 0 163 -22t119.5 -62t73.5 -95t25 -123 q0 -67 -23 -114.5t-60 -81.5t-85 -58.5t-97.5 -43t-97 -35t-85 -36.5t-60.5 -46t-23 -63q0 -24 9.5 -47t31 -40.5t55.5 -28t81 -10.5q55 0 92 13t64 28.5t48.5 29t46.5 13.5q40 0 61 -36l59 -96q-31 -28 -72 -51.5t-90.5 -41t-106.5 -27t-119 -9.5q-94 0 -167.5 22.5 t-124.5 63t-78 97t-27 126.5z" />
<glyph unicode="&#x1a9;" horiz-adv-x="1254" d="M61 0v102q0 30 15 60.5t36 52.5l455 524l-474 547q-13 15 -22.5 35.5t-9.5 41.5v118h1124v-212h-635q-56 0 -101.5 3.5t-89.5 11.5q49 -25 88.5 -54t72.5 -65l220 -271q23 -26 37 -45t21.5 -33.5t10 -27t2.5 -24.5q0 -14 -2 -28.5t-9.5 -31.5t-22 -37.5t-37.5 -45.5 l-272 -326q-33 -38 -55.5 -59t-45.5 -35q44 6 81 8.5t69 2.5h668v-212h-1124z" />
</font>
</defs>
</svg>
