<?xml version="1.0" standalone="no"?>
<!DOCTYPE svg PUBLIC "-//W3C//DTD SVG 1.1//EN" "http://www.w3.org/Graphics/SVG/1.1/DTD/svg11.dtd" >
<svg xmlns="http://www.w3.org/2000/svg" xmlns:xlink="http://www.w3.org/1999/xlink" version="1.1">
<metadata></metadata>
<defs>
<font id="latoregular" horiz-adv-x="819" >
<font-face units-per-em="2048" ascent="1649" descent="-399" />
<missing-glyph horiz-adv-x="524" />
<glyph horiz-adv-x="0" />
<glyph horiz-adv-x="0" />
<glyph horiz-adv-x="682" />
<glyph unicode=" "  horiz-adv-x="524" />
<glyph unicode="&#x09;" horiz-adv-x="524" />
<glyph unicode="&#xa0;" horiz-adv-x="524" />
<glyph unicode="!" horiz-adv-x="550" d="M364 1467v-585q0 -46 -2.5 -90t-5.5 -89t-7.5 -91.5t-10.5 -99.5h-123q-6 53 -10.5 99.5t-7.5 91.5t-5.5 89t-2.5 90v585h175zM145 113q0 27 10 50t27.5 40.5t40.5 28t50 10.5t50 -10.5t40.5 -28t27.5 -41t10 -49.5q0 -28 -10 -51t-27.5 -40.5t-40.5 -27t-50 -9.5 q-28 0 -50.5 9.5t-40 27t-27.5 40.5t-10 51z" />
<glyph unicode="&#x22;" horiz-adv-x="758" d="M289 1467v-297l-17 -158q-5 -33 -18.5 -51t-44.5 -18q-28 0 -42.5 18t-20.5 51l-16 158v297h159zM630 1467v-297l-17 -158q-5 -33 -18.5 -51t-44.5 -18q-28 0 -42.5 18t-20.5 51l-16 158v297h159z" />
<glyph unicode="#" horiz-adv-x="1187" d="M748 901h-253l-67 -334h253zM1135 1035l-14 -77q-5 -30 -24 -43.5t-58 -13.5h-141l-67 -334h184q30 0 42.5 -16.5t6.5 -58.5l-9 -59h-243l-86 -433h-83q-13 0 -24.5 6t-19 16.5t-10.5 24.5t0 32l73 354h-253l-73 -363q-6 -38 -29.5 -54t-53.5 -16h-82l87 433h-149 q-29 0 -42 17t-7 59l9 58h209l66 334h-238l14 76q5 30 24 44t58 14h162l73 367q6 31 28 48t53 17h82l-86 -432h253l86 432h81q30 0 46.5 -19.5t11.5 -48.5l-74 -364h217z" />
<glyph unicode="$" horiz-adv-x="1187" d="M628 140q68 6 119 29.5t86 59t53 83t18 105.5q0 51 -19 88t-51.5 64t-76.5 46t-94 35zM594 1324q-67 -6 -115.5 -26.5t-80 -51.5t-47 -69t-15.5 -80q0 -49 17.5 -85.5t48 -64t71.5 -48t89 -37.5zM675 826q74 -24 145.5 -50t129 -68t92.5 -105t35 -158q0 -92 -30.5 -173 t-89.5 -142t-144.5 -99.5t-195.5 -45.5l-12 -180q-1 -19 -15.5 -34t-35.5 -15h-68l16 231q-124 12 -226 61.5t-176 126.5l56 84q8 11 20 18.5t27 7.5q19 0 43.5 -19.5t61 -44t86 -48t119.5 -32.5l37 544q-72 22 -141 48.5t-124 70.5t-88 109.5t-33 164.5q0 75 29 146 t85.5 126.5t138.5 91t187 39.5l10 147q1 19 15 34.5t37 15.5h67l-13 -201q106 -13 184.5 -55.5t138.5 -102.5l-44 -68q-20 -31 -47 -30q-14 0 -35 12.5t-50 30t-68.5 34t-89.5 24.5z" />
<glyph unicode="%" horiz-adv-x="1641" d="M739 1113q0 -86 -26.5 -154t-71 -114.5t-103.5 -71t-124 -24.5q-69 0 -128.5 24.5t-103 71t-68 114.5t-24.5 154q0 88 24.5 156.5t68 116t103 72t128.5 24.5q70 0 129 -24.5t103 -72t68.5 -116t24.5 -156.5zM598 1113q0 68 -14.5 115t-39.5 77t-58.5 43.5t-71.5 13.5 t-71 -13.5t-57.5 -43.5t-39 -77t-14.5 -115q0 -67 14.5 -113.5t39 -75.5t57.5 -42t71 -13t71.5 13t58.5 42t39.5 75.5t14.5 113.5zM1258 1437q10 12 24 21t38 9h132l-1073 -1437q-9 -13 -23.5 -21.5t-34.5 -8.5h-135zM1551 346q0 -86 -26.5 -153.5t-71 -114t-103.5 -71 t-124 -24.5q-70 0 -129 24.5t-102.5 71t-68 114t-24.5 153.5q0 88 24.5 157t68 116.5t102.5 72t129 24.5q69 0 128.5 -24.5t103 -72t68.5 -116.5t25 -157zM1410 346q0 68 -14.5 115.5t-39.5 77t-58.5 43t-71.5 13.5t-71.5 -13.5t-58 -43t-38.5 -77t-14 -115.5q0 -67 14 -113 t38.5 -75t58 -42t71.5 -13t71.5 13t58.5 42t39.5 75t14.5 113z" />
<glyph unicode="&#x26;" horiz-adv-x="1458" d="M495 723q-109 -57 -164 -139t-55 -178q0 -67 25 -117.5t65 -85.5t91 -53t104 -18q115 0 206.5 42t160.5 113zM1441 0h-177q-30 0 -48.5 7t-39.5 30l-149 149q-96 -93 -221.5 -147.5t-276.5 -54.5q-82 0 -160 27.5t-140.5 80t-100.5 128.5t-38 171q0 72 24 136t67 118 t101.5 97t128.5 74q-62 80 -92 154t-30 154q0 75 27 140.5t78 114t124.5 77t164.5 28.5q81 0 147.5 -26t114.5 -69t76.5 -100t32.5 -119l-114 -22q-34 -8 -50 32q-7 27 -23 55.5t-41 52t-60.5 38.5t-82.5 15q-51 0 -92.5 -16t-71 -45.5t-44.5 -69t-15 -85.5q0 -36 8 -68.5 t26 -66.5t45.5 -68.5t66.5 -73.5l422 -429q39 70 62.5 145t30.5 150q2 19 12.5 30.5t28.5 11.5h112q-1 -118 -37 -231t-103 -213z" />
<glyph unicode="'" horiz-adv-x="417" d="M289 1467v-297l-17 -158q-5 -33 -18.5 -51t-44.5 -18q-28 0 -42.5 18t-20.5 51l-16 158v297h159z" />
<glyph unicode="(" horiz-adv-x="546" d="M251 644q0 -219 55.5 -426t163.5 -393q16 -32 8 -49t-23 -27l-81 -49q-77 118 -131 233.5t-87 232.5t-48.5 235t-15.5 243q0 124 15.5 243t48.5 235t87 231.5t131 234.5l81 -50q15 -10 23 -27t-8 -48q-108 -186 -163.5 -393t-55.5 -426z" />
<glyph unicode=")" horiz-adv-x="546" d="M296 644q0 219 -56 426t-163 393q-8 15 -10 27t1 21t9.5 15.5t14.5 11.5l81 50q77 -119 130.5 -234.5t87 -231.5t49 -235t15.5 -243q0 -125 -15.5 -243t-49 -235t-87 -232.5t-130.5 -233.5l-81 49q-8 5 -14.5 12t-9.5 15.5t-1 21t10 27.5q108 186 163.5 393t55.5 426z " />
<glyph unicode="*" horiz-adv-x="870" d="M744 1084l-45 -76l-177 102q-18 11 -32.5 22.5t-25.5 28.5q16 -34 16 -75v-202h-90v201q0 20 2.5 38t10.5 34q-11 -14 -24 -25.5t-31 -21.5l-176 -101l-45 76l176 103q39 24 78 24q-20 2 -39 8t-39 18l-177 103l45 77l177 -102q18 -11 32.5 -23.5t26.5 -29.5 q-16 36 -17 76v203h90v-202q0 -20 -2.5 -38t-10.5 -34q11 14 24.5 25.5t30.5 22.5l176 101l45 -77l-176 -102q-17 -11 -34.5 -17.5t-36.5 -8.5q19 -2 36.5 -7.5t34.5 -16.5z" />
<glyph unicode="+" horiz-adv-x="1187" d="M1085 618h-417v-440h-149v440h-416v139h416v437h149v-437h417v-139z" />
<glyph unicode="," horiz-adv-x="464" d="M133 -248q-8 7 -11 13.5t-3 15.5q0 7 4.5 14t10.5 14q10 11 26 29.5t32.5 43.5t30.5 55t20 64q-3 -1 -7 -1h-7q-53 0 -86 35.5t-33 90.5q0 48 33 82t88 34q31 0 54.5 -11.5t39.5 -31.5t24 -46t8 -57q0 -46 -12.5 -95.5t-37.5 -98t-61 -95t-82 -85.5z" />
<glyph unicode="-" horiz-adv-x="760" d="M128 691h506v-154h-506v154z" />
<glyph unicode="&#xad;" horiz-adv-x="760" d="M128 691h506v-154h-506v154z" />
<glyph unicode="." horiz-adv-x="483" d="M114 113q0 27 9.5 50t26.5 40.5t40.5 28t50.5 10.5t50 -10.5t40.5 -28t28 -41t10.5 -49.5q0 -28 -10.5 -51t-28 -40.5t-41 -27t-49.5 -9.5q-27 0 -50.5 9.5t-40.5 27t-26.5 40.5t-9.5 51z" />
<glyph unicode="/" horiz-adv-x="925" d="M245 -22q-13 -36 -41.5 -53t-58.5 -17h-76l615 1533q12 33 37 50t58 17h78z" />
<glyph unicode="0" horiz-adv-x="1187" d="M1126 733q0 -193 -41.5 -333.5t-113 -232.5t-169 -137t-209.5 -45q-113 0 -209.5 45t-168.5 137t-113 233t-41 333q0 193 41 334t113 234t168.5 138t209.5 45q112 0 209.5 -45t169 -138t113 -234t41.5 -334zM937 733q0 168 -28 282t-76 184t-110.5 100t-129.5 30 q-68 0 -130.5 -30t-109.5 -100t-75 -184t-28 -282t28 -281.5t75 -183t109.5 -100t130.5 -30.5t130 30.5t110 100t76 183t28 281.5z" />
<glyph unicode="1" horiz-adv-x="1187" d="M1042 139v-139h-786v139h314v1001q0 45 3 91l-261 -224q-13 -11 -26.5 -14t-24.5 -1t-21 8.5t-15 13.5l-57 79l437 377h149v-1331h288z" />
<glyph unicode="2" horiz-adv-x="1187" d="M1011 173q30 0 47 -17.5t17 -44.5v-111h-979v62q0 19 8.5 40t25.5 38l470 472q58 59 106.5 114t82 110.5t52 112.5t18.5 121q0 65 -20.5 113.5t-55.5 80t-83.5 47.5t-103.5 16q-56 0 -103.5 -16.5t-83.5 -45.5t-60.5 -69t-35.5 -88q-12 -36 -33 -47.5t-59 -6.5l-95 16 q14 100 55.5 177.5t104.5 130t144 79.5t175 27q93 0 174 -28t140.5 -80.5t93.5 -128.5t34 -172q0 -82 -25 -152t-67 -133.5t-96.5 -124t-116.5 -121.5l-387 -396q41 11 83 18t81 7h492z" />
<glyph unicode="3" horiz-adv-x="1187" d="M133 1070q14 100 55 177.5t104 130t144.5 79.5t175.5 27q93 0 172 -26.5t136 -76t88.5 -119t31.5 -154.5q0 -70 -17.5 -124.5t-51 -95.5t-80.5 -69.5t-106 -47.5q143 -37 215.5 -126.5t72.5 -223.5q0 -101 -38.5 -182t-105 -138t-155 -87t-189.5 -30q-117 0 -200 29 t-140.5 80t-94 121.5t-62.5 152.5l79 32q31 13 60 7t42 -33q13 -29 33.5 -69t55 -77t88.5 -62.5t137 -25.5q77 0 134.5 25t96 65t58 89.5t19.5 97.5q0 59 -15.5 108t-57.5 85t-115 56.5t-188 20.5v132q94 1 160 20.5t107.5 53.5t60.5 81t19 104q0 63 -20 110.5t-54.5 78 t-82.5 46t-103 15.5t-102.5 -16.5t-84 -45.5t-61 -69t-35.5 -88q-13 -36 -33 -47.5t-58 -6.5z" />
<glyph unicode="4" horiz-adv-x="1187" d="M748 529v606q0 27 2 58.5t6 63.5l-535 -728h527zM1129 529v-104q0 -16 -9.5 -27.5t-29.5 -11.5h-183v-386h-159v386h-652q-20 0 -35 12t-19 29l-18 93l713 947h170v-938h222z" />
<glyph unicode="5" horiz-adv-x="1187" d="M371 913q115 25 211 25q115 0 202.5 -34t146.5 -93t89.5 -140t30.5 -176q0 -117 -40.5 -211.5t-112 -161.5t-167.5 -102.5t-208 -35.5q-65 0 -124 12.5t-110.5 34t-96 49.5t-77.5 58l56 78q18 27 48 27q20 0 46 -16t63 -35.5t86.5 -35.5t117.5 -16q77 0 138.5 24.5 t105.5 70.5t67.5 109.5t23.5 141.5q0 69 -20 124.5t-60.5 94t-100.5 60t-141 21.5q-55 0 -115 -9t-123 -29l-114 33l117 686h696v-79q0 -39 -24.5 -64.5t-82.5 -25.5h-461z" />
<glyph unicode="6" horiz-adv-x="1187" d="M592 135q74 0 133.5 23.5t102 65.5t65.5 99.5t23 125.5q0 72 -22.5 129.5t-64 98t-98.5 62t-126 21.5q-74 0 -133 -25t-100.5 -67.5t-63.5 -98.5t-22 -116q0 -71 20.5 -129.5t60 -100.5t96 -65t129.5 -23zM485 918q-19 -25 -37 -48t-34 -46q52 36 114.5 55.5t136.5 19.5 q89 0 167.5 -29t137.5 -85t94 -137.5t35 -185.5q0 -101 -37 -188.5t-103 -152t-158.5 -101t-204.5 -36.5q-111 0 -201 35t-153 100t-97 158t-34 207q0 96 42.5 205.5t135.5 233.5l373 500q14 18 39 31t58 13h162z" />
<glyph unicode="7" horiz-adv-x="1187" d="M1107 1467v-82q0 -35 -7.5 -57t-15.5 -38l-608 -1225q-13 -27 -36.5 -46t-62.5 -19h-131l616 1210q13 26 27.5 47.5t31.5 40.5h-766q-17 0 -30.5 14t-13.5 31v124h996z" />
<glyph unicode="8" horiz-adv-x="1187" d="M594 129q72 0 128.5 20t96 56.5t60.5 87t21 111.5q0 76 -25 130t-67.5 87.5t-98 49.5t-115.5 16t-115.5 -16t-98 -49.5t-67.5 -87.5t-25 -130q0 -61 21 -111.5t60.5 -87t96 -56.5t128.5 -20zM594 1342q-66 0 -115.5 -19t-83 -53t-50 -79t-16.5 -96q0 -50 14 -97.5 t46 -83.5t82.5 -58t122.5 -22t122.5 22t82 58t46 83t14.5 98t-17 96t-50 79t-82.5 53t-115.5 19zM804 765q137 -39 211 -130t74 -234q0 -96 -36.5 -173t-101.5 -131.5t-156.5 -83.5t-200.5 -29q-110 0 -201 29t-156.5 83.5t-101.5 131.5t-36 173q0 142 74 233.5t211 130.5 q-116 43 -174.5 128.5t-58.5 204.5q0 81 31.5 151.5t90 122.5t140 82t181.5 30q99 0 181 -30t140.5 -82t90 -122.5t31.5 -151.5q0 -119 -58.5 -204.5t-174.5 -128.5z" />
<glyph unicode="9" horiz-adv-x="1187" d="M290 1036q0 -70 20 -124.5t57 -92.5t91 -57.5t121 -19.5q74 0 130.5 24.5t95.5 64t59.5 92t20.5 108.5q0 69 -22 124.5t-61 94.5t-93 60t-118 21q-68 0 -123 -22t-95 -61t-61.5 -93t-21.5 -119zM716 585q23 30 42 56.5t37 52.5q-56 -45 -127 -68.5t-150 -23.5 q-83 0 -157 27.5t-130.5 81.5t-89.5 132.5t-33 179.5q0 96 35.5 180t100 146.5t153.5 98.5t196 36q105 0 191 -35t147.5 -97.5t95 -149.5t33.5 -192q0 -63 -12 -120t-34 -112t-53.5 -109t-71.5 -110l-358 -516q-13 -19 -37.5 -31t-56.5 -12h-168z" />
<glyph unicode=":" horiz-adv-x="512" d="M128 113q0 27 9.5 50t26.5 40.5t40.5 28t50.5 10.5t50 -10.5t40.5 -28t28 -41t10.5 -49.5q0 -28 -10.5 -51t-28 -40.5t-41 -27t-49.5 -9.5q-27 0 -50.5 9.5t-40.5 27t-26.5 40.5t-9.5 51zM128 881q0 27 9.5 50t26.5 40.5t40.5 28t50.5 10.5t50 -10.5t40.5 -28t28 -41 t10.5 -49.5q0 -28 -10.5 -51t-28 -40.5t-41 -27t-49.5 -9.5q-27 0 -50.5 9.5t-40.5 27t-26.5 40.5t-9.5 51z" />
<glyph unicode=";" horiz-adv-x="535" d="M168 -248q-8 7 -11 13.5t-3 15.5q0 7 4.5 14t10.5 14q10 11 26 29.5t32.5 43.5t30.5 55t20 64q-3 -1 -7 -1h-7q-53 0 -86 35.5t-33 90.5q0 48 33 82t88 34q31 0 54.5 -11.5t39.5 -31.5t24 -46t8 -57q0 -46 -12.5 -95.5t-37.5 -98t-61 -95t-82 -85.5zM140 881q0 27 9.5 50 t26.5 40.5t40.5 28t50.5 10.5t50 -10.5t40.5 -28t28 -41t10.5 -49.5q0 -28 -10.5 -51t-28 -40.5t-41 -27t-49.5 -9.5q-27 0 -50.5 9.5t-40.5 27t-26.5 40.5t-9.5 51z" />
<glyph unicode="&#x3c;" horiz-adv-x="1187" d="M461 721q-20 -10 -43.5 -18.5t-49.5 -13.5q27 -6 49.5 -13.5t43.5 -19.5l460 -232q20 -10 28 -23.5t8 -29.5v-131l-791 411v76l791 411v-130q0 -17 -8 -30t-28 -24z" />
<glyph unicode="=" horiz-adv-x="1187" d="M154 588h880v-138h-880v138zM154 931h880v-138h-880v138z" />
<glyph unicode="&#x3e;" horiz-adv-x="1187" d="M1022 727v-76l-792 -411v131q0 16 8.5 29.5t28.5 23.5l460 232q20 11 43.5 19t48.5 14q-52 11 -92 32l-460 233q-20 10 -28.5 23t-8.5 31v130z" />
<glyph unicode="?" horiz-adv-x="916" d="M83 1336q32 30 70 56.5t84 47t98.5 32.5t114.5 12q81 0 150 -23.5t119 -66.5t78.5 -104.5t28.5 -138.5q0 -78 -23 -134t-58 -98.5t-76.5 -74t-78.5 -59t-63 -55.5t-30 -61l-19 -157h-125l-12 170q-4 46 17.5 80.5t56.5 64.5t77 59t78 65t60.5 81.5t24.5 109.5 q0 44 -17 79.5t-47 61t-70.5 38.5t-86.5 13q-62 0 -106.5 -15t-75.5 -33.5t-50 -34t-31 -15.5q-26 0 -40 24zM283 113q0 27 9.5 50t26.5 40.5t40.5 28t50.5 10.5t50 -10.5t40.5 -28t28 -41t10.5 -49.5q0 -28 -10.5 -51t-28 -40.5t-41 -27t-49.5 -9.5q-27 0 -50.5 9.5 t-40.5 27t-26.5 40.5t-9.5 51z" />
<glyph unicode="@" horiz-adv-x="1713" d="M1080 842q-40 9 -88 9q-77 0 -141 -32.5t-110 -84.5t-72 -119.5t-26 -138.5q0 -74 34 -118.5t100 -44.5q32 0 64 10.5t62.5 36t56 69.5t42.5 111zM1144 556q-20 -78 -19.5 -126.5t15.5 -76t41.5 -37.5t58.5 -10q50 0 95 29t79.5 81t54.5 125t20 162q0 141 -45 248 t-124.5 178t-187.5 106.5t-233 35.5q-137 0 -257 -52.5t-209 -144.5t-140.5 -218t-51.5 -274q0 -174 54.5 -306t149.5 -221t223 -134t274 -45q156 0 275 34t206 86q20 12 36 7.5t23 -22.5l26 -68q-111 -74 -250.5 -116t-315.5 -42q-178 0 -330.5 56.5t-265 162.5 t-176.5 259.5t-64 348.5q0 112 28.5 215t79.5 192.5t123 164t160 127t189.5 82t212.5 29.5q94 0 184.5 -20.5t170.5 -60.5t147 -99t116.5 -135.5t76.5 -170t27 -203.5q0 -111 -31 -204t-86 -162t-130 -108t-161 -39q-78 0 -128.5 38.5t-64.5 117.5q-58 -82 -128 -117.5 t-151 -35.5q-60 0 -105.5 20.5t-75.5 58t-44.5 89t-14.5 110.5q0 87 33 175.5t98.5 160t163 116.5t225.5 45q69 0 121 -11t98 -31z" />
<glyph unicode="A" horiz-adv-x="1386" d="M967 545l-231 597q-10 27 -21.5 62t-21.5 75q-22 -83 -44 -138l-230 -596h548zM1380 0h-153q-27 0 -43.5 13.5t-24.5 33.5l-137 354h-658l-138 -354q-6 -18 -23.5 -32.5t-42.5 -14.5h-154l587 1467h201z" />
<glyph unicode="B" horiz-adv-x="1324" d="M702 158q85 0 146.5 19.5t101 54.5t58 84t18.5 107q0 114 -81 180t-243 66h-317v-511h317zM385 1311v-501h262q84 0 146 18.5t102.5 51t60 79.5t19.5 102q0 130 -78 190t-242 60h-270zM655 1467q135 0 233 -26.5t161 -75.5t92.5 -120t29.5 -161q0 -54 -16.5 -103.5 t-50.5 -92.5t-85.5 -77.5t-121.5 -55.5q162 -31 243.5 -115.5t81.5 -221.5q0 -93 -34.5 -170t-100.5 -132.5t-162.5 -85.5t-218.5 -30h-519v1467h468z" />
<glyph unicode="C" horiz-adv-x="1368" d="M1218 303q16 0 28 -13l79 -85q-90 -104 -218.5 -162.5t-310.5 -58.5q-158 0 -287 54.5t-220 153.5t-141.5 237t-50.5 304t52.5 304.5t147 237.5t226.5 154t292 55q157 0 276.5 -50.5t211.5 -136.5l-66 -91q-6 -10 -16 -16.5t-26 -6.5q-18 0 -45 20t-70 44.5t-107.5 44.5 t-158.5 20q-114 0 -208 -39.5t-162 -114.5t-106 -182.5t-38 -242.5q0 -137 39.5 -244.5t107.5 -182t160.5 -113t200.5 -38.5q66 0 118.5 7.5t97 24t83 41.5t76.5 60q18 15 35 15z" />
<glyph unicode="D" horiz-adv-x="1557" d="M1459 733q0 -165 -52 -300t-147.5 -231.5t-229 -149t-295.5 -52.5h-548v1467h548q162 0 295.5 -52.5t229 -149.5t147.5 -232t52 -300zM1255 733q0 135 -36.5 241.5t-104 180.5t-164 113t-215.5 39h-349v-1146h349q119 0 215.5 39t164 112t104 179.5t36.5 241.5z" />
<glyph unicode="E" horiz-adv-x="1182" d="M1093 162l-1 -162h-905v1467h905v-161h-706v-488h571v-155h-571v-501h707z" />
<glyph unicode="F" horiz-adv-x="1158" d="M386 1306v-513h603v-162h-603v-631h-199v1467h905v-161h-706z" />
<glyph unicode="G" horiz-adv-x="1496" d="M1379 706v-564q-111 -80 -236 -119t-275 -39q-177 0 -319 54.5t-243 153.5t-155.5 237t-54.5 304q0 168 53 306.5t150 237t236.5 153t311.5 54.5q87 0 161.5 -13t138 -37t118 -58.5t101.5 -77.5l-56 -90q-13 -20 -34.5 -25.5t-46.5 9.5q-25 14 -56.5 34.5t-77 39.5 t-107.5 32.5t-147 13.5q-124 0 -224.5 -40.5t-171 -116t-108.5 -182.5t-38 -240q0 -138 39.5 -247t112.5 -185.5t177.5 -116.5t234.5 -40q102 0 181.5 23t155.5 64v323h-228q-19 0 -31 11.5t-12 27.5v113h450z" />
<glyph unicode="H" horiz-adv-x="1563" d="M1376 1467v-1467h-198v668h-792v-668h-199v1467h199v-654h792v654h198z" />
<glyph unicode="I" horiz-adv-x="573" d="M386 0h-199v1467h199v-1467z" />
<glyph unicode="J" horiz-adv-x="865" d="M693 507q0 -123 -30 -220.5t-89 -164.5t-145 -102.5t-198 -35.5q-101 0 -206 28q2 30 5 59t5 58q2 17 12.5 28t33.5 11q18 0 48.5 -9t81.5 -9q68 0 121 20t89 63t55 110.5t19 159.5v964h198v-960z" />
<glyph unicode="K" horiz-adv-x="1356" d="M385 824h75q39 0 62.5 10t42.5 33l489 553q20 27 42.5 37t55.5 10h168l-559 -631q-20 -25 -39.5 -41t-40.5 -26q28 -9 50.5 -27t43.5 -47l584 -695h-172q-19 0 -33 2.5t-24.5 8t-18 13.5t-14.5 18l-506 583q-20 26 -44 36.5t-72 10.5h-90v-672h-198v1467h198v-643z" />
<glyph unicode="L" horiz-adv-x="1051" d="M1020 167v-167h-833v1467h198v-1300h635z" />
<glyph unicode="M" horiz-adv-x="1901" d="M1714 1467v-1467h-174v1078q0 22 1.5 46.5t3.5 50.5l-504 -918q-24 -46 -71 -46h-29q-48 0 -72 46l-514 922q6 -54 6 -101v-1078h-174v1467h147q27 0 41 -5t27 -28l507 -904q12 -25 24 -51t22 -54q10 28 21.5 55t24.5 51l498 903q12 24 27 28.5t42 4.5h146z" />
<glyph unicode="N" horiz-adv-x="1563" d="M1376 1467v-1467h-99q-24 0 -39.5 8t-31.5 28l-849 1106q2 -26 3 -50.5t1 -45.5v-1046h-174v1467h103q13 0 22.5 -1.5t16.5 -5t14 -10t15 -16.5l849 -1105q-2 27 -3.5 52t-1.5 47v1039h174z" />
<glyph unicode="O" horiz-adv-x="1639" d="M1543 733q0 -165 -52 -302.5t-147.5 -237t-229 -154t-295.5 -54.5t-295 54.5t-228 154t-147.5 237t-52.5 302.5t52.5 303t147.5 237.5t228 155t295 55.5t295.5 -55.5t229 -155t147.5 -237.5t52 -303zM1339 733q0 135 -36.5 242.5t-104.5 182t-164 114.5t-215 40 q-118 0 -214 -40t-164 -114.5t-105 -182t-37 -242.5t37 -242t105 -181t164 -113.5t214 -39.5q119 0 215 39.5t164 113.5t104.5 181t36.5 242z" />
<glyph unicode="P" horiz-adv-x="1229" d="M621 707q85 0 150 22.5t109.5 63t67 96.5t22.5 124q0 140 -86.5 219t-262.5 79h-236v-604h236zM621 1467q139 0 242 -32t170.5 -91.5t100.5 -143.5t33 -187q0 -102 -35.5 -187.5t-105 -147t-171 -95.5t-234.5 -34h-236v-549h-198v1467h434z" />
<glyph unicode="Q" horiz-adv-x="1639" d="M300 733q0 -135 37 -242t105 -181t164 -113.5t214 -39.5q119 0 215.5 39.5t164 113.5t104 181t36.5 242t-36.5 242.5t-104 182t-164 114.5t-215.5 40q-118 0 -214 -40t-164 -114.5t-105 -182t-37 -242.5zM1612 -303h-164q-37 0 -65.5 10t-52.5 36l-257 281 q-117 -39 -253 -39q-162 0 -295 54.5t-228 154t-147.5 237t-52.5 302.5t52.5 303t147.5 237.5t228 155t295 55.5t295.5 -55.5t229 -155t147.5 -237.5t52 -303q0 -103 -21 -196.5t-61 -173.5t-97 -145.5t-129 -114.5z" />
<glyph unicode="R" horiz-adv-x="1283" d="M594 757q86 0 152 21t110.5 59.5t67 91.5t22.5 118q0 131 -86 197.5t-258 66.5h-217v-554h209zM1272 0h-176q-54 0 -80 42l-381 524q-17 25 -37 35.5t-62 10.5h-151v-612h-198v1467h415q139 0 240.5 -28t167.5 -81t98 -128.5t32 -168.5q0 -78 -24.5 -145.5t-71.5 -121.5 t-114 -91.5t-152 -57.5q38 -22 66 -62z" />
<glyph unicode="S" horiz-adv-x="1111" d="M938 1238q-9 -15 -20 -23t-26 -8q-17 0 -41 17.5t-59 38.5t-85 38.5t-120 17.5q-67 0 -117.5 -18t-85 -48.5t-52 -72t-17.5 -89.5q0 -61 30.5 -102t80 -69.5t112.5 -49.5t129 -43.5t129 -50.5t112.5 -71t80 -105.5t30.5 -154.5q0 -96 -33 -180.5t-96 -147t-154.5 -98 t-208.5 -35.5q-143 0 -259.5 51.5t-199.5 139.5l57 94q8 11 20 19t26 8q13 0 30 -11t38.5 -27t49 -35.5t63 -36t80.5 -27.5t102 -11q71 0 126 19.5t93.5 55t59 84.5t20.5 110q0 67 -30.5 109t-79.5 71t-112.5 49t-129 41t-129 48.5t-113 71.5t-79.5 110t-30 163q0 78 30 151 t88 129t142.5 90t194.5 34q123 0 223.5 -39t177.5 -113z" />
<glyph unicode="T" horiz-adv-x="1209" d="M1180 1300h-475v-1300h-198v1300h-476v167h1149v-167z" />
<glyph unicode="U" horiz-adv-x="1506" d="M754 158q91 0 162.5 30.5t121 86t76 132t26.5 168.5v892h197v-892q0 -127 -40.5 -235.5t-115.5 -187.5t-183.5 -124t-243.5 -45t-244 45t-184.5 124t-116 188t-40.5 235v892h198v-890q0 -92 26 -169t75.5 -132.5t122 -86.5t163.5 -31z" />
<glyph unicode="V" horiz-adv-x="1386" d="M1380 1467l-598 -1467h-178l-598 1467h159q27 0 43 -13t24 -34l414 -1035q13 -35 26 -76t23 -86q10 45 21.5 86t24.5 76l413 1035q6 17 24 32t44 15h158z" />
<glyph unicode="W" horiz-adv-x="2120" d="M2089 1467l-458 -1467h-178l-372 1119q-5 16 -9.5 34.5t-9.5 39.5q-5 -20 -10 -38.5t-11 -35.5l-373 -1119h-179l-457 1467h165q27 0 44.5 -13t22.5 -34l303 -1020q7 -28 14 -59.5t13 -67.5q7 36 14.5 68.5t17.5 58.5l345 1020q6 17 24 32t43 15h58q27 0 43 -13t24 -34 l344 -1020q9 -27 17 -57.5t15 -63.5q5 34 11 64.5t14 56.5l304 1020q5 18 23 32.5t43 14.5h155z" />
<glyph unicode="X" horiz-adv-x="1329" d="M1307 0h-197q-23 0 -35.5 12t-20.5 26l-394 616q-8 -25 -18 -42l-383 -574q-10 -14 -22 -26t-32 -12h-185l505 754l-484 713h198q22 0 32 -7t18 -20l383 -588q7 22 21 47l362 537q8 14 19 22.5t27 8.5h189l-486 -704z" />
<glyph unicode="Y" horiz-adv-x="1277" d="M738 585v-585h-198v585l-538 882h174q27 0 42 -12.5t27 -33.5l336 -570l33.5 -67t26.5 -63q11 32 25.5 63t31.5 67l335 570q9 17 25.5 31.5t42.5 14.5h175z" />
<glyph unicode="Z" horiz-adv-x="1232" d="M1166 1394q0 -34 -20 -66l-831 -1166h839v-162h-1100v78q0 16 6 30.5t14 27.5l832 1170h-813v161h1073v-73z" />
<glyph unicode="[" horiz-adv-x="626" d="M340 1450v-1625h173q23 0 36.5 -14.5t13.5 -34.5v-72h-377v1866h377v-72q0 -20 -13.5 -34t-36.5 -14h-173z" />
<glyph unicode="\" horiz-adv-x="925" d="M69 1508h77q33 0 58 -17t38 -50l615 -1533h-77q-30 0 -58.5 17.5t-40.5 52.5z" />
<glyph unicode="]" horiz-adv-x="626" d="M440 -296h-377v72q0 20 14 34.5t37 14.5h173v1625h-173q-23 0 -37 14t-14 34v72h377v-1866z" />
<glyph unicode="^" horiz-adv-x="1187" d="M1053 713h-133q-17 0 -30 9.5t-21 25.5l-235 453q-27 54 -41 99q-7 -24 -16.5 -48t-20.5 -51l-228 -453q-6 -14 -19.5 -24.5t-34.5 -10.5h-139l397 754h118z" />
<glyph unicode="_" horiz-adv-x="940" d="M873 -169v-123h-806v123h806z" />
<glyph unicode="`" d="M307 1484q34 0 50.5 -11t30.5 -34l153 -248h-105q-22 0 -35 6.5t-27 22.5l-240 264h173z" />
<glyph unicode="a" horiz-adv-x="1017" d="M707 467q-126 -4 -215 -20t-144.5 -41.5t-80.5 -60.5t-25 -78q0 -41 13 -70.5t36 -48.5t54.5 -27.5t67.5 -8.5q48 0 88 9.5t75 28t67.5 44t63.5 58.5v215zM118 891q86 83 185 124t220 41q87 0 154.5 -29t114 -80t70 -123.5t23.5 -159.5v-664h-81q-27 0 -41 8.5t-23 34.5 l-20 98q-41 -38 -80 -67t-82 -49t-91.5 -30.5t-108.5 -10.5t-113.5 16.5t-92.5 50.5t-62 85.5t-23 122.5q0 61 33.5 118t109.5 101t197.5 72.5t299.5 32.5v81q0 121 -52.5 182.5t-152.5 61.5q-68 0 -113.5 -17t-79 -37.5t-57.5 -37.5t-47 -17q-18 0 -31.5 9.5t-22.5 24.5z " />
<glyph unicode="b" horiz-adv-x="1146" d="M328 250q50 -68 110 -95.5t131 -27.5q146 0 224 103.5t78 308.5q0 190 -69 279.5t-197 89.5q-89 0 -155 -41t-122 -115v-502zM328 888q66 76 148 121t190 45q91 0 164 -35t124.5 -101t78.5 -160t27 -212q0 -126 -31 -229.5t-88.5 -176.5t-140.5 -113.5t-187 -40.5 q-102 0 -172 38t-123 109l-9 -94q-8 -39 -47 -39h-118v1508h184v-620z" />
<glyph unicode="c" horiz-adv-x="977" d="M866 853q-8 -11 -16 -17.5t-23 -6.5t-33.5 13t-45.5 28.5t-66.5 28t-96.5 12.5q-77 0 -135.5 -27t-98 -78t-59.5 -124t-20 -163q0 -94 21.5 -167t61 -123t95.5 -76t125 -26q67 0 110 16t71 35.5t47 35t38 15.5q23 0 35 -17l51 -67q-34 -42 -77 -71.5t-92.5 -49.5 t-104 -29t-110.5 -9q-97 0 -180.5 35.5t-145 104t-96.5 167.5t-35 226q0 116 32.5 214t94 169.5t152.5 111.5t208 40q110 0 193.5 -35.5t147.5 -99.5z" />
<glyph unicode="d" horiz-adv-x="1146" d="M820 791q-51 69 -110.5 95.5t-132.5 26.5q-144 0 -222.5 -103t-78.5 -295q0 -101 17.5 -173.5t51.5 -119t83 -68t112 -21.5q90 0 157 41t123 116v501zM1002 1508v-1508h-108q-39 0 -49 38l-17 126q-67 -80 -151.5 -129t-196.5 -49q-89 0 -161.5 34t-124 100.5t-79 166 t-27.5 228.5q0 115 31 213.5t88 171.5t140.5 114.5t188.5 41.5q95 0 163 -32.5t121 -89.5v574h182z" />
<glyph unicode="e" horiz-adv-x="1081" d="M839 632q0 63 -18 116t-52.5 91.5t-83.5 59.5t-112 21q-131 0 -207 -76.5t-95 -211.5h568zM986 145q-34 -41 -81 -71t-100.5 -49.5t-111 -29t-113.5 -9.5q-108 0 -198.5 36t-156.5 106.5t-103 174t-37 237.5q0 109 33.5 203t95.5 163t152.5 108.5t202.5 39.5 q93 0 172.5 -31.5t137.5 -90.5t90.5 -145.5t32.5 -196.5q0 -43 -9 -57.5t-35 -14.5h-693q3 -98 27 -171t67 -121.5t102.5 -72.5t133.5 -24q69 0 118.5 16t85.5 34.5t60 34t41 15.5q23 0 35 -17z" />
<glyph unicode="f" horiz-adv-x="717" d="M212 0v882l-115 13q-22 5 -35.5 16t-13.5 31v75h164v100q0 89 25 158.5t71.5 117t112 72t147.5 24.5q70 0 128 -21l-4 -91q-2 -25 -27 -26.5t-67 -1.5q-47 0 -85.5 -12.5t-66 -40t-42.5 -72.5t-15 -112v-95h299v-132h-293v-885h-183z" />
<glyph unicode="g" horiz-adv-x="1064" d="M506 507q55 0 97 15.5t70.5 43t43 66t14.5 84.5q0 95 -58 151.5t-167 56.5q-111 0 -168.5 -56.5t-57.5 -151.5q0 -46 14.5 -84.5t43.5 -66t71 -43t97 -15.5zM835 -56q0 38 -21.5 61.5t-58 36.5t-84.5 19t-102 9t-109.5 6t-106.5 10q-57 -27 -93.5 -67.5t-36.5 -94.5 q0 -35 18 -65t55 -52t92.5 -35t131.5 -13q74 0 132.5 13.5t99 38t62 58.5t21.5 75zM1020 996v-67q0 -34 -43 -43l-118 -16q35 -68 35 -149q0 -76 -29 -138t-80.5 -106t-123 -67.5t-155.5 -23.5q-73 0 -137 17q-33 -20 -50.5 -43t-17.5 -47q0 -37 30 -55.5t79.5 -27 t112.5 -10.5t129 -6.5t129 -16t112 -37t79 -70.5t30 -117q0 -67 -33 -129t-95.5 -110.5t-153 -78t-204.5 -29.5t-199 22.5t-141 60.5t-84.5 87.5t-28.5 104.5q0 77 48.5 130t132.5 85q-46 20 -73.5 54.5t-27.5 92.5q0 23 8.5 47t25.5 48t41.5 45.5t56.5 37.5 q-77 43 -119.5 114.5t-42.5 165.5q0 76 29 138t81 105.5t124.5 67t158.5 23.5q68 0 126 -15t106 -44h282z" />
<glyph unicode="h" horiz-adv-x="1142" d="M328 899q67 71 147.5 113t186.5 42q85 0 150 -28.5t108.5 -80t66 -124t22.5 -161.5v-660h-184v660q0 118 -53.5 183t-163.5 65q-81 0 -151 -39t-129 -105v-764h-184v1508h184v-609z" />
<glyph unicode="i" horiz-adv-x="491" d="M337 1037v-1037h-182v1037h182zM376 1363q0 -27 -11 -50t-29 -41t-42 -28t-50 -10q-27 0 -50 10t-40.5 28t-27.5 41t-10 50t10 51t27.5 42t40.5 28t50 10t50.5 -10t41.5 -28t29 -42t11 -51z" />
<glyph unicode="j" horiz-adv-x="491" d="M337 1037v-1114q0 -62 -16.5 -116t-52.5 -94t-91.5 -63t-133.5 -23q-33 0 -60.5 5.5t-55.5 15.5l7 98q2 9 7 13.5t13 6t21 1t32 -0.5q80 0 114 37t34 120v1114h182zM375 1363q0 -27 -11 -50t-29 -41t-41.5 -28t-49.5 -10q-27 0 -50 10t-40.5 28t-27.5 41t-10 50t10 51 t27.5 42t40.5 28t50 10t50 -10t41 -28t29 -42t11 -51z" />
<glyph unicode="k" horiz-adv-x="1040" d="M328 1508v-887h47q20 0 34 5.5t29 22.5l328 351q14 17 30 27t43 10h165l-382 -406q-28 -35 -60 -54q18 -12 33 -28.5t29 -36.5l405 -512h-163q-24 0 -40.5 7.5t-28.5 28.5l-341 425q-15 22 -30 28.5t-46 6.5h-52v-496h-184v1508h184z" />
<glyph unicode="l" horiz-adv-x="483" d="M333 1508v-1508h-182v1508h182z" />
<glyph unicode="m" horiz-adv-x="1684" d="M144 0v1037h110q39 0 48 -38l13 -106q57 71 129 116t166 45q104 0 169.5 -58.5t93.5 -157.5q23 56 58.5 97t79.5 67.5t93.5 39t100.5 12.5q82 0 146 -26.5t108.5 -76.5t68 -123t23.5 -168v-660h-183v660q0 122 -53 185t-154 63q-45 0 -85.5 -15.5t-71 -46.5t-48.5 -77.5 t-18 -108.5v-660h-183v660q0 125 -50.5 186.5t-146.5 61.5q-68 0 -125 -36t-105 -99v-773h-184z" />
<glyph unicode="n" horiz-adv-x="1142" d="M316 887q34 38 72 68.5t80.5 52.5t90 34t103.5 12q85 0 150 -28.5t108.5 -80t66 -124t22.5 -161.5v-660h-184v660q0 118 -53.5 183t-163.5 65q-81 0 -151 -39t-129 -105v-764h-184v1037h110q39 0 48 -38z" />
<glyph unicode="o" horiz-adv-x="1161" d="M582 1054q114 0 205 -38t155.5 -107.5t98.5 -168.5t34 -221q0 -123 -34 -221t-98.5 -168t-156 -107t-204.5 -37q-115 0 -206.5 37t-156 107t-99 168t-34.5 221q0 122 34.5 221t99 168.5t156 107.5t206.5 38zM582 128q154 0 229.5 103t75.5 287q0 185 -76 288.5 t-229 103.5q-78 0 -136 -26.5t-96.5 -76.5t-57.5 -123.5t-19 -165.5q0 -184 76.5 -287t232.5 -103z" />
<glyph unicode="p" horiz-adv-x="1147" d="M328 250q50 -68 109.5 -95.5t132.5 -27.5q145 0 223 103.5t78 294.5q0 101 -17.5 174t-51.5 119.5t-83 68t-112 21.5q-89 0 -156 -41t-123 -115v-502zM318 877q66 81 152 130t197 49q90 0 162.5 -34.5t124 -101.5t79 -166.5t27.5 -228.5q0 -115 -31 -213.5t-88.5 -170.5 t-141 -113.5t-188.5 -41.5q-95 0 -163 32t-120 90v-459h-184v1388h110q39 0 48 -38z" />
<glyph unicode="q" horiz-adv-x="1146" d="M820 792q-49 66 -109.5 93.5t-133.5 27.5q-144 0 -222.5 -103t-78.5 -295q0 -101 17.5 -173.5t51.5 -119t83 -68t112 -21.5q90 0 157 41t123 116v502zM1002 1037v-1388h-182v506q-65 -76 -148.5 -122.5t-191.5 -46.5q-89 0 -161.5 34t-124 100.5t-79 166t-27.5 228.5 q0 115 31 213.5t88 171.5t140.5 114.5t188.5 41.5q101 0 171.5 -36t125.5 -100l12 79q10 38 49 38h108z" />
<glyph unicode="r" horiz-adv-x="745" d="M317 829q49 106 121 166.5t175 60.5q33 0 63.5 -7.5t53.5 -22.5l-13 -136q-6 -26 -31 -26q-14 0 -42 6.5t-62 6.5q-49 0 -87.5 -14.5t-69 -42.5t-54.5 -69.5t-43 -95.5v-655h-184v1037h105q30 0 41 -11t15 -39z" />
<glyph unicode="s" horiz-adv-x="886" d="M749 866q-12 -23 -38 -22q-15 0 -35 11t-48 25t-67 26t-92 12q-46 0 -83 -12t-63 -32.5t-40 -47.5t-14 -59q0 -40 23 -66.5t61 -46t86 -34.5t99 -32t99 -37.5t86 -51t61 -75t23 -107.5q0 -72 -25.5 -132.5t-76 -105t-123 -70t-167.5 -25.5q-109 0 -197 35t-149 91l43 69 q8 13 19 20.5t29 7.5t38.5 -14.5t50 -32t71 -31.5t104.5 -14q53 0 93 13.5t66.5 37t39.5 54.5t13 66q0 43 -23 71t-61 48t-86.5 35t-99.5 31t-99.5 37t-86.5 53t-61 78.5t-23 113.5q0 59 24.5 114t72 96.5t116 66t156.5 24.5q102 0 183.5 -32.5t141.5 -88.5z" />
<glyph unicode="t" horiz-adv-x="734" d="M463 -16q-123 0 -189 68.5t-66 197.5v635h-125q-16 0 -27.5 9.5t-11.5 30.5v72l170 22l42 320q3 15 14 25t28 10h92v-357h300v-132h-300v-623q0 -66 32 -97.5t82 -31.5q29 0 49.5 7.5t36 17t26.5 17t19 7.5q14 0 25 -17l54 -87q-47 -44 -113.5 -69t-137.5 -25z" />
<glyph unicode="u" horiz-adv-x="1141" d="M997 1037v-1037h-108q-39 0 -49 38l-15 112q-68 -75 -151.5 -120.5t-192.5 -45.5q-85 0 -150 28t-109 79t-66 124t-22 161v661h182v-661q0 -118 54 -182.5t165 -64.5q81 0 151 38.5t129 105.5v764h182z" />
<glyph unicode="v" horiz-adv-x="1056" d="M1033 1037l-423 -1037h-164l-422 1037h148q23 0 37 -11t19 -27l264 -667q12 -38 21 -74t17 -72q8 36 17.5 72t22.5 74l267 667q6 16 20 27t34 11h142z" />
<glyph unicode="w" horiz-adv-x="1608" d="M1575 1037l-336 -1037h-144q-27 0 -37 35l-230 703q-8 24 -13 48l-10 48l-10 -48t-14 -49l-233 -702q-9 -35 -41 -35h-137l-336 1037h143q22 0 36.5 -11t19.5 -27l199 -667q17 -74 28 -139q9 34 18.5 68.5t21.5 70.5l219 672q5 15 18 25t31 10h80q20 0 33.5 -10t18.5 -25 l214 -672q11 -36 20.5 -71t17.5 -68q5 34 12.5 68t17.5 71l202 667q5 16 19.5 27t34.5 11h137z" />
<glyph unicode="x" horiz-adv-x="1019" d="M996 0h-175q-23 0 -35.5 12t-20.5 26l-261 406q-4 -14 -9 -28t-13 -25l-241 -353q-10 -14 -22 -26t-33 -12h-162l363 532l-349 505h175q23 0 33 -7t18 -20l255 -389q8 30 26 57l223 328q9 14 20 22.5t26 8.5h168l-349 -495z" />
<glyph unicode="y" horiz-adv-x="1055" d="M1039 1037l-578 -1343q-9 -20 -23 -32.5t-43 -12.5h-135l190 411l-428 977h157q24 0 37.5 -11.5t19.5 -26.5l277 -653q16 -43 28 -90q14 48 30 91l270 652q6 16 21 27t33 11h144z" />
<glyph unicode="z" horiz-adv-x="925" d="M860 959q0 -19 -6.5 -37.5t-17.5 -31.5l-563 -748h568v-142h-782v76q0 13 6.5 31t18.5 34l565 753h-558v143h769v-78z" />
<glyph unicode="{" horiz-adv-x="616" d="M487 1450q-80 0 -125 -51.5t-45 -140.5q0 -57 7.5 -110t16.5 -104t16.5 -101t7.5 -101q0 -38 -11.5 -71.5t-32.5 -60t-49 -45.5t-62 -28q34 -9 62 -27.5t49 -45t32.5 -60t11.5 -71.5q0 -51 -7.5 -101t-16.5 -101t-16.5 -104t-7.5 -111q0 -89 45.5 -140t124.5 -51h21 q12 0 26.5 -9.5t14.5 -29.5v-82h-55q-83 0 -146 24t-105.5 67t-63.5 102.5t-21 130.5q0 53 8 103.5t17.5 101.5t17.5 101t8 101q0 65 -36 106.5t-103 41.5v109q68 0 103.5 41t35.5 107q0 51 -8 101t-17.5 100.5t-17.5 101.5t-8 104q0 71 21 130.5t63.5 102.5t105.5 66.5 t146 23.5h55v-81q0 -20 -14.5 -29.5t-26.5 -9.5h-21z" />
<glyph unicode="|" horiz-adv-x="513" d="M185 1570h143v-1927h-143v1927z" />
<glyph unicode="}" horiz-adv-x="616" d="M547 583q-68 0 -103.5 -41.5t-35.5 -106.5q0 -51 8 -101t17 -101t17.5 -101.5t8.5 -103.5q0 -71 -21 -130.5t-63.5 -102.5t-105.5 -67t-146 -24h-55v82q0 20 14.5 29.5t26.5 9.5h20q80 0 125 51t45 140q0 57 -7 110.5t-16.5 104.5t-16.5 101t-7 101q0 38 11 71.5t32 60 t49.5 45t62.5 27.5q-34 9 -62.5 28t-49.5 45.5t-32 60t-11 71.5q0 51 7 101t16.5 101t16.5 104t7 110q0 88 -45 140t-125 52h-20q-11 0 -26 9t-15 30v81h55q83 0 146 -23.5t105.5 -66.5t63.5 -102.5t21 -130.5q0 -53 -8.5 -104t-17.5 -101.5t-17 -100.5t-8 -101 q0 -66 35.5 -107t103.5 -41v-109z" />
<glyph unicode="~" horiz-adv-x="1187" d="M781 628q67 0 104.5 43.5t38.5 114.5h147q0 -69 -19 -126t-54 -98t-87.5 -63.5t-117.5 -22.5q-53 0 -105.5 16.5t-101 36.5t-92.5 37t-81 17q-67 0 -104.5 -43t-38.5 -116h-147q0 69 19 126t54 98t87 64t118 23q53 0 105.5 -17t101 -36.5t92.5 -36.5t81 -17z" />
<glyph unicode="&#xa1;" horiz-adv-x="516" d="M172 -351v554q0 46 2 89.5t5 88t7.5 91.5t11.5 100h123q6 -53 10.5 -100t7.5 -91.5t5 -88t2 -89.5v-554h-174zM128 926q0 28 9.5 50.5t27 40t40.5 27.5t51 10q27 0 50 -10t40.5 -27.5t27.5 -40.5t10 -50t-10 -50.5t-27.5 -41t-40.5 -27.5t-50 -10q-28 0 -51 10 t-40.5 27.5t-27 41t-9.5 50.5z" />
<glyph unicode="&#xa2;" horiz-adv-x="1187" d="M640 911q-78 -6 -137.5 -35t-99 -80t-59.5 -121t-20 -157q0 -165 69 -263.5t193 -122.5zM1053 144q-61 -73 -156 -111t-206 -45l-12 -179q-2 -19 -15.5 -34.5t-35.5 -15.5h-68l17 230q-94 10 -174 50.5t-138 108t-90.5 160.5t-32.5 210q0 114 34 209.5t98.5 166.5 t159 112.5t216.5 45.5l13 182q2 20 15 35t35 15h68l-16 -238q84 -11 151.5 -44t121.5 -83l-47 -64q-8 -11 -15.5 -16.5t-22.5 -5.5q-12 0 -28.5 8.5t-39.5 20.5t-55 24.5t-75 19.5l-54 -780q65 4 108 20t73 34t49.5 31.5t36.5 13.5q11 0 20 -4.5t14 -11.5z" />
<glyph unicode="&#xa3;" horiz-adv-x="1187" d="M49 688q0 27 16.5 45.5t46.5 18.5h137v267q0 96 27.5 180.5t84 147.5t140 99.5t195.5 36.5q80 0 142.5 -20t110.5 -55t83.5 -81t60.5 -99l-74 -47q-27 -13 -50 -11.5t-43 25.5q-19 28 -40.5 51.5t-48 41.5t-61 28t-80.5 10q-65 0 -113 -21.5t-81 -61.5t-49.5 -96 t-16.5 -126v-269h451v-74q0 -18 -15 -33.5t-38 -15.5h-398v-249q0 -77 -29 -133t-80 -102q29 5 58.5 9t58.5 4h694v-78q0 -14 -6 -28t-16.5 -26t-25 -19t-32.5 -7h-987v118q35 10 67 27.5t56.5 43.5t39.5 61.5t15 82.5v296h-200v59z" />
<glyph unicode="&#xa4;" horiz-adv-x="1187" d="M364 688q0 -47 17.5 -88.5t49.5 -72.5t73.5 -49.5t89.5 -18.5t90.5 18.5t74 49.5t49.5 72.5t18 88.5q0 48 -18 90t-49.5 74t-74 50t-90.5 18t-89.5 -18t-73.5 -50t-49.5 -74t-17.5 -90zM959 232l-155 156q-45 -31 -98 -48t-112 -17q-58 0 -110 16.5t-96 46.5l-158 -157 l-91 94l155 155q-31 45 -48.5 98.5t-17.5 111.5t17 110.5t47 96.5l-157 157l93 92l155 -156q45 32 98.5 49.5t112.5 17.5q58 0 110.5 -17t97.5 -47l155 156l92 -93l-155 -155q32 -45 49.5 -98t17.5 -113q0 -58 -17 -110t-47 -97l156 -154z" />
<glyph unicode="&#xa5;" horiz-adv-x="1187" d="M719 640h315v-104h-349v-108h349v-105h-349v-323h-182v323h-349v105h349v108h-349v104h315l-419 827h152q27 0 43.5 -12.5t24.5 -33.5l284 -579q14 -35 24 -64.5t18 -59.5q12 56 39 124l283 579q8 17 24.5 31.5t42.5 14.5h153z" />
<glyph unicode="&#xa6;" horiz-adv-x="519" d="M188 1570h143v-813h-143v813zM188 463h143v-814h-143v814z" />
<glyph unicode="&#xa7;" horiz-adv-x="1013" d="M265 743q0 -52 36 -88.5t92 -65.5t123.5 -56t130.5 -59q56 27 80.5 65.5t24.5 86.5q0 37 -15.5 65.5t-42 52t-62.5 43t-76.5 37.5t-83.5 36t-84 38q-67 -31 -95 -68.5t-28 -86.5zM824 1295q-14 -23 -38 -22q-15 0 -35 11t-48 25t-67 26t-92 12q-49 0 -88 -13t-67 -34.5 t-42 -50t-14 -60.5q0 -39 25 -68t65.5 -53.5t92.5 -46.5t106 -45.5t106 -51.5t92.5 -64.5t65.5 -83.5t25 -109q0 -83 -40 -148t-126 -104q51 -38 82.5 -88.5t31.5 -120.5q0 -72 -25.5 -133t-75 -105.5t-123 -70t-167.5 -25.5q-109 0 -197 35.5t-149 90.5l43 70q8 13 19.5 20 t28.5 7q18 0 38.5 -14t51 -32t73.5 -32.5t107 -14.5q52 0 92.5 13t68.5 36t42 54.5t14 70.5q0 46 -25.5 80t-67.5 60t-95.5 47.5t-109.5 44t-109.5 48.5t-95.5 62t-68 83.5t-26 113.5q0 81 44 144.5t140 99.5q-51 39 -83.5 92.5t-32.5 130.5q0 59 24.5 114t71.5 96 t116.5 65.5t157.5 24.5q101 0 182.5 -32t140.5 -88z" />
<glyph unicode="&#xa8;" d="M330 1320q0 -24 -9.5 -44.5t-25.5 -35.5t-37 -24.5t-45 -9.5q-23 0 -43 9.5t-36 24.5t-25.5 35.5t-9.5 44.5t9.5 45t25.5 37t36 25.5t43 9.5q24 0 45 -9.5t37 -25.5t25.5 -37t9.5 -45zM720 1320q0 -24 -9.5 -44.5t-25 -35.5t-36.5 -24.5t-45 -9.5t-44.5 9.5t-36 24.5 t-25 35.5t-9.5 44.5t9.5 45t25 37t36.5 25.5t44 9.5q24 0 45 -9.5t36.5 -25.5t25 -37t9.5 -45z" />
<glyph unicode="&#xa9;" horiz-adv-x="1702" d="M1113 485q15 1 28 -11l61 -65q-58 -68 -142.5 -105.5t-203.5 -37.5q-100 0 -182.5 35t-141.5 97.5t-91 148.5t-32 188q0 103 34.5 190t97 149t148 96t185.5 34q112 0 189.5 -34t135.5 -92l-47 -66q-5 -6 -13.5 -12.5t-19.5 -6.5q-14 0 -30 11.5t-41.5 25t-65 25.5 t-98.5 12q-73 0 -130.5 -23t-98.5 -66t-62.5 -104.5t-21.5 -138.5q0 -79 22 -141t61 -103.5t93 -64t117 -22.5q53 0 89 8.5t63 20t49 26t48 26.5zM103 733q0 103 27 199t76 179.5t117 151.5t151 117.5t178.5 76t198.5 26.5t199 -26.5t179 -76t151.5 -117.5t117 -151.5 t75 -179t26.5 -199.5q0 -102 -26.5 -198t-75 -179t-117 -151t-151.5 -117t-179 -75.5t-199 -26.5t-198.5 26.5t-178.5 75.5t-151 117t-117 151t-76 178.5t-27 198.5zM207 733q0 -91 22.5 -175t64 -157t100.5 -132.5t130 -102t154 -65.5t173 -23t173.5 23t155.5 65.5t131 102 t101 132.5t65 157t23 175q0 137 -50.5 257.5t-138 210t-206.5 141.5t-254 52q-90 0 -173 -23.5t-154 -66t-130 -103t-100.5 -134t-64 -158.5t-22.5 -176z" />
<glyph unicode="&#xaa;" horiz-adv-x="752" d="M488 1128q-72 -3 -121 -11.5t-79.5 -22.5t-44.5 -32t-14 -39q0 -43 27.5 -60.5t68.5 -17.5q52 0 90 19.5t73 55.5v108zM135 1388q52 50 114.5 73.5t137.5 23.5q55 0 98 -17.5t73 -48t45 -73.5t15 -96v-390h-61q-18 0 -27.5 5.5t-17.5 24.5l-12 50q-25 -22 -49 -38 t-49 -28t-54.5 -17.5t-63.5 -5.5q-39 0 -72 10t-57.5 31t-38.5 52t-14 73q0 35 19.5 69t65 62t119.5 45t182 19v38q0 65 -29 95.5t-87 30.5q-39 0 -65 -9t-45 -20t-34 -19.5t-31 -8.5q-14 0 -23.5 8t-15.5 18z" />
<glyph unicode="&#xab;" horiz-adv-x="878" d="M435 238q14 -24 9.5 -45t-27.5 -32l-60 -29l-255 398v24l255 398l60 -28q24 -11 28.5 -32.5t-10.5 -44.5l-162 -267q-14 -26 -28 -37q14 -13 28 -38zM738 238q14 -24 9.5 -45t-27.5 -32l-60 -29l-255 398v24l255 398l60 -28q24 -11 28.5 -32.5t-10.5 -44.5l-162 -267 q-14 -26 -28 -37q14 -13 28 -38z" />
<glyph unicode="&#xac;" horiz-adv-x="1187" d="M1032 323h-154v295h-726v139h880v-434z" />
<glyph unicode="&#xae;" horiz-adv-x="1702" d="M822 758q114 0 160 41.5t46 119.5q0 38 -9.5 66.5t-31.5 47t-58.5 27.5t-89.5 9h-134v-311h117zM839 1192q177 0 261.5 -64t84.5 -189q0 -96 -54.5 -163.5t-162.5 -92.5q17 -11 30 -26.5t24 -35.5l233 -342h-152q-34 0 -49 25l-207 309q-9 13 -22 20.5t-40 7.5h-80v-362 h-160v913h294zM851 78q90 0 173.5 23t155.5 65.5t131 102t101 132.5t65 157t23 175q0 137 -50.5 257.5t-138 210t-206.5 141.5t-254 52q-90 0 -173 -23.5t-154 -66t-130 -103t-100.5 -134t-64 -158.5t-22.5 -176t22.5 -175t64 -157t100.5 -132.5t130 -102t154 -65.5t173 -23 zM851 1483q103 0 199 -26.5t179 -76t151.5 -117.5t117 -151.5t75 -179t26.5 -199.5q0 -102 -26.5 -198t-75 -179t-117 -151t-151.5 -117t-179 -75.5t-199 -26.5t-198.5 26.5t-178.5 75.5t-151 117t-117 151t-76 178.5t-27 198.5t27 199t76 179.5t117 151.5t151 117.5 t178.5 76t198.5 26.5z" />
<glyph unicode="&#xaf;" d="M116 1380h587v-119h-587v119z" />
<glyph unicode="&#xb0;" horiz-adv-x="848" d="M91 1155q0 69 25.5 129.5t70.5 105t105.5 70t131.5 25.5t131.5 -25.5t106 -70t71.5 -105t26 -129.5q0 -68 -26 -127.5t-71.5 -104t-106 -71t-131.5 -26.5t-131.5 26.5t-105.5 71t-70.5 104t-25.5 127.5zM220 1154q0 -43 15.5 -80.5t43 -65t65 -43.5t80.5 -16t80.5 16 t65 43.5t43 65t15.5 80.5t-15.5 81t-43 66t-65 44t-80.5 16t-80.5 -16t-65 -44t-43 -66t-15.5 -81z" />
<glyph unicode="&#xb1;" horiz-adv-x="1187" d="M103 220h981v-138h-981v138zM1084 846v-139h-416v-377h-150v377h-415v139h415v385h150v-385h416z" />
<glyph unicode="&#xb2;" horiz-adv-x="684" d="M555 1044q20 0 32 -11.5t12 -31.5v-79h-523v44q0 13 5.5 27.5t17.5 26.5l227 225q51 51 86 105t35 110q0 52 -30.5 80t-75.5 28q-48 0 -77 -24.5t-43 -67.5q-10 -18 -23.5 -25.5t-39.5 -3.5l-73 13q15 109 86 163t176 54q53 0 96.5 -15.5t74.5 -43t48 -67t17 -87.5 q0 -41 -13 -76.5t-34.5 -67t-49 -61.5t-58.5 -61l-167 -168q25 6 49 10t45 4h200z" />
<glyph unicode="&#xb3;" horiz-adv-x="684" d="M94 1460q7 54 29.5 94.5t56 67.5t76.5 41t93 14q52 0 94 -15t72.5 -41t47 -61t16.5 -76q0 -131 -121 -177q137 -38 137 -163q0 -56 -21.5 -99t-57 -72t-82 -44t-95.5 -15q-58 0 -101 12.5t-74.5 38t-53.5 62t-37 84.5l56 25q23 9 42.5 4.5t28.5 -21.5l13 -26t23 -31.5 t38 -26.5t58 -11q32 0 56 10.5t40 26.5t24.5 36.5t8.5 41.5q0 31 -9 53t-29 36.5t-53 21.5t-81 7v89q89 1 125.5 31.5t36.5 84.5q0 51 -30 77.5t-79 26.5t-78.5 -24t-41.5 -65q-10 -20 -21.5 -27t-37.5 -3z" />
<glyph unicode="&#xb4;" d="M708 1484l-239 -264q-14 -15 -28 -22t-35 -7h-109l152 248q14 24 31 34.5t49 10.5h179z" />
<glyph unicode="&#xb5;" horiz-adv-x="1330" d="M1258 127v-74q0 -24 -32 -43.5t-91 -19.5q-43 0 -82.5 12t-72 38.5t-56 65.5t-33.5 94q-61 -92 -139.5 -143t-177.5 -51q-77 0 -133.5 24t-95.5 70q6 -42 8.5 -85.5t2.5 -80.5v-285h-91q-39 0 -60 20.5t-21 57.5v1310h184v-627q0 -117 53.5 -185t163.5 -68q94 0 164 50.5 t117 142.5v687h183v-756q0 -80 40.5 -117t108.5 -37h60z" />
<glyph unicode="&#xb6;" horiz-adv-x="1434" d="M1362 1311h-224v-1517h-161v1517h-284v-1517h-161v882q-106 0 -191 31t-145 85t-92 126.5t-32 155.5q0 88 32 160.5t92 124t145 80t191 28.5h830v-156z" />
<glyph unicode="&#xb7;" horiz-adv-x="532" d="M114 607q0 32 11.5 60.5t32.5 49t48 33t58 12.5q32 0 60.5 -12.5t49 -33t33 -49t12.5 -60.5q0 -31 -12.5 -58.5t-33 -48.5t-49 -32.5t-60.5 -11.5q-31 0 -58 11.5t-48 32.5t-32.5 48.5t-11.5 58.5z" />
<glyph unicode="&#xb8;" d="M440 -77q95 -19 137.5 -55t42.5 -91q0 -33 -16.5 -59.5t-46 -45t-70.5 -28.5t-90 -10q-42 0 -79.5 9t-69.5 23l17 56q6 18 24 19q6 0 14 -3.5t20 -8t28 -8.5t37 -4q43 0 65 17.5t22 44.5q0 39 -43 54.5t-122 26.5l56 166h103z" />
<glyph unicode="&#xb9;" horiz-adv-x="684" d="M579 1009v-87h-417v87h150v451l5 45l-110 -91q-9 -7 -18 -9t-17 -0.5t-15 6t-10 8.5l-40 57l228 195h110v-662h134z" />
<glyph unicode="&#xba;" horiz-adv-x="823" d="M414 1484q72 0 129.5 -22t98.5 -63t63.5 -100t22.5 -132q0 -74 -22.5 -133t-63.5 -100.5t-99 -63.5t-129 -22q-73 0 -131.5 22t-100 63.5t-64 101t-22.5 132.5t22.5 132t64 100t100 63t131.5 22zM414 956q86 0 128.5 54t42.5 156t-42.5 155.5t-128.5 53.5q-90 0 -132 -53 t-42 -156q0 -102 42 -156t132 -54z" />
<glyph unicode="&#xbb;" horiz-adv-x="879" d="M474 554v-24l-255 -398l-59 29q-24 11 -28.5 32t9.5 45l162 267q8 12 15 22t15 16q-8 5 -15 14.5t-15 22.5l-162 267q-14 24 -9.5 44.5t28.5 32.5l59 28zM777 554v-24l-255 -398l-59 29q-24 11 -28.5 32t9.5 45l162 267q8 12 15 22t15 16q-8 5 -15 14.5t-15 22.5 l-162 267q-14 24 -9.5 44.5t28.5 32.5l59 28z" />
<glyph unicode="&#xbc;" horiz-adv-x="1503" d="M429 54q-19 -32 -42 -43t-53 -11h-78l838 1405q18 30 42 46t56 16h79zM562 807v-87h-417v87h150v451l5 45l-110 -91q-9 -7 -18 -9t-17 -0.5t-15 6t-10 8.5l-40 57l228 195h110v-662h134zM1200 273v247q0 41 7 90l-248 -337h241zM1423 273v-66q0 -11 -7.5 -19t-19.5 -8 h-85v-180h-111v180h-313q-19 0 -29.5 8.5t-13.5 20.5l-10 58l351 479h126v-473h112z" />
<glyph unicode="&#xbd;" horiz-adv-x="1485" d="M387 54q-19 -32 -42 -43t-53 -11h-78l838 1405q18 30 42 46t56 16h79zM564 807v-87h-417v87h150v451l5 45l-110 -91q-9 -7 -18 -9t-17 -0.5t-15 6t-10 8.5l-40 57l228 195h110v-662h134zM1349 122q20 0 32 -11.5t12 -31.5v-79h-523v44q0 13 5.5 27.5t17.5 26.5l227 225 q51 51 86 105t35 110q0 52 -30.5 80t-75.5 28q-48 0 -77 -24.5t-43 -67.5q-10 -18 -23.5 -25.5t-39.5 -3.5l-73 13q15 109 86 163t176 54q53 0 96.5 -15.5t74.5 -43t48 -67t17 -87.5q0 -41 -13 -76.5t-34.5 -67t-49 -61.5t-58.5 -61l-167 -168q25 6 49 10t45 4h200z" />
<glyph unicode="&#xbe;" horiz-adv-x="1519" d="M452 54q-19 -32 -42 -43t-53 -11h-78l838 1405q18 30 42 46t56 16h79zM111 1258q7 54 29.5 94.5t56 67.5t76.5 41t93 14q52 0 94 -15t72.5 -41t47 -61t16.5 -76q0 -131 -121 -177q137 -38 137 -163q0 -56 -21.5 -99t-57 -72t-82 -44t-95.5 -15q-58 0 -101 12.5t-74.5 38 t-53.5 62t-37 84.5l56 25q23 9 42.5 4.5t28.5 -21.5l13 -26t23 -31.5t38 -26.5t58 -11q32 0 56 10.5t40 26.5t24.5 36.5t8.5 41.5q0 31 -9 53t-29 36.5t-53 21.5t-81 7v89q89 1 125.5 31.5t36.5 84.5q0 51 -30 77.5t-79 26.5t-78.5 -24t-41.5 -65q-10 -20 -21.5 -27 t-37.5 -3zM1217 273v247q0 41 7 90l-248 -337h241zM1440 273v-66q0 -11 -7.5 -19t-19.5 -8h-85v-180h-111v180h-313q-19 0 -29.5 8.5t-13.5 20.5l-10 58l351 479h126v-473h112z" />
<glyph unicode="&#xbf;" horiz-adv-x="901" d="M827 -217q-32 -30 -70 -56.5t-83 -47t-98.5 -32.5t-114.5 -12q-81 0 -149.5 23t-119 64.5t-79 102t-28.5 137.5q0 78 23 132t58.5 93t77 67t78 52.5t63 49.5t30.5 59l18 157h124l12 -171q4 -48 -17.5 -81t-56 -60t-76.5 -51.5t-78.5 -55t-61 -72.5t-24.5 -104 q0 -45 17.5 -80t47.5 -60t70 -38.5t86 -13.5q62 0 107 15.5t76 34t50 33.5t31 15q27 0 39 -23zM371 925q0 27 9.5 50t26.5 40.5t40.5 28t50.5 10.5t50 -10.5t40.5 -28t28 -41t10.5 -49.5q0 -28 -10.5 -51t-28 -40.5t-41 -27t-49.5 -9.5q-27 0 -50.5 9.5t-40.5 27t-26.5 40.5 t-9.5 51z" />
<glyph unicode="&#xc0;" horiz-adv-x="1386" d="M967 545l-231 597q-10 27 -21.5 62t-21.5 75q-22 -83 -44 -138l-230 -596h548zM1380 0h-153q-27 0 -43.5 13.5t-24.5 33.5l-137 354h-658l-138 -354q-6 -18 -23.5 -32.5t-42.5 -14.5h-154l587 1467h201zM512 1896q34 0 51 -5t35 -27l233 -281h-131q-23 0 -35.5 2.5 t-27.5 17.5l-320 293h195z" />
<glyph unicode="&#xc1;" horiz-adv-x="1386" d="M967 545l-231 597q-10 27 -21.5 62t-21.5 75q-22 -83 -44 -138l-230 -596h548zM1380 0h-153q-27 0 -43.5 13.5t-24.5 33.5l-137 354h-658l-138 -354q-6 -18 -23.5 -32.5t-42.5 -14.5h-154l587 1467h201zM1080 1896l-334 -292q-15 -14 -29.5 -17.5t-34.5 -3.5h-131 l236 281q17 23 35 27.5t52 4.5h206z" />
<glyph unicode="&#xc2;" horiz-adv-x="1386" d="M967 545l-231 597q-10 27 -21.5 62t-21.5 75q-22 -83 -44 -138l-230 -596h548zM1380 0h-153q-27 0 -43.5 13.5t-24.5 33.5l-137 354h-658l-138 -354q-6 -18 -23.5 -32.5t-42.5 -14.5h-154l587 1467h201zM1021 1583h-133q-12 0 -29 4.5t-34 25.5l-120 144l-12 19l-13 -19 l-119 -144q-17 -20 -34.5 -25t-29.5 -5h-128l245 278h164z" />
<glyph unicode="&#xc3;" horiz-adv-x="1386" d="M967 545l-231 597q-10 27 -21.5 62t-21.5 75q-22 -83 -44 -138l-230 -596h548zM1380 0h-153q-27 0 -43.5 13.5t-24.5 33.5l-137 354h-658l-138 -354q-6 -18 -23.5 -32.5t-42.5 -14.5h-154l587 1467h201zM822 1703q24 0 41.5 8.5t30 23.5t18.5 33.5t6 36.5h111 q0 -44 -12 -84.5t-36 -71.5t-59 -49.5t-80 -18.5q-46 0 -82.5 17t-67.5 37t-58.5 37t-56.5 17q-24 0 -41 -9.5t-29 -24.5t-18 -33t-6 -37h-114q0 44 13 85t36.5 72.5t58 49.5t79.5 18q46 0 83 -16.5t68 -36.5t58.5 -37t56.5 -17z" />
<glyph unicode="&#xc4;" horiz-adv-x="1386" d="M967 545l-231 597q-10 27 -21.5 62t-21.5 75q-22 -83 -44 -138l-230 -596h548zM1380 0h-153q-27 0 -43.5 13.5t-24.5 33.5l-137 354h-658l-138 -354q-6 -18 -23.5 -32.5t-42.5 -14.5h-154l587 1467h201zM591 1706q0 -23 -9 -42.5t-25 -35t-37 -24.5t-43 -9t-42 9 t-35.5 24.5t-24.5 35t-9 42.5q0 24 9 45t24.5 36t35.5 24.5t42 9.5q23 0 43.5 -9.5t36.5 -24.5t25 -36t9 -45zM1019 1706q0 -23 -9 -42.5t-24.5 -35t-36 -24.5t-42.5 -9q-24 0 -44.5 9t-36 24.5t-24 35t-8.5 42.5q0 24 8.5 45t24 36t36 24.5t44.5 9.5q23 0 43 -9.5 t35.5 -24.5t24.5 -36t9 -45z" />
<glyph unicode="&#xc5;" horiz-adv-x="1386" d="M967 545l-231 597q-10 27 -21.5 62t-21.5 75q-22 -83 -44 -138l-230 -596h548zM1380 0h-153q-27 0 -43.5 13.5t-24.5 33.5l-137 354h-658l-138 -354q-6 -18 -23.5 -32.5t-42.5 -14.5h-154l587 1467h201zM499 1738q0 40 16 73.5t42 57t61 37t74 13.5q40 0 75.5 -13.5 t62 -37t42.5 -57t16 -73.5t-16 -73t-42.5 -56.5t-62.5 -36.5t-75 -13t-74 13t-61 36.5t-42 56.5t-16 73zM590 1738q0 -45 27.5 -74t77.5 -29q46 0 74 29t28 74q0 46 -28 74.5t-74 28.5q-49 0 -77 -28.5t-28 -74.5z" />
<glyph unicode="&#xc6;" horiz-adv-x="1905" d="M956 545l-97 774q-13 -43 -27.5 -79t-28.5 -69l-325 -626h478zM1816 162l-1 -162h-791l-50 401h-570l-184 -355q-10 -20 -29.5 -33t-46.5 -13h-150l774 1467h1047v-161h-766l60 -488h571v-155h-552l62 -501h626z" />
<glyph unicode="&#xc7;" horiz-adv-x="1368" d="M1325 205q-84 -97 -200 -154.5t-278 -65.5l-18 -62q95 -19 137.5 -55t42.5 -91q0 -33 -16.5 -59.5t-45.5 -45t-70 -28.5t-91 -10q-42 0 -79.5 9t-69.5 23l17 56q6 18 24 19q6 0 14 -3.5t20 -8t28 -8.5t37 -4q43 0 65 17.5t22 44.5q0 39 -43 54.5t-122 26.5l42 126 q-146 9 -265 67.5t-203.5 156.5t-130 231t-45.5 292q0 166 52.5 304.5t147 237.5t226.5 154t292 55q157 0 276.5 -50.5t211.5 -136.5l-66 -91q-6 -10 -16 -16.5t-26 -6.5q-18 0 -45 20t-70 44.5t-107.5 44.5t-158.5 20q-114 0 -208 -39.5t-162 -114.5t-106 -182.5 t-38 -242.5q0 -137 39.5 -244.5t107.5 -182t160.5 -113t200.5 -38.5q66 0 118.5 7.5t97 24t83 41.5t76.5 60q17 15 35 15q16 0 28 -13z" />
<glyph unicode="&#xc8;" horiz-adv-x="1182" d="M1093 162l-1 -162h-905v1467h905v-161h-706v-488h571v-155h-571v-501h707zM471 1896q34 0 51 -5t35 -27l233 -281h-131q-23 0 -35.5 2.5t-27.5 17.5l-320 293h195z" />
<glyph unicode="&#xc9;" horiz-adv-x="1182" d="M1093 162l-1 -162h-905v1467h905v-161h-706v-488h571v-155h-571v-501h707zM1039 1896l-334 -292q-15 -14 -29.5 -17.5t-34.5 -3.5h-131l236 281q17 23 35 27.5t52 4.5h206z" />
<glyph unicode="&#xca;" horiz-adv-x="1182" d="M1093 162l-1 -162h-905v1467h905v-161h-706v-488h571v-155h-571v-501h707zM981 1583h-133q-12 0 -29 4.5t-34 25.5l-120 144l-12 19l-13 -19l-119 -144q-17 -20 -34.5 -25t-29.5 -5h-128l245 278h164z" />
<glyph unicode="&#xcb;" horiz-adv-x="1182" d="M1093 162l-1 -162h-905v1467h905v-161h-706v-488h571v-155h-571v-501h707zM551 1706q0 -23 -9 -42.5t-25 -35t-37 -24.5t-43 -9t-42 9t-35.5 24.5t-24.5 35t-9 42.5q0 24 9 45t24.5 36t35.5 24.5t42 9.5q23 0 43.5 -9.5t36.5 -24.5t25 -36t9 -45zM979 1706 q0 -23 -9 -42.5t-24.5 -35t-36 -24.5t-42.5 -9q-24 0 -44.5 9t-36 24.5t-24 35t-8.5 42.5q0 24 8.5 45t24 36t36 24.5t44.5 9.5q23 0 43 -9.5t35.5 -24.5t24.5 -36t9 -45z" />
<glyph unicode="&#xcc;" horiz-adv-x="573" d="M386 0h-199v1467h199v-1467zM109 1896q34 0 51 -5t35 -27l233 -281h-131q-23 0 -35.5 2.5t-27.5 17.5l-320 293h195z" />
<glyph unicode="&#xcd;" horiz-adv-x="573" d="M386 0h-199v1467h199v-1467zM677 1896l-334 -292q-15 -14 -29.5 -17.5t-34.5 -3.5h-131l236 281q17 23 35 27.5t52 4.5h206z" />
<glyph unicode="&#xce;" horiz-adv-x="573" d="M386 0h-199v1467h199v-1467zM618 1583h-133q-12 0 -29 4.5t-34 25.5l-120 144l-12 19l-13 -19l-119 -144q-17 -20 -34.5 -25t-29.5 -5h-128l245 278h164z" />
<glyph unicode="&#xcf;" horiz-adv-x="573" d="M386 0h-199v1467h199v-1467zM188 1706q0 -23 -9 -42.5t-25 -35t-37 -24.5t-43 -9t-42 9t-35.5 24.5t-24.5 35t-9 42.5q0 24 9 45t24.5 36t35.5 24.5t42 9.5q23 0 43.5 -9.5t36.5 -24.5t25 -36t9 -45zM616 1706q0 -23 -9 -42.5t-24.5 -35t-36 -24.5t-42.5 -9 q-24 0 -44.5 9t-36 24.5t-24 35t-8.5 42.5q0 24 8.5 45t24 36t36 24.5t44.5 9.5q23 0 43 -9.5t35.5 -24.5t24.5 -36t9 -45z" />
<glyph unicode="&#xd0;" horiz-adv-x="1573" d="M753 161q118 0 214 39t163.5 112t104.5 179.5t37 241.5t-37 241.5t-104.5 180.5t-164 113t-213.5 39h-350v-508h297v-117h-297v-521h350zM753 1467q162 0 295 -52.5t228 -149.5t147.5 -232t52.5 -300t-52.5 -300t-147.5 -231.5t-228.5 -149t-294.5 -52.5h-549v682h-201 v117h201v668h549z" />
<glyph unicode="&#xd1;" horiz-adv-x="1563" d="M1376 1467v-1467h-99q-24 0 -39.5 8t-31.5 28l-849 1106q2 -26 3 -50.5t1 -45.5v-1046h-174v1467h103q13 0 22.5 -1.5t16.5 -5t14 -10t15 -16.5l849 -1105q-2 27 -3.5 52t-1.5 47v1039h174zM926 1702q24 0 41.5 8.5t30 23.5t18.5 33.5t6 36.5h111q0 -44 -12 -84.5 t-36 -71.5t-59 -49.5t-80 -18.5q-46 0 -82.5 17t-67.5 37t-58.5 37t-56.5 17q-24 0 -41 -9.5t-29 -24.5t-18 -33t-6 -37h-114q0 44 13 85t36.5 72.5t58 49.5t79.5 18q46 0 83 -16.5t68 -36.5t58.5 -37t56.5 -17z" />
<glyph unicode="&#xd2;" horiz-adv-x="1639" d="M1543 733q0 -165 -52 -302.5t-147.5 -237t-229 -154t-295.5 -54.5t-295 54.5t-228 154t-147.5 237t-52.5 302.5t52.5 303t147.5 237.5t228 155t295 55.5t295.5 -55.5t229 -155t147.5 -237.5t52 -303zM1339 733q0 135 -36.5 242.5t-104.5 182t-164 114.5t-215 40 q-118 0 -214 -40t-164 -114.5t-105 -182t-37 -242.5t37 -242t105 -181t164 -113.5t214 -39.5q119 0 215 39.5t164 113.5t104.5 181t36.5 242zM640 1896q34 0 51 -5t35 -27l233 -281h-131q-23 0 -35.5 2.5t-27.5 17.5l-320 293h195z" />
<glyph unicode="&#xd3;" horiz-adv-x="1639" d="M1543 733q0 -165 -52 -302.5t-147.5 -237t-229 -154t-295.5 -54.5t-295 54.5t-228 154t-147.5 237t-52.5 302.5t52.5 303t147.5 237.5t228 155t295 55.5t295.5 -55.5t229 -155t147.5 -237.5t52 -303zM1339 733q0 135 -36.5 242.5t-104.5 182t-164 114.5t-215 40 q-118 0 -214 -40t-164 -114.5t-105 -182t-37 -242.5t37 -242t105 -181t164 -113.5t214 -39.5q119 0 215 39.5t164 113.5t104.5 181t36.5 242zM1208 1896l-334 -292q-15 -14 -29.5 -17.5t-34.5 -3.5h-131l236 281q17 23 35 27.5t52 4.5h206z" />
<glyph unicode="&#xd4;" horiz-adv-x="1639" d="M1543 733q0 -165 -52 -302.5t-147.5 -237t-229 -154t-295.5 -54.5t-295 54.5t-228 154t-147.5 237t-52.5 302.5t52.5 303t147.5 237.5t228 155t295 55.5t295.5 -55.5t229 -155t147.5 -237.5t52 -303zM1339 733q0 135 -36.5 242.5t-104.5 182t-164 114.5t-215 40 q-118 0 -214 -40t-164 -114.5t-105 -182t-37 -242.5t37 -242t105 -181t164 -113.5t214 -39.5q119 0 215 39.5t164 113.5t104.5 181t36.5 242zM1150 1583h-133q-12 0 -29 4.5t-34 25.5l-120 144l-12 19l-13 -19l-119 -144q-17 -20 -34.5 -25t-29.5 -5h-128l245 278h164z" />
<glyph unicode="&#xd5;" horiz-adv-x="1639" d="M1543 733q0 -165 -52 -302.5t-147.5 -237t-229 -154t-295.5 -54.5t-295 54.5t-228 154t-147.5 237t-52.5 302.5t52.5 303t147.5 237.5t228 155t295 55.5t295.5 -55.5t229 -155t147.5 -237.5t52 -303zM1339 733q0 135 -36.5 242.5t-104.5 182t-164 114.5t-215 40 q-118 0 -214 -40t-164 -114.5t-105 -182t-37 -242.5t37 -242t105 -181t164 -113.5t214 -39.5q119 0 215 39.5t164 113.5t104.5 181t36.5 242zM951 1703q24 0 41.5 8.5t30 23.5t18.5 33.5t6 36.5h111q0 -44 -12 -84.5t-36 -71.5t-59 -49.5t-80 -18.5q-46 0 -82.5 17t-67.5 37 t-58.5 37t-56.5 17q-24 0 -41 -9.5t-29 -24.5t-18 -33t-6 -37h-114q0 44 13 85t36.5 72.5t58 49.5t79.5 18q46 0 83 -16.5t68 -36.5t58.5 -37t56.5 -17z" />
<glyph unicode="&#xd6;" horiz-adv-x="1639" d="M1543 733q0 -165 -52 -302.5t-147.5 -237t-229 -154t-295.5 -54.5t-295 54.5t-228 154t-147.5 237t-52.5 302.5t52.5 303t147.5 237.5t228 155t295 55.5t295.5 -55.5t229 -155t147.5 -237.5t52 -303zM1339 733q0 135 -36.5 242.5t-104.5 182t-164 114.5t-215 40 q-118 0 -214 -40t-164 -114.5t-105 -182t-37 -242.5t37 -242t105 -181t164 -113.5t214 -39.5q119 0 215 39.5t164 113.5t104.5 181t36.5 242zM720 1706q0 -23 -9 -42.5t-25 -35t-37 -24.5t-43 -9t-42 9t-35.5 24.5t-24.5 35t-9 42.5q0 24 9 45t24.5 36t35.5 24.5t42 9.5 q23 0 43.5 -9.5t36.5 -24.5t25 -36t9 -45zM1148 1706q0 -23 -9 -42.5t-24.5 -35t-36 -24.5t-42.5 -9q-24 0 -44.5 9t-36 24.5t-24 35t-8.5 42.5q0 24 8.5 45t24 36t36 24.5t44.5 9.5q23 0 43 -9.5t35.5 -24.5t24.5 -36t9 -45z" />
<glyph unicode="&#xd7;" horiz-adv-x="1187" d="M958 226l-362 364l-366 -366l-97 99l365 364l-354 353l98 99l353 -354l351 352l98 -99l-351 -351l363 -362z" />
<glyph unicode="&#xd8;" horiz-adv-x="1639" d="M541 228q119 -72 278 -71q119 0 215 39.5t164 113.5t104.5 181t36.5 242q0 129 -33 232t-95 177zM1121 1225q-61 43 -137 65t-165 22q-118 0 -214 -40t-164 -114.5t-105 -182t-37 -242.5q0 -138 38.5 -246t108.5 -183zM1323 1293q105 -100 162.5 -242.5t57.5 -317.5 q0 -165 -52 -302.5t-147.5 -237t-229 -154t-295.5 -54.5q-110 0 -206 25.5t-178 73.5l-102 -139q-22 -31 -52 -44t-60 -13h-80l196 267q-115 100 -178 247.5t-63 330.5q0 165 52.5 303t147.5 237.5t228 155t295 55.5q118 0 221 -30t188 -85l83 114q20 28 36.5 39.5 t49.5 11.5h102z" />
<glyph unicode="&#xd9;" horiz-adv-x="1506" d="M754 158q91 0 162.5 30.5t121 86t76 132t26.5 168.5v892h197v-892q0 -127 -40.5 -235.5t-115.5 -187.5t-183.5 -124t-243.5 -45t-244 45t-184.5 124t-116 188t-40.5 235v892h198v-890q0 -92 26 -169t75.5 -132.5t122 -86.5t163.5 -31zM573 1896q34 0 51 -5t35 -27 l233 -281h-131q-23 0 -35.5 2.5t-27.5 17.5l-320 293h195z" />
<glyph unicode="&#xda;" horiz-adv-x="1506" d="M754 158q91 0 162.5 30.5t121 86t76 132t26.5 168.5v892h197v-892q0 -127 -40.5 -235.5t-115.5 -187.5t-183.5 -124t-243.5 -45t-244 45t-184.5 124t-116 188t-40.5 235v892h198v-890q0 -92 26 -169t75.5 -132.5t122 -86.5t163.5 -31zM1141 1896l-334 -292 q-15 -14 -29.5 -17.5t-34.5 -3.5h-131l236 281q17 23 35 27.5t52 4.5h206z" />
<glyph unicode="&#xdb;" horiz-adv-x="1506" d="M754 158q91 0 162.5 30.5t121 86t76 132t26.5 168.5v892h197v-892q0 -127 -40.5 -235.5t-115.5 -187.5t-183.5 -124t-243.5 -45t-244 45t-184.5 124t-116 188t-40.5 235v892h198v-890q0 -92 26 -169t75.5 -132.5t122 -86.5t163.5 -31zM1082 1583h-133q-12 0 -29 4.5 t-34 25.5l-120 144l-12 19l-13 -19l-119 -144q-17 -20 -34.5 -25t-29.5 -5h-128l245 278h164z" />
<glyph unicode="&#xdc;" horiz-adv-x="1506" d="M754 158q91 0 162.5 30.5t121 86t76 132t26.5 168.5v892h197v-892q0 -127 -40.5 -235.5t-115.5 -187.5t-183.5 -124t-243.5 -45t-244 45t-184.5 124t-116 188t-40.5 235v892h198v-890q0 -92 26 -169t75.5 -132.5t122 -86.5t163.5 -31zM652 1706q0 -23 -9 -42.5t-25 -35 t-37 -24.5t-43 -9t-42 9t-35.5 24.5t-24.5 35t-9 42.5q0 24 9 45t24.5 36t35.5 24.5t42 9.5q23 0 43.5 -9.5t36.5 -24.5t25 -36t9 -45zM1080 1706q0 -23 -9 -42.5t-24.5 -35t-36 -24.5t-42.5 -9q-24 0 -44.5 9t-36 24.5t-24 35t-8.5 42.5q0 24 8.5 45t24 36t36 24.5 t44.5 9.5q23 0 43 -9.5t35.5 -24.5t24.5 -36t9 -45z" />
<glyph unicode="&#xdd;" horiz-adv-x="1277" d="M738 585v-585h-198v585l-538 882h174q27 0 42 -12.5t27 -33.5l336 -570l33.5 -67t26.5 -63q11 32 25.5 63t31.5 67l335 570q9 17 25.5 31.5t42.5 14.5h175zM1028 1896l-334 -292q-15 -14 -29.5 -17.5t-34.5 -3.5h-131l236 281q17 23 35 27.5t52 4.5h206z" />
<glyph unicode="&#xde;" horiz-adv-x="1225" d="M621 436q85 0 150 22.5t109.5 63t67 97t22.5 123.5q0 140 -86.5 219t-262.5 79h-236v-604h236zM621 1197q139 0 242 -32t170.5 -91.5t100.5 -143.5t33 -188q0 -102 -35.5 -187t-105 -146.5t-171 -95.5t-234.5 -34h-236v-279h-198v1467h198v-270h236z" />
<glyph unicode="&#xdf;" horiz-adv-x="1187" d="M643 1489q105 0 182 -31t127 -78.5t74.5 -103.5t24.5 -109q0 -61 -22 -105t-55 -78t-71.5 -59.5t-71 -50t-54.5 -50.5t-22 -59q0 -40 27 -66.5t68 -49.5t88.5 -47t88.5 -60t68 -88.5t27 -131.5q0 -80 -29 -142.5t-79.5 -106t-120.5 -66.5t-150 -23q-99 0 -180.5 35 t-142.5 91l43 69q8 13 19.5 20.5t29.5 7.5t38.5 -14.5t48.5 -32t66 -31.5t94 -14q44 0 79.5 13.5t61.5 37t39 56.5t13 71q0 57 -28.5 93t-71.5 62t-93.5 47.5t-93.5 51.5t-72 72.5t-29 109.5q0 54 23 94.5t57.5 73t75 60t74.5 58.5t57 67t23 85q0 33 -12.5 66.5t-41 60 t-74.5 43.5t-111 17q-70 0 -126 -21.5t-97 -64.5t-63 -107.5t-22 -150.5v-1010h-183v1016q0 106 35.5 193t101 149.5t157.5 96.5t205 34z" />
<glyph unicode="&#xe0;" horiz-adv-x="1017" d="M707 467q-126 -4 -215 -20t-144.5 -41.5t-80.5 -60.5t-25 -78q0 -41 13 -70.5t36 -48.5t54.5 -27.5t67.5 -8.5q48 0 88 9.5t75 28t67.5 44t63.5 58.5v215zM118 891q86 83 185 124t220 41q87 0 154.5 -29t114 -80t70 -123.5t23.5 -159.5v-664h-81q-27 0 -41 8.5t-23 34.5 l-20 98q-41 -38 -80 -67t-82 -49t-91.5 -30.5t-108.5 -10.5t-113.5 16.5t-92.5 50.5t-62 85.5t-23 122.5q0 61 33.5 118t109.5 101t197.5 72.5t299.5 32.5v81q0 121 -52.5 182.5t-152.5 61.5q-68 0 -113.5 -17t-79 -37.5t-57.5 -37.5t-47 -17q-18 0 -31.5 9.5t-22.5 24.5z M398 1484q34 0 50.5 -11t30.5 -34l153 -248h-105q-22 0 -35 6.5t-27 22.5l-240 264h173z" />
<glyph unicode="&#xe1;" horiz-adv-x="1017" d="M707 467q-126 -4 -215 -20t-144.5 -41.5t-80.5 -60.5t-25 -78q0 -41 13 -70.5t36 -48.5t54.5 -27.5t67.5 -8.5q48 0 88 9.5t75 28t67.5 44t63.5 58.5v215zM118 891q86 83 185 124t220 41q87 0 154.5 -29t114 -80t70 -123.5t23.5 -159.5v-664h-81q-27 0 -41 8.5t-23 34.5 l-20 98q-41 -38 -80 -67t-82 -49t-91.5 -30.5t-108.5 -10.5t-113.5 16.5t-92.5 50.5t-62 85.5t-23 122.5q0 61 33.5 118t109.5 101t197.5 72.5t299.5 32.5v81q0 121 -52.5 182.5t-152.5 61.5q-68 0 -113.5 -17t-79 -37.5t-57.5 -37.5t-47 -17q-18 0 -31.5 9.5t-22.5 24.5z M799 1484l-239 -264q-14 -15 -28 -22t-35 -7h-109l152 248q14 24 31 34.5t49 10.5h179z" />
<glyph unicode="&#xe2;" horiz-adv-x="1017" d="M707 467q-126 -4 -215 -20t-144.5 -41.5t-80.5 -60.5t-25 -78q0 -41 13 -70.5t36 -48.5t54.5 -27.5t67.5 -8.5q48 0 88 9.5t75 28t67.5 44t63.5 58.5v215zM118 891q86 83 185 124t220 41q87 0 154.5 -29t114 -80t70 -123.5t23.5 -159.5v-664h-81q-27 0 -41 8.5t-23 34.5 l-20 98q-41 -38 -80 -67t-82 -49t-91.5 -30.5t-108.5 -10.5t-113.5 16.5t-92.5 50.5t-62 85.5t-23 122.5q0 61 33.5 118t109.5 101t197.5 72.5t299.5 32.5v81q0 121 -52.5 182.5t-152.5 61.5q-68 0 -113.5 -17t-79 -37.5t-57.5 -37.5t-47 -17q-18 0 -31.5 9.5t-22.5 24.5z M814 1197h-122q-11 0 -23 4t-23 16l-126 135q-9 8 -16 19q-5 -5 -9.5 -10t-8.5 -9l-127 -135q-22 -19 -46 -20h-126l229 270h170z" />
<glyph unicode="&#xe3;" horiz-adv-x="1017" d="M707 467q-126 -4 -215 -20t-144.5 -41.5t-80.5 -60.5t-25 -78q0 -41 13 -70.5t36 -48.5t54.5 -27.5t67.5 -8.5q48 0 88 9.5t75 28t67.5 44t63.5 58.5v215zM118 891q86 83 185 124t220 41q87 0 154.5 -29t114 -80t70 -123.5t23.5 -159.5v-664h-81q-27 0 -41 8.5t-23 34.5 l-20 98q-41 -38 -80 -67t-82 -49t-91.5 -30.5t-108.5 -10.5t-113.5 16.5t-92.5 50.5t-62 85.5t-23 122.5q0 61 33.5 118t109.5 101t197.5 72.5t299.5 32.5v81q0 121 -52.5 182.5t-152.5 61.5q-68 0 -113.5 -17t-79 -37.5t-57.5 -37.5t-47 -17q-18 0 -31.5 9.5t-22.5 24.5z M613 1357q37 0 57 21.5t21 66.5h111q0 -48 -13 -88.5t-37 -69.5t-57.5 -44.5t-74.5 -15.5q-36 0 -67 14.5t-58.5 32t-52 32.5t-48.5 15q-74 0 -76 -90h-113q0 49 13 89.5t37.5 69.5t58.5 45t74 16q36 0 67 -15t59 -32.5t51.5 -32t47.5 -14.5z" />
<glyph unicode="&#xe4;" horiz-adv-x="1017" d="M707 467q-126 -4 -215 -20t-144.5 -41.5t-80.5 -60.5t-25 -78q0 -41 13 -70.5t36 -48.5t54.5 -27.5t67.5 -8.5q48 0 88 9.5t75 28t67.5 44t63.5 58.5v215zM118 891q86 83 185 124t220 41q87 0 154.5 -29t114 -80t70 -123.5t23.5 -159.5v-664h-81q-27 0 -41 8.5t-23 34.5 l-20 98q-41 -38 -80 -67t-82 -49t-91.5 -30.5t-108.5 -10.5t-113.5 16.5t-92.5 50.5t-62 85.5t-23 122.5q0 61 33.5 118t109.5 101t197.5 72.5t299.5 32.5v81q0 121 -52.5 182.5t-152.5 61.5q-68 0 -113.5 -17t-79 -37.5t-57.5 -37.5t-47 -17q-18 0 -31.5 9.5t-22.5 24.5z M421 1320q0 -24 -9.5 -44.5t-25.5 -35.5t-37 -24.5t-45 -9.5q-23 0 -43 9.5t-36 24.5t-25.5 35.5t-9.5 44.5t9.5 45t25.5 37t36 25.5t43 9.5q24 0 45 -9.5t37 -25.5t25.5 -37t9.5 -45zM811 1320q0 -24 -9.5 -44.5t-25 -35.5t-36.5 -24.5t-45 -9.5t-44.5 9.5t-36 24.5 t-25 35.5t-9.5 44.5t9.5 45t25 37t36.5 25.5t44 9.5q24 0 45 -9.5t36.5 -25.5t25 -37t9.5 -45z" />
<glyph unicode="&#xe5;" horiz-adv-x="1017" d="M707 467q-126 -4 -215 -20t-144.5 -41.5t-80.5 -60.5t-25 -78q0 -41 13 -70.5t36 -48.5t54.5 -27.5t67.5 -8.5q48 0 88 9.5t75 28t67.5 44t63.5 58.5v215zM118 891q86 83 185 124t220 41q87 0 154.5 -29t114 -80t70 -123.5t23.5 -159.5v-664h-81q-27 0 -41 8.5t-23 34.5 l-20 98q-41 -38 -80 -67t-82 -49t-91.5 -30.5t-108.5 -10.5t-113.5 16.5t-92.5 50.5t-62 85.5t-23 122.5q0 61 33.5 118t109.5 101t197.5 72.5t299.5 32.5v81q0 121 -52.5 182.5t-152.5 61.5q-68 0 -113.5 -17t-79 -37.5t-57.5 -37.5t-47 -17q-18 0 -31.5 9.5t-22.5 24.5z M297 1347q0 43 16.5 77.5t44.5 60t65 39.5t78 14q42 0 79 -14t66 -39.5t45 -60t16 -77.5q0 -42 -16 -77t-45 -59.5t-66 -38.5t-79 -14q-41 0 -78 14t-65 38.5t-44.5 59.5t-16.5 77zM399 1347q0 -45 27.5 -74t76.5 -29q46 0 74 29t28 74q0 46 -28 74.5t-74 28.5 q-48 0 -76 -28.5t-28 -74.5z" />
<glyph unicode="&#xe6;" horiz-adv-x="1648" d="M1405 611q0 67 -16.5 124t-47.5 97.5t-76 64t-102 23.5q-62 0 -111.5 -21t-84.5 -61t-56.5 -97.5t-28.5 -129.5h523zM709 498q-126 -5 -214.5 -23t-144 -46.5t-80.5 -65.5t-25 -80q0 -89 51 -130t134 -41q58 0 109 18t89 56t59.5 94.5t21.5 132.5v85zM120 891 q86 83 178.5 124t208.5 41q123 0 197.5 -52.5t108.5 -144.5q55 90 144.5 142.5t211.5 52.5q84 0 157 -33t126 -95.5t84 -152t31 -204.5q0 -42 -8.5 -56.5t-33.5 -14.5h-645q4 -92 27.5 -161.5t63 -115.5t93 -69t120.5 -23q71 0 118 15t78 33.5t51 33t36 14.5q14 0 23 -4.5 t15 -12.5l48 -63q-34 -41 -78 -71t-95 -49.5t-105 -29t-108 -9.5q-121 0 -217.5 57.5t-153.5 176.5q-28 -63 -72 -108t-99 -74t-115.5 -41.5t-121.5 -12.5q-71 0 -129 17.5t-100.5 53.5t-65.5 90.5t-23 127.5q0 61 33.5 121t109 107t197 77t299.5 34v52q0 121 -52.5 185 t-152.5 64q-68 0 -113.5 -17.5t-78.5 -39t-57.5 -39.5t-47.5 -18q-18 0 -31.5 9.5t-22.5 24.5z" />
<glyph unicode="&#xe7;" horiz-adv-x="978" d="M927 145q-58 -73 -143.5 -110.5t-181.5 -45.5l-18 -66q95 -19 137 -55t42 -91q0 -33 -16.5 -59.5t-45.5 -45t-69.5 -28.5t-89.5 -10q-42 0 -80.5 9t-69.5 23l17 56q6 18 23 19q6 0 14.5 -3.5t20 -8t27.5 -8.5t38 -4q43 0 64.5 17.5t21.5 44.5q0 39 -43 54.5t-120 26.5 l42 128q-89 8 -164.5 47.5t-130.5 107.5t-85.5 162.5t-30.5 213.5q0 116 32.5 214t94 169.5t152.5 111.5t208 40q110 0 193.5 -35.5t147.5 -99.5l-48 -66q-8 -11 -16 -17.5t-23 -6.5t-33.5 13t-45.5 28.5t-66.5 28t-96.5 12.5q-77 0 -135.5 -27t-98 -78t-59.5 -124t-20 -163 q0 -94 21.5 -167t61 -123t95.5 -76t125 -26q67 0 110 16t71 35.5t47 35t38 15.5q23 0 35 -17z" />
<glyph unicode="&#xe8;" horiz-adv-x="1081" d="M839 632q0 63 -18 116t-52.5 91.5t-83.5 59.5t-112 21q-131 0 -207 -76.5t-95 -211.5h568zM986 145q-34 -41 -81 -71t-100.5 -49.5t-111 -29t-113.5 -9.5q-108 0 -198.5 36t-156.5 106.5t-103 174t-37 237.5q0 109 33.5 203t95.5 163t152.5 108.5t202.5 39.5 q93 0 172.5 -31.5t137.5 -90.5t90.5 -145.5t32.5 -196.5q0 -43 -9 -57.5t-35 -14.5h-693q3 -98 27 -171t67 -121.5t102.5 -72.5t133.5 -24q69 0 118.5 16t85.5 34.5t60 34t41 15.5q23 0 35 -17zM471 1484q34 0 50.5 -11t30.5 -34l153 -248h-105q-22 0 -35 6.5t-27 22.5 l-240 264h173z" />
<glyph unicode="&#xe9;" horiz-adv-x="1081" d="M839 632q0 63 -18 116t-52.5 91.5t-83.5 59.5t-112 21q-131 0 -207 -76.5t-95 -211.5h568zM986 145q-34 -41 -81 -71t-100.5 -49.5t-111 -29t-113.5 -9.5q-108 0 -198.5 36t-156.5 106.5t-103 174t-37 237.5q0 109 33.5 203t95.5 163t152.5 108.5t202.5 39.5 q93 0 172.5 -31.5t137.5 -90.5t90.5 -145.5t32.5 -196.5q0 -43 -9 -57.5t-35 -14.5h-693q3 -98 27 -171t67 -121.5t102.5 -72.5t133.5 -24q69 0 118.5 16t85.5 34.5t60 34t41 15.5q23 0 35 -17zM872 1484l-239 -264q-14 -15 -28 -22t-35 -7h-109l152 248q14 24 31 34.5 t49 10.5h179z" />
<glyph unicode="&#xea;" horiz-adv-x="1081" d="M839 632q0 63 -18 116t-52.5 91.5t-83.5 59.5t-112 21q-131 0 -207 -76.5t-95 -211.5h568zM986 145q-34 -41 -81 -71t-100.5 -49.5t-111 -29t-113.5 -9.5q-108 0 -198.5 36t-156.5 106.5t-103 174t-37 237.5q0 109 33.5 203t95.5 163t152.5 108.5t202.5 39.5 q93 0 172.5 -31.5t137.5 -90.5t90.5 -145.5t32.5 -196.5q0 -43 -9 -57.5t-35 -14.5h-693q3 -98 27 -171t67 -121.5t102.5 -72.5t133.5 -24q69 0 118.5 16t85.5 34.5t60 34t41 15.5q23 0 35 -17zM887 1197h-122q-11 0 -23 4t-23 16l-126 135q-9 8 -16 19q-5 -5 -9.5 -10 t-8.5 -9l-127 -135q-22 -19 -46 -20h-126l228 270h170z" />
<glyph unicode="&#xeb;" horiz-adv-x="1081" d="M839 632q0 63 -18 116t-52.5 91.5t-83.5 59.5t-112 21q-131 0 -207 -76.5t-95 -211.5h568zM986 145q-34 -41 -81 -71t-100.5 -49.5t-111 -29t-113.5 -9.5q-108 0 -198.5 36t-156.5 106.5t-103 174t-37 237.5q0 109 33.5 203t95.5 163t152.5 108.5t202.5 39.5 q93 0 172.5 -31.5t137.5 -90.5t90.5 -145.5t32.5 -196.5q0 -43 -9 -57.5t-35 -14.5h-693q3 -98 27 -171t67 -121.5t102.5 -72.5t133.5 -24q69 0 118.5 16t85.5 34.5t60 34t41 15.5q23 0 35 -17zM494 1320q0 -24 -9.5 -44.5t-25.5 -35.5t-37 -24.5t-45 -9.5q-23 0 -43 9.5 t-36 24.5t-25.5 35.5t-9.5 44.5t9.5 45t25.5 37t36 25.5t43 9.5q24 0 45 -9.5t37 -25.5t25.5 -37t9.5 -45zM884 1320q0 -24 -9.5 -44.5t-25 -35.5t-36.5 -24.5t-45 -9.5t-44.5 9.5t-36 24.5t-25 35.5t-9.5 44.5t9.5 45t25 37t36.5 25.5t44 9.5q24 0 45 -9.5t36.5 -25.5 t25 -37t9.5 -45z" />
<glyph unicode="&#xec;" horiz-adv-x="491" d="M337 1037v-1037h-183v1037h183zM148 1484q34 0 50.5 -11t30.5 -34l153 -248h-105q-22 0 -35 6.5t-27 22.5l-240 264h173z" />
<glyph unicode="&#xed;" horiz-adv-x="491" d="M338 1037v-1037h-183v1037h183zM549 1484l-239 -264q-14 -15 -28 -22t-35 -7h-109l152 248q14 24 31 34.5t49 10.5h179z" />
<glyph unicode="&#xee;" horiz-adv-x="491" d="M337 1037v-1037h-183v1037h183zM564 1197h-122q-11 0 -22.5 4t-23.5 16l-126 135q-9 8 -16 19q-5 -5 -9 -10t-8 -9l-127 -135q-22 -19 -47 -20h-125l228 270h170z" />
<glyph unicode="&#xef;" horiz-adv-x="491" d="M337 1037v-1037h-183v1037h183zM207 1320q0 -24 -9.5 -44.5t-26 -35.5t-37.5 -24.5t-44 -9.5q-24 0 -44.5 9.5t-36 24.5t-25 35.5t-9.5 44.5t9.5 45t25 37t36 25.5t44.5 9.5t44.5 -9.5t37 -25.5t26 -37t9.5 -45zM526 1320q0 -24 -9 -44.5t-25 -35.5t-37.5 -24.5 t-45.5 -9.5t-44.5 9.5t-36 24.5t-24.5 35.5t-9 44.5t9 45t24.5 37t36.5 25.5t44 9.5q24 0 45.5 -9.5t37.5 -25.5t25 -37t9 -45z" />
<glyph unicode="&#xf0;" horiz-adv-x="1159" d="M564 128q73 0 132 27.5t101 84t65.5 140.5t26.5 198q-16 44 -43.5 85.5t-66 73.5t-88.5 51t-113 19q-77 0 -135.5 -25.5t-97.5 -70t-59 -105.5t-20 -131q0 -83 23.5 -148t64.5 -109t95 -67t115 -23zM785 1256q61 -50 112 -113.5t87.5 -142.5t56 -174t19.5 -208 q0 -146 -32 -262.5t-95 -198.5t-156.5 -126t-216.5 -44q-100 0 -186.5 33.5t-151 96.5t-101.5 154t-37 206q0 96 31.5 181.5t91 150t144 102.5t191.5 38q103 0 193.5 -43.5t156.5 -132.5q-20 139 -79.5 236t-157.5 163l-188 -139l-34 58q-12 18 -8 35.5t22 28.5l106 74 q-91 41 -208 68q-24 7 -38 29t-1 58l21 64q98 -15 190.5 -46.5t175.5 -80.5l170 125l36 -58q11 -17 7 -34.5t-21 -28.5z" />
<glyph unicode="&#xf1;" horiz-adv-x="1142" d="M316 887q34 38 72 68.5t80.5 52.5t90 34t103.5 12q85 0 150 -28.5t108.5 -80t66 -124t22.5 -161.5v-660h-184v660q0 118 -53.5 183t-163.5 65q-81 0 -151 -39t-129 -105v-764h-184v1037h110q39 0 48 -38zM690 1357q37 0 57 21.5t21 66.5h111q0 -48 -13 -88.5t-37 -69.5 t-57.5 -44.5t-74.5 -15.5q-36 0 -67 14.5t-58.5 32t-52 32.5t-48.5 15q-74 0 -76 -90h-113q0 49 13 89.5t37.5 69.5t58.5 45t74 16q36 0 67 -15t59 -32.5t51.5 -32t47.5 -14.5z" />
<glyph unicode="&#xf2;" horiz-adv-x="1161" d="M582 1054q114 0 205 -38t155.5 -107.5t98.5 -168.5t34 -221q0 -123 -34 -221t-98.5 -168t-156 -107t-204.5 -37q-115 0 -206.5 37t-156 107t-99 168t-34.5 221q0 122 34.5 221t99 168.5t156 107.5t206.5 38zM582 128q154 0 229.5 103t75.5 287q0 185 -76 288.5 t-229 103.5q-78 0 -136 -26.5t-96.5 -76.5t-57.5 -123.5t-19 -165.5q0 -184 76.5 -287t232.5 -103zM480 1484q34 0 50.5 -11t30.5 -34l153 -248h-105q-22 0 -35 6.5t-27 22.5l-240 264h173z" />
<glyph unicode="&#xf3;" horiz-adv-x="1161" d="M582 1054q114 0 205 -38t155.5 -107.5t98.5 -168.5t34 -221q0 -123 -34 -221t-98.5 -168t-156 -107t-204.5 -37q-115 0 -206.5 37t-156 107t-99 168t-34.5 221q0 122 34.5 221t99 168.5t156 107.5t206.5 38zM582 128q154 0 229.5 103t75.5 287q0 185 -76 288.5 t-229 103.5q-78 0 -136 -26.5t-96.5 -76.5t-57.5 -123.5t-19 -165.5q0 -184 76.5 -287t232.5 -103zM881 1484l-239 -264q-14 -15 -28 -22t-35 -7h-109l152 248q14 24 31 34.5t49 10.5h179z" />
<glyph unicode="&#xf4;" horiz-adv-x="1161" d="M582 1054q114 0 205 -38t155.5 -107.5t98.5 -168.5t34 -221q0 -123 -34 -221t-98.5 -168t-156 -107t-204.5 -37q-115 0 -206.5 37t-156 107t-99 168t-34.5 221q0 122 34.5 221t99 168.5t156 107.5t206.5 38zM582 128q154 0 229.5 103t75.5 287q0 185 -76 288.5 t-229 103.5q-78 0 -136 -26.5t-96.5 -76.5t-57.5 -123.5t-19 -165.5q0 -184 76.5 -287t232.5 -103zM896 1197h-122q-11 0 -23 4t-23 16l-126 135q-9 8 -16 19q-5 -5 -9.5 -10t-8.5 -9l-127 -135q-22 -19 -46 -20h-126l229 270h170z" />
<glyph unicode="&#xf5;" horiz-adv-x="1161" d="M582 1054q114 0 205 -38t155.5 -107.5t98.5 -168.5t34 -221q0 -123 -34 -221t-98.5 -168t-156 -107t-204.5 -37q-115 0 -206.5 37t-156 107t-99 168t-34.5 221q0 122 34.5 221t99 168.5t156 107.5t206.5 38zM582 128q154 0 229.5 103t75.5 287q0 185 -76 288.5 t-229 103.5q-78 0 -136 -26.5t-96.5 -76.5t-57.5 -123.5t-19 -165.5q0 -184 76.5 -287t232.5 -103zM695 1357q37 0 57 21.5t21 66.5h111q0 -48 -13 -88.5t-37 -69.5t-57.5 -44.5t-74.5 -15.5q-36 0 -67 14.5t-58.5 32t-52 32.5t-48.5 15q-74 0 -76 -90h-113q0 49 13 89.5 t37.5 69.5t58.5 45t74 16q36 0 67 -15t59 -32.5t51.5 -32t47.5 -14.5z" />
<glyph unicode="&#xf6;" horiz-adv-x="1161" d="M582 1054q114 0 205 -38t155.5 -107.5t98.5 -168.5t34 -221q0 -123 -34 -221t-98.5 -168t-156 -107t-204.5 -37q-115 0 -206.5 37t-156 107t-99 168t-34.5 221q0 122 34.5 221t99 168.5t156 107.5t206.5 38zM582 128q154 0 229.5 103t75.5 287q0 185 -76 288.5 t-229 103.5q-78 0 -136 -26.5t-96.5 -76.5t-57.5 -123.5t-19 -165.5q0 -184 76.5 -287t232.5 -103zM503 1320q0 -24 -9.5 -44.5t-25.5 -35.5t-37 -24.5t-45 -9.5q-23 0 -43 9.5t-36 24.5t-25.5 35.5t-9.5 44.5t9.5 45t25.5 37t36 25.5t43 9.5q24 0 45 -9.5t37 -25.5 t25.5 -37t9.5 -45zM893 1320q0 -24 -9.5 -44.5t-25 -35.5t-36.5 -24.5t-45 -9.5t-44.5 9.5t-36 24.5t-25 35.5t-9.5 44.5t9.5 45t25 37t36.5 25.5t44 9.5q24 0 45 -9.5t36.5 -25.5t25 -37t9.5 -45z" />
<glyph unicode="&#xf7;" horiz-adv-x="1187" d="M102 757h982v-139h-982v139zM465 1051q0 27 9.5 50t27 40.5t40.5 28t51 10.5q27 0 50 -10.5t40 -28t27.5 -41t10.5 -49.5q0 -28 -10.5 -51t-27.5 -40.5t-40 -27t-50 -9.5q-28 0 -51 9.5t-40.5 27t-27 40.5t-9.5 51zM465 322q0 27 9.5 50t27 40.5t40.5 28t51 10.5 q27 0 50 -10.5t40 -28t27.5 -41t10.5 -49.5q0 -28 -10.5 -51t-27.5 -40.5t-40 -27t-50 -9.5q-28 0 -51 9.5t-40.5 27t-27 40.5t-9.5 51z" />
<glyph unicode="&#xf8;" horiz-adv-x="1160" d="M401 172q72 -49 181 -49q77 0 135.5 27t99 78.5t61 124.5t20.5 165q0 155 -53 253zM770 859q-75 57 -188 57q-78 0 -137.5 -27.5t-100 -78.5t-61 -125.5t-20.5 -166.5q0 -164 61 -263zM944 906q63 -71 97 -168t34 -219q0 -123 -34 -221t-98.5 -168t-156 -107t-204.5 -37 q-78 0 -145 17t-123 50l-56 -76q-20 -31 -51.5 -43t-61.5 -12h-68l148 201q-68 71 -103.5 170.5t-35.5 225.5q0 122 34.5 221t99 168.5t156 107.5t206.5 38q81 0 150 -19.5t126 -55.5l70 93q18 29 35 40t51 11h91z" />
<glyph unicode="&#xf9;" horiz-adv-x="1141" d="M997 1037v-1037h-108q-39 0 -49 38l-15 112q-68 -75 -151.5 -120.5t-192.5 -45.5q-85 0 -150 28t-109 79t-66 124t-22 161v661h182v-661q0 -118 54 -182.5t165 -64.5q81 0 151 38.5t129 105.5v764h182zM469 1484q34 0 50.5 -11t30.5 -34l153 -248h-105q-22 0 -35 6.5 t-27 22.5l-240 264h173z" />
<glyph unicode="&#xfa;" horiz-adv-x="1141" d="M997 1037v-1037h-108q-39 0 -49 38l-15 112q-68 -75 -151.5 -120.5t-192.5 -45.5q-85 0 -150 28t-109 79t-66 124t-22 161v661h182v-661q0 -118 54 -182.5t165 -64.5q81 0 151 38.5t129 105.5v764h182zM870 1484l-239 -264q-14 -15 -28 -22t-35 -7h-109l152 248 q14 24 31 34.5t49 10.5h179z" />
<glyph unicode="&#xfb;" horiz-adv-x="1141" d="M997 1037v-1037h-108q-39 0 -49 38l-15 112q-68 -75 -151.5 -120.5t-192.5 -45.5q-85 0 -150 28t-109 79t-66 124t-22 161v661h182v-661q0 -118 54 -182.5t165 -64.5q81 0 151 38.5t129 105.5v764h182zM885 1197h-122q-11 0 -23 4t-23 16l-126 135q-9 8 -17 19 q-5 -5 -9 -10t-8 -9l-127 -135q-22 -19 -46 -20h-126l228 270h170z" />
<glyph unicode="&#xfc;" horiz-adv-x="1141" d="M997 1037v-1037h-108q-39 0 -49 38l-15 112q-68 -75 -151.5 -120.5t-192.5 -45.5q-85 0 -150 28t-109 79t-66 124t-22 161v661h182v-661q0 -118 54 -182.5t165 -64.5q81 0 151 38.5t129 105.5v764h182zM492 1320q0 -24 -9.5 -44.5t-25.5 -35.5t-37 -24.5t-45 -9.5 q-23 0 -43 9.5t-36 24.5t-25.5 35.5t-9.5 44.5t9.5 45t25.5 37t36 25.5t43 9.5q24 0 45 -9.5t37 -25.5t25.5 -37t9.5 -45zM882 1320q0 -24 -9.5 -44.5t-25 -35.5t-36.5 -24.5t-45 -9.5t-44.5 9.5t-36 24.5t-25 35.5t-9.5 44.5t9.5 45t25 37t36.5 25.5t44 9.5q24 0 45 -9.5 t36.5 -25.5t25 -37t9.5 -45z" />
<glyph unicode="&#xfd;" horiz-adv-x="1055" d="M1039 1037l-578 -1343q-9 -20 -23 -32.5t-43 -12.5h-135l190 411l-428 977h157q24 0 37.5 -11.5t19.5 -26.5l277 -653q16 -43 28 -90q14 48 30 91l270 652q6 16 21 27t33 11h144zM853 1484l-239 -264q-14 -15 -28 -22t-35 -7h-109l152 248q14 24 31 34.5t49 10.5h179z " />
<glyph unicode="&#xfe;" horiz-adv-x="1147" d="M328 250q50 -68 109.5 -95.5t132.5 -27.5q145 0 223 103.5t78 294.5q0 101 -17.5 174t-51.5 119.5t-83 68t-112 21.5q-89 0 -156 -41t-123 -115v-502zM328 888q66 76 148.5 121t190.5 45q90 0 162.5 -34t124 -101t79 -166t27.5 -228q0 -115 -31 -213.5t-88.5 -170.5 t-141 -113.5t-188.5 -41.5q-96 0 -163.5 35t-119.5 100v-472h-184v1859h184v-620z" />
<glyph unicode="&#xff;" horiz-adv-x="1055" d="M1039 1037l-578 -1343q-9 -20 -23 -32.5t-43 -12.5h-135l190 411l-428 977h157q24 0 37.5 -11.5t19.5 -26.5l277 -653q16 -43 28 -90q14 48 30 91l270 652q6 16 21 27t33 11h144zM475 1320q0 -24 -9.5 -44.5t-25.5 -35.5t-37 -24.5t-45 -9.5q-23 0 -43 9.5t-36 24.5 t-25.5 35.5t-9.5 44.5t9.5 45t25.5 37t36 25.5t43 9.5q24 0 45 -9.5t37 -25.5t25.5 -37t9.5 -45zM865 1320q0 -24 -9.5 -44.5t-25 -35.5t-36.5 -24.5t-45 -9.5t-44.5 9.5t-36 24.5t-25 35.5t-9.5 44.5t9.5 45t25 37t36.5 25.5t44 9.5q24 0 45 -9.5t36.5 -25.5t25 -37 t9.5 -45z" />
<glyph unicode="&#x100;" horiz-adv-x="1386" d="M967 545l-231 597q-10 27 -21.5 62t-21.5 75q-22 -83 -44 -138l-230 -596h548zM1380 0h-153q-27 0 -43.5 13.5t-24.5 33.5l-137 354h-658l-138 -354q-6 -18 -23.5 -32.5t-42.5 -14.5h-154l587 1467h201zM407 1735h571v-108h-571v108z" />
<glyph unicode="&#x101;" horiz-adv-x="1017" d="M707 467q-126 -4 -215 -20t-144.5 -41.5t-80.5 -60.5t-25 -78q0 -41 13 -70.5t36 -48.5t54.5 -27.5t67.5 -8.5q48 0 88 9.5t75 28t67.5 44t63.5 58.5v215zM118 891q86 83 185 124t220 41q87 0 154.5 -29t114 -80t70 -123.5t23.5 -159.5v-664h-81q-27 0 -41 8.5t-23 34.5 l-20 98q-41 -38 -80 -67t-82 -49t-91.5 -30.5t-108.5 -10.5t-113.5 16.5t-92.5 50.5t-62 85.5t-23 122.5q0 61 33.5 118t109.5 101t197.5 72.5t299.5 32.5v81q0 121 -52.5 182.5t-152.5 61.5q-68 0 -113.5 -17t-79 -37.5t-57.5 -37.5t-47 -17q-18 0 -31.5 9.5t-22.5 24.5z M207 1380h587v-119h-587v119z" />
<glyph unicode="&#x102;" horiz-adv-x="1386" d="M967 545l-231 597q-10 27 -21.5 62t-21.5 75q-22 -83 -44 -138l-230 -596h548zM1380 0h-153q-27 0 -43.5 13.5t-24.5 33.5l-137 354h-658l-138 -354q-6 -18 -23.5 -32.5t-42.5 -14.5h-154l587 1467h201zM693 1581q-145 0 -226.5 66.5t-81.5 204.5h142q0 -38 8.5 -67 t28 -49.5t51.5 -31t78 -10.5q92 0 128 41.5t36 116.5h142q0 -130 -80.5 -200.5t-225.5 -70.5z" />
<glyph unicode="&#x103;" horiz-adv-x="1017" d="M707 467q-126 -4 -215 -20t-144.5 -41.5t-80.5 -60.5t-25 -78q0 -41 13 -70.5t36 -48.5t54.5 -27.5t67.5 -8.5q48 0 88 9.5t75 28t67.5 44t63.5 58.5v215zM118 891q86 83 185 124t220 41q87 0 154.5 -29t114 -80t70 -123.5t23.5 -159.5v-664h-81q-27 0 -41 8.5t-23 34.5 l-20 98q-41 -38 -80 -67t-82 -49t-91.5 -30.5t-108.5 -10.5t-113.5 16.5t-92.5 50.5t-62 85.5t-23 122.5q0 61 33.5 118t109.5 101t197.5 72.5t299.5 32.5v81q0 121 -52.5 182.5t-152.5 61.5q-68 0 -113.5 -17t-79 -37.5t-57.5 -37.5t-47 -17q-18 0 -31.5 9.5t-22.5 24.5z M501 1192q-79 0 -132.5 22t-86.5 59.5t-47.5 87.5t-14.5 106h129q0 -34 7 -63t24.5 -49.5t47 -32t73.5 -11.5t73 11.5t46.5 32t24.5 50t7 62.5h129q0 -56 -14 -106t-47.5 -87.5t-87 -59.5t-131.5 -22z" />
<glyph unicode="&#x104;" horiz-adv-x="1384" d="M966 545l-231 597q-10 27 -21.5 62t-21.5 75q-22 -83 -44 -138l-230 -596h548zM1455 -297q-31 -24 -78.5 -38.5t-99.5 -14.5q-90 0 -142 40.5t-52 107.5q0 58 40.5 110.5t102.5 91.5q-27 0 -43.5 13.5t-24.5 33.5l-137 354h-659l-137 -354q-6 -18 -23.5 -32.5 t-42.5 -14.5h-154l587 1467h201l586 -1467h-37q-20 -11 -41.5 -27t-39 -36t-28.5 -44t-11 -51q0 -39 25 -61t68 -22q24 0 39 4t25.5 8.5t17 8.5t11.5 4q7 0 11.5 -4t6.5 -9z" />
<glyph unicode="&#x105;" horiz-adv-x="1017" d="M707 467q-126 -4 -215 -20t-144.5 -41.5t-80.5 -60.5t-25 -78q0 -41 13 -70.5t36 -48.5t54.5 -27.5t67.5 -8.5q48 0 88 9.5t75 28t67.5 44t63.5 58.5v215zM997 -297q-31 -24 -78.5 -38.5t-99.5 -14.5q-90 0 -141.5 40.5t-51.5 107.5q0 30 11 58.5t31 55t47 49.5t59 42 q-12 5 -20.5 14t-13.5 26l-20 98q-41 -38 -80 -67t-82 -49t-91.5 -30.5t-108.5 -10.5t-113.5 16.5t-92.5 50.5t-62 85.5t-23 122.5q0 61 33.5 118t109.5 101t197.5 72.5t299.5 32.5v81q0 121 -52.5 182.5t-152.5 61.5q-68 0 -113.5 -17t-79 -37.5t-57.5 -37.5t-47 -17 q-18 0 -31.5 9.5t-22.5 24.5l-33 58q86 83 185 124t220 41q87 0 154.5 -29t114 -80t70 -123.5t23.5 -159.5v-664q-20 -11 -42 -27t-39.5 -36t-28.5 -44t-11 -51q0 -39 25 -61t68 -22q24 0 39 4t25.5 8.5t17 8.5t11.5 4q7 0 12 -4t7 -9z" />
<glyph unicode="&#x106;" horiz-adv-x="1368" d="M1217 303q16 0 28 -13l79 -85q-90 -104 -218.5 -162.5t-310.5 -58.5q-158 0 -287 54.5t-220 153.5t-141.5 237t-50.5 304t52.5 304.5t147 237.5t226.5 154t292 55q157 0 276.5 -50.5t211.5 -136.5l-66 -91q-6 -10 -16 -16.5t-26 -6.5q-18 0 -45 20t-70 44.5t-107.5 44.5 t-158.5 20q-114 0 -208 -39.5t-162 -114.5t-106 -182.5t-38 -242.5q0 -137 39.5 -244.5t107.5 -182t160.5 -113t200.5 -38.5q66 0 118.5 7.5t97 24t83 41.5t76.5 60q18 15 35 15zM1218 1896l-334 -292q-15 -14 -29.5 -17.5t-34.5 -3.5h-131l236 281q17 23 35 27.5t52 4.5 h206z" />
<glyph unicode="&#x107;" horiz-adv-x="977" d="M866 853q-8 -11 -16 -17.5t-23 -6.5t-33.5 13t-45.5 28.5t-66.5 28t-96.5 12.5q-77 0 -135.5 -27t-98 -78t-59.5 -124t-20 -163q0 -94 21.5 -167t61 -123t95.5 -76t125 -26q67 0 110 16t71 35.5t47 35t38 15.5q23 0 35 -17l51 -67q-34 -42 -77 -71.5t-92.5 -49.5 t-104 -29t-110.5 -9q-97 0 -180.5 35.5t-145 104t-96.5 167.5t-35 226q0 116 32.5 214t94 169.5t152.5 111.5t208 40q110 0 193.5 -35.5t147.5 -99.5zM868 1484l-239 -264q-14 -15 -28 -22t-35 -7h-109l152 248q14 24 31 34.5t49 10.5h179z" />
<glyph unicode="&#x108;" horiz-adv-x="1368" d="M1217 303q16 0 28 -13l79 -85q-90 -104 -218.5 -162.5t-310.5 -58.5q-158 0 -287 54.5t-220 153.5t-141.5 237t-50.5 304t52.5 304.5t147 237.5t226.5 154t292 55q157 0 276.5 -50.5t211.5 -136.5l-66 -91q-6 -10 -16 -16.5t-26 -6.5q-18 0 -45 20t-70 44.5t-107.5 44.5 t-158.5 20q-114 0 -208 -39.5t-162 -114.5t-106 -182.5t-38 -242.5q0 -137 39.5 -244.5t107.5 -182t160.5 -113t200.5 -38.5q66 0 118.5 7.5t97 24t83 41.5t76.5 60q18 15 35 15zM1159 1583h-133q-12 0 -29 4.5t-34 25.5l-120 144l-12 19l-13 -19l-119 -144 q-17 -20 -34.5 -25t-29.5 -5h-128l245 278h164z" />
<glyph unicode="&#x109;" horiz-adv-x="977" d="M866 853q-8 -11 -16 -17.5t-23 -6.5t-33.5 13t-45.5 28.5t-66.5 28t-96.5 12.5q-77 0 -135.5 -27t-98 -78t-59.5 -124t-20 -163q0 -94 21.5 -167t61 -123t95.5 -76t125 -26q67 0 110 16t71 35.5t47 35t38 15.5q23 0 35 -17l51 -67q-34 -42 -77 -71.5t-92.5 -49.5 t-104 -29t-110.5 -9q-97 0 -180.5 35.5t-145 104t-96.5 167.5t-35 226q0 116 32.5 214t94 169.5t152.5 111.5t208 40q110 0 193.5 -35.5t147.5 -99.5zM883 1197h-122q-11 0 -23 4t-23 16l-126 135q-9 8 -17 19q-5 -5 -9 -10t-8 -9l-127 -135q-22 -19 -46 -20h-126l228 270 h170z" />
<glyph unicode="&#x10a;" horiz-adv-x="1368" d="M1217 303q16 0 28 -13l79 -85q-90 -104 -218.5 -162.5t-310.5 -58.5q-158 0 -287 54.5t-220 153.5t-141.5 237t-50.5 304t52.5 304.5t147 237.5t226.5 154t292 55q157 0 276.5 -50.5t211.5 -136.5l-66 -91q-6 -10 -16 -16.5t-26 -6.5q-18 0 -45 20t-70 44.5t-107.5 44.5 t-158.5 20q-114 0 -208 -39.5t-162 -114.5t-106 -182.5t-38 -242.5q0 -137 39.5 -244.5t107.5 -182t160.5 -113t200.5 -38.5q66 0 118.5 7.5t97 24t83 41.5t76.5 60q18 15 35 15zM955 1728q0 -25 -10.5 -47.5t-28 -39.5t-40.5 -27t-48 -10t-47.5 10t-39.5 27t-26.5 39.5 t-9.5 47.5q0 26 9.5 48t26.5 39.5t39.5 27.5t47.5 10q26 0 48.5 -10t40 -27.5t28 -39.5t10.5 -48z" />
<glyph unicode="&#x10b;" horiz-adv-x="977" d="M866 853q-8 -11 -16 -17.5t-23 -6.5t-33.5 13t-45.5 28.5t-66.5 28t-96.5 12.5q-77 0 -135.5 -27t-98 -78t-59.5 -124t-20 -163q0 -94 21.5 -167t61 -123t95.5 -76t125 -26q67 0 110 16t71 35.5t47 35t38 15.5q23 0 35 -17l51 -67q-34 -42 -77 -71.5t-92.5 -49.5 t-104 -29t-110.5 -9q-97 0 -180.5 35.5t-145 104t-96.5 167.5t-35 226q0 116 32.5 214t94 169.5t152.5 111.5t208 40q110 0 193.5 -35.5t147.5 -99.5zM700 1370q0 -27 -11 -50t-29 -40t-41.5 -27.5t-49.5 -10.5q-27 0 -50 10.5t-40.5 27.5t-27.5 40t-10 50t10 51t27.5 42 t40.5 28t50 10t50 -10t41 -28t29 -42t11 -51z" />
<glyph unicode="&#x10c;" horiz-adv-x="1368" d="M1217 303q16 0 28 -13l79 -85q-90 -104 -218.5 -162.5t-310.5 -58.5q-158 0 -287 54.5t-220 153.5t-141.5 237t-50.5 304t52.5 304.5t147 237.5t226.5 154t292 55q157 0 276.5 -50.5t211.5 -136.5l-66 -91q-6 -10 -16 -16.5t-26 -6.5q-18 0 -45 20t-70 44.5t-107.5 44.5 t-158.5 20q-114 0 -208 -39.5t-162 -114.5t-106 -182.5t-38 -242.5q0 -137 39.5 -244.5t107.5 -182t160.5 -113t200.5 -38.5q66 0 118.5 7.5t97 24t83 41.5t76.5 60q18 15 35 15zM1159 1861l-243 -278h-170l-244 278h133q12 0 29 -3.5t29 -20.5l125 -155l13 -18l12 18 l124 154q13 18 30 21.5t29 3.5h133z" />
<glyph unicode="&#x10d;" horiz-adv-x="977" d="M866 853q-8 -11 -16 -17.5t-23 -6.5t-33.5 13t-45.5 28.5t-66.5 28t-96.5 12.5q-77 0 -135.5 -27t-98 -78t-59.5 -124t-20 -163q0 -94 21.5 -167t61 -123t95.5 -76t125 -26q67 0 110 16t71 35.5t47 35t38 15.5q23 0 35 -17l51 -67q-34 -42 -77 -71.5t-92.5 -49.5 t-104 -29t-110.5 -9q-97 0 -180.5 35.5t-145 104t-96.5 167.5t-35 226q0 116 32.5 214t94 169.5t152.5 111.5t208 40q110 0 193.5 -35.5t147.5 -99.5zM883 1467l-228 -270h-170l-229 270h126q12 0 23.5 -5t17.5 -10l131 -139q5 -5 9 -10.5t9 -10.5q5 5 8.5 10.5t8.5 10.5 l131 139q7 5 18.5 10t22.5 5h122z" />
<glyph unicode="&#x10e;" horiz-adv-x="1557" d="M1459 733q0 -165 -52 -300t-147.5 -231.5t-229 -149t-295.5 -52.5h-548v1467h548q162 0 295.5 -52.5t229 -149.5t147.5 -232t52 -300zM1255 733q0 135 -36.5 241.5t-104 180.5t-164 113t-215.5 39h-349v-1146h349q119 0 215.5 39t164 112t104 179.5t36.5 241.5z M1030 1861l-243 -278h-170l-244 278h133q12 0 29 -3.5t29 -20.5l125 -155l13 -18l12 18l124 154q13 18 30 21.5t29 3.5h133z" />
<glyph unicode="&#x10f;" horiz-adv-x="1146" d="M820 791q-51 69 -110.5 95.5t-132.5 26.5q-144 0 -222.5 -103t-78.5 -295q0 -101 17.5 -173.5t51.5 -119t83 -68t112 -21.5q90 0 157 41t123 116v501zM1002 1508v-1508h-108q-39 0 -49 38l-17 126q-67 -80 -151.5 -129t-196.5 -49q-89 0 -161.5 34t-124 100.5t-79 166 t-27.5 228.5q0 115 31 213.5t88 171.5t140.5 114.5t188.5 41.5q95 0 163 -32.5t121 -89.5v574h182zM1287 1510q23 0 28.5 -10.5t5.5 -22.5q0 -10 -3.5 -27t-12.5 -47.5t-25.5 -76.5t-42.5 -114q-10 -23 -25 -29.5t-40 -6.5h-64l59 334h120z" />
<glyph unicode="&#x110;" horiz-adv-x="1573" d="M753 161q118 0 214 39t163.5 112t104.5 179.5t37 241.5t-37 241.5t-104.5 180.5t-164 113t-213.5 39h-350v-508h297v-117h-297v-521h350zM753 1467q162 0 295 -52.5t228 -149.5t147.5 -232t52.5 -300t-52.5 -300t-147.5 -231.5t-228.5 -149t-294.5 -52.5h-549v682h-201 v117h201v668h549z" />
<glyph unicode="&#x111;" horiz-adv-x="1147" d="M821 768q-51 69 -110.5 96.5t-132.5 27.5q-144 0 -222 -98.5t-78 -289.5q0 -101 17 -172t51 -115t83 -64t112 -20q90 0 157 41t123 116v478zM1155 1170h-151v-1170h-109q-39 0 -49 38l-17 127q-66 -81 -151 -130t-197 -49q-89 0 -161.5 32.5t-124 97t-79 162t-27.5 226.5 q0 115 31 212t88 167.5t140.5 110t188.5 39.5q95 0 163 -32t121 -90v259h-242v116h242v222h183v-222h151v-116z" />
<glyph unicode="&#x112;" horiz-adv-x="1182" d="M1093 162l-1 -162h-905v1467h905v-161h-706v-488h571v-155h-571v-501h707zM367 1735h571v-108h-571v108z" />
<glyph unicode="&#x113;" horiz-adv-x="1081" d="M839 632q0 63 -18 116t-52.5 91.5t-83.5 59.5t-112 21q-131 0 -207 -76.5t-95 -211.5h568zM986 145q-34 -41 -81 -71t-100.5 -49.5t-111 -29t-113.5 -9.5q-108 0 -198.5 36t-156.5 106.5t-103 174t-37 237.5q0 109 33.5 203t95.5 163t152.5 108.5t202.5 39.5 q93 0 172.5 -31.5t137.5 -90.5t90.5 -145.5t32.5 -196.5q0 -43 -9 -57.5t-35 -14.5h-693q3 -98 27 -171t67 -121.5t102.5 -72.5t133.5 -24q69 0 118.5 16t85.5 34.5t60 34t41 15.5q23 0 35 -17zM280 1380h587v-119h-587v119z" />
<glyph unicode="&#x114;" horiz-adv-x="1182" d="M1093 162l-1 -162h-905v1467h905v-161h-706v-488h571v-155h-571v-501h707zM653 1581q-145 0 -226.5 66.5t-81.5 204.5h142q0 -38 8.5 -67t28 -49.5t51.5 -31t78 -10.5q92 0 128 41.5t36 116.5h142q0 -130 -80.5 -200.5t-225.5 -70.5z" />
<glyph unicode="&#x115;" horiz-adv-x="1081" d="M839 632q0 63 -18 116t-52.5 91.5t-83.5 59.5t-112 21q-131 0 -207 -76.5t-95 -211.5h568zM986 145q-34 -41 -81 -71t-100.5 -49.5t-111 -29t-113.5 -9.5q-108 0 -198.5 36t-156.5 106.5t-103 174t-37 237.5q0 109 33.5 203t95.5 163t152.5 108.5t202.5 39.5 q93 0 172.5 -31.5t137.5 -90.5t90.5 -145.5t32.5 -196.5q0 -43 -9 -57.5t-35 -14.5h-693q3 -98 27 -171t67 -121.5t102.5 -72.5t133.5 -24q69 0 118.5 16t85.5 34.5t60 34t41 15.5q23 0 35 -17zM574 1192q-79 0 -132.5 22t-86.5 59.5t-47.5 87.5t-14.5 106h129q0 -34 7 -63 t24.5 -49.5t47 -32t73.5 -11.5t73 11.5t46.5 32t24.5 50t7 62.5h129q0 -56 -14 -106t-47.5 -87.5t-87 -59.5t-131.5 -22z" />
<glyph unicode="&#x116;" horiz-adv-x="1182" d="M1093 162l-1 -162h-905v1467h905v-161h-706v-488h571v-155h-571v-501h707zM777 1728q0 -25 -10.5 -47.5t-28 -39.5t-40.5 -27t-48 -10t-47.5 10t-39.5 27t-26.5 39.5t-9.5 47.5q0 26 9.5 48t26.5 39.5t39.5 27.5t47.5 10q26 0 48.5 -10t40 -27.5t28 -39.5t10.5 -48z" />
<glyph unicode="&#x117;" horiz-adv-x="1081" d="M839 632q0 63 -18 116t-52.5 91.5t-83.5 59.5t-112 21q-131 0 -207 -76.5t-95 -211.5h568zM986 145q-34 -41 -81 -71t-100.5 -49.5t-111 -29t-113.5 -9.5q-108 0 -198.5 36t-156.5 106.5t-103 174t-37 237.5q0 109 33.5 203t95.5 163t152.5 108.5t202.5 39.5 q93 0 172.5 -31.5t137.5 -90.5t90.5 -145.5t32.5 -196.5q0 -43 -9 -57.5t-35 -14.5h-693q3 -98 27 -171t67 -121.5t102.5 -72.5t133.5 -24q69 0 118.5 16t85.5 34.5t60 34t41 15.5q23 0 35 -17zM704 1370q0 -27 -11 -50t-29 -40t-41.5 -27.5t-49.5 -10.5q-27 0 -50 10.5 t-40.5 27.5t-27.5 40t-10 50t10 51t27.5 42t40.5 28t50 10t50 -10t41 -28t29 -42t11 -51z" />
<glyph unicode="&#x118;" horiz-adv-x="1182" d="M1111 -297q-31 -24 -78.5 -38.5t-99.5 -14.5q-90 0 -142 40.5t-52 107.5q0 58 40.5 110.5t102.5 91.5h-695v1467h905v-161h-706v-488h571v-155h-571v-501h707l-1 -162h-94q-20 -11 -41.5 -27t-39 -36t-28.5 -44t-11 -51q0 -39 25 -61t68 -22q24 0 39 4t25.5 8.5t17 8.5 t11.5 4q7 0 11.5 -4t6.5 -9z" />
<glyph unicode="&#x119;" horiz-adv-x="1081" d="M839 632q0 63 -18 116t-52.5 91.5t-83.5 59.5t-112 21q-131 0 -207 -76.5t-95 -211.5h568zM815 -297q-31 -24 -78.5 -38.5t-99.5 -14.5q-90 0 -142 40.5t-52 107.5q0 53 34 101.5t87 86.5q-104 3 -192 40t-151.5 107.5t-99.5 172.5t-36 234q0 109 33.5 203t95.5 163 t152.5 108.5t202.5 39.5q93 0 172.5 -31.5t137.5 -90.5t90.5 -145.5t32.5 -196.5q0 -43 -9 -57.5t-35 -14.5h-693q3 -98 27 -171t67 -121.5t102.5 -72.5t133.5 -24q69 0 118.5 16t85.5 34.5t60 34t41 15.5q23 0 35 -17l51 -67q-52 -61 -129 -98.5t-163 -51.5 q-19 -11 -39 -27t-36.5 -35t-26.5 -42t-10 -49q0 -39 25 -61t68 -22q24 0 39 4t25.5 8.5t17 8.5t11.5 4q7 0 11.5 -4t6.5 -9z" />
<glyph unicode="&#x11a;" horiz-adv-x="1182" d="M1093 162l-1 -162h-905v1467h905v-161h-706v-488h571v-155h-571v-501h707zM981 1861l-243 -278h-170l-244 278h133q12 0 29 -3.5t29 -20.5l125 -155l13 -18l12 18l124 154q13 18 30 21.5t29 3.5h133z" />
<glyph unicode="&#x11b;" horiz-adv-x="1081" d="M839 632q0 63 -18 116t-52.5 91.5t-83.5 59.5t-112 21q-131 0 -207 -76.5t-95 -211.5h568zM986 145q-34 -41 -81 -71t-100.5 -49.5t-111 -29t-113.5 -9.5q-108 0 -198.5 36t-156.5 106.5t-103 174t-37 237.5q0 109 33.5 203t95.5 163t152.5 108.5t202.5 39.5 q93 0 172.5 -31.5t137.5 -90.5t90.5 -145.5t32.5 -196.5q0 -43 -9 -57.5t-35 -14.5h-693q3 -98 27 -171t67 -121.5t102.5 -72.5t133.5 -24q69 0 118.5 16t85.5 34.5t60 34t41 15.5q23 0 35 -17zM887 1467l-228 -270h-170l-229 270h126q12 0 23.5 -5t17.5 -10l131 -139 q5 -5 9 -10.5t9 -10.5q5 5 8.5 10.5t8.5 10.5l131 139q7 5 18.5 10t22.5 5h122z" />
<glyph unicode="&#x11c;" horiz-adv-x="1496" d="M1379 706v-564q-111 -80 -236 -119t-275 -39q-177 0 -319 54.5t-243 153.5t-155.5 237t-54.5 304q0 168 53 306.5t150 237t236.5 153t311.5 54.5q87 0 161.5 -13t138 -37t118 -58.5t101.5 -77.5l-56 -90q-13 -20 -34.5 -25.5t-46.5 9.5q-25 14 -56.5 34.5t-77 39.5 t-107.5 32.5t-147 13.5q-124 0 -224.5 -40.5t-171 -116t-108.5 -182.5t-38 -240q0 -138 39.5 -247t112.5 -185.5t177.5 -116.5t234.5 -40q102 0 181.5 23t155.5 64v323h-228q-19 0 -31 11.5t-12 27.5v113h450zM1177 1583h-133q-12 0 -29 4.5t-34 25.5l-120 144l-12 19 l-13 -19l-119 -144q-17 -20 -34.5 -25t-29.5 -5h-128l245 278h164z" />
<glyph unicode="&#x11d;" horiz-adv-x="1064" d="M506 507q55 0 97 15.5t70.5 43t43 66t14.5 84.5q0 95 -58 151.5t-167 56.5q-111 0 -168.5 -56.5t-57.5 -151.5q0 -46 14.5 -84.5t43.5 -66t71 -43t97 -15.5zM835 -56q0 38 -21.5 61.5t-58 36.5t-84.5 19t-102 9t-109.5 6t-106.5 10q-57 -27 -93.5 -67.5t-36.5 -94.5 q0 -35 18 -65t55 -52t92.5 -35t131.5 -13q74 0 132.5 13.5t99 38t62 58.5t21.5 75zM1020 996v-67q0 -34 -43 -43l-118 -16q35 -68 35 -149q0 -76 -29 -138t-80.5 -106t-123 -67.5t-155.5 -23.5q-73 0 -137 17q-33 -20 -50.5 -43t-17.5 -47q0 -37 30 -55.5t79.5 -27 t112.5 -10.5t129 -6.5t129 -16t112 -37t79 -70.5t30 -117q0 -67 -33 -129t-95.5 -110.5t-153 -78t-204.5 -29.5t-199 22.5t-141 60.5t-84.5 87.5t-28.5 104.5q0 77 48.5 130t132.5 85q-46 20 -73.5 54.5t-27.5 92.5q0 23 8.5 47t25.5 48t41.5 45.5t56.5 37.5 q-77 43 -119.5 114.5t-42.5 165.5q0 76 29 138t81 105.5t124.5 67t158.5 23.5q68 0 126 -15t106 -44h282zM843 1197h-122q-11 0 -23 4t-23 16l-126 135q-9 8 -17 19q-5 -5 -9 -10t-8 -9l-127 -135q-22 -19 -46 -20h-126l228 270h170z" />
<glyph unicode="&#x11e;" horiz-adv-x="1496" d="M1379 706v-564q-111 -80 -236 -119t-275 -39q-177 0 -319 54.5t-243 153.5t-155.5 237t-54.5 304q0 168 53 306.5t150 237t236.5 153t311.5 54.5q87 0 161.5 -13t138 -37t118 -58.5t101.5 -77.5l-56 -90q-13 -20 -34.5 -25.5t-46.5 9.5q-25 14 -56.5 34.5t-77 39.5 t-107.5 32.5t-147 13.5q-124 0 -224.5 -40.5t-171 -116t-108.5 -182.5t-38 -240q0 -138 39.5 -247t112.5 -185.5t177.5 -116.5t234.5 -40q102 0 181.5 23t155.5 64v323h-228q-19 0 -31 11.5t-12 27.5v113h450zM849 1581q-145 0 -226.5 66.5t-81.5 204.5h142q0 -38 8.5 -67 t28 -49.5t51.5 -31t78 -10.5q92 0 128 41.5t36 116.5h142q0 -130 -80.5 -200.5t-225.5 -70.5z" />
<glyph unicode="&#x11f;" horiz-adv-x="1064" d="M506 507q55 0 97 15.5t70.5 43t43 66t14.5 84.5q0 95 -58 151.5t-167 56.5q-111 0 -168.5 -56.5t-57.5 -151.5q0 -46 14.5 -84.5t43.5 -66t71 -43t97 -15.5zM835 -56q0 38 -21.5 61.5t-58 36.5t-84.5 19t-102 9t-109.5 6t-106.5 10q-57 -27 -93.5 -67.5t-36.5 -94.5 q0 -35 18 -65t55 -52t92.5 -35t131.5 -13q74 0 132.5 13.5t99 38t62 58.5t21.5 75zM1020 996v-67q0 -34 -43 -43l-118 -16q35 -68 35 -149q0 -76 -29 -138t-80.5 -106t-123 -67.5t-155.5 -23.5q-73 0 -137 17q-33 -20 -50.5 -43t-17.5 -47q0 -37 30 -55.5t79.5 -27 t112.5 -10.5t129 -6.5t129 -16t112 -37t79 -70.5t30 -117q0 -67 -33 -129t-95.5 -110.5t-153 -78t-204.5 -29.5t-199 22.5t-141 60.5t-84.5 87.5t-28.5 104.5q0 77 48.5 130t132.5 85q-46 20 -73.5 54.5t-27.5 92.5q0 23 8.5 47t25.5 48t41.5 45.5t56.5 37.5 q-77 43 -119.5 114.5t-42.5 165.5q0 76 29 138t81 105.5t124.5 67t158.5 23.5q68 0 126 -15t106 -44h282zM530 1192q-79 0 -132.5 22t-86.5 59.5t-47.5 87.5t-14.5 106h129q0 -34 7 -63t24.5 -49.5t47 -32t73.5 -11.5t73 11.5t46.5 32t24.5 50t7 62.5h129q0 -56 -14 -106 t-47.5 -87.5t-87 -59.5t-131.5 -22z" />
<glyph unicode="&#x120;" horiz-adv-x="1496" d="M1379 706v-564q-111 -80 -236 -119t-275 -39q-177 0 -319 54.5t-243 153.5t-155.5 237t-54.5 304q0 168 53 306.5t150 237t236.5 153t311.5 54.5q87 0 161.5 -13t138 -37t118 -58.5t101.5 -77.5l-56 -90q-13 -20 -34.5 -25.5t-46.5 9.5q-25 14 -56.5 34.5t-77 39.5 t-107.5 32.5t-147 13.5q-124 0 -224.5 -40.5t-171 -116t-108.5 -182.5t-38 -240q0 -138 39.5 -247t112.5 -185.5t177.5 -116.5t234.5 -40q102 0 181.5 23t155.5 64v323h-228q-19 0 -31 11.5t-12 27.5v113h450zM973 1728q0 -25 -10.5 -47.5t-28 -39.5t-40.5 -27t-48 -10 t-47.5 10t-39.5 27t-26.5 39.5t-9.5 47.5q0 26 9.5 48t26.5 39.5t39.5 27.5t47.5 10q26 0 48.5 -10t40 -27.5t28 -39.5t10.5 -48z" />
<glyph unicode="&#x121;" horiz-adv-x="1064" d="M506 507q55 0 97 15.5t70.5 43t43 66t14.5 84.5q0 95 -58 151.5t-167 56.5q-111 0 -168.5 -56.5t-57.5 -151.5q0 -46 14.5 -84.5t43.5 -66t71 -43t97 -15.5zM835 -56q0 38 -21.5 61.5t-58 36.5t-84.5 19t-102 9t-109.5 6t-106.5 10q-57 -27 -93.5 -67.5t-36.5 -94.5 q0 -35 18 -65t55 -52t92.5 -35t131.5 -13q74 0 132.5 13.5t99 38t62 58.5t21.5 75zM1020 996v-67q0 -34 -43 -43l-118 -16q35 -68 35 -149q0 -76 -29 -138t-80.5 -106t-123 -67.5t-155.5 -23.5q-73 0 -137 17q-33 -20 -50.5 -43t-17.5 -47q0 -37 30 -55.5t79.5 -27 t112.5 -10.5t129 -6.5t129 -16t112 -37t79 -70.5t30 -117q0 -67 -33 -129t-95.5 -110.5t-153 -78t-204.5 -29.5t-199 22.5t-141 60.5t-84.5 87.5t-28.5 104.5q0 77 48.5 130t132.5 85q-46 20 -73.5 54.5t-27.5 92.5q0 23 8.5 47t25.5 48t41.5 45.5t56.5 37.5 q-77 43 -119.5 114.5t-42.5 165.5q0 76 29 138t81 105.5t124.5 67t158.5 23.5q68 0 126 -15t106 -44h282zM660 1370q0 -27 -11 -50t-29 -40t-41.5 -27.5t-49.5 -10.5q-27 0 -50 10.5t-40.5 27.5t-27.5 40t-10 50t10 51t27.5 42t40.5 28t50 10t50 -10t41 -28t29 -42t11 -51z " />
<glyph unicode="&#x122;" horiz-adv-x="1496" d="M1379 706v-564q-111 -80 -236 -119t-275 -39q-177 0 -319 54.5t-243 153.5t-155.5 237t-54.5 304q0 168 53 306.5t150 237t236.5 153t311.5 54.5q87 0 161.5 -13t138 -37t118 -58.5t101.5 -77.5l-56 -90q-13 -20 -34.5 -25.5t-46.5 9.5q-25 14 -56.5 34.5t-77 39.5 t-107.5 32.5t-147 13.5q-124 0 -224.5 -40.5t-171 -116t-108.5 -182.5t-38 -240q0 -138 39.5 -247t112.5 -185.5t177.5 -116.5t234.5 -40q102 0 181.5 23t155.5 64v323h-228q-19 0 -31 11.5t-12 27.5v113h450zM817 -98q24 0 29.5 -11t5.5 -23q0 -9 -2.5 -26.5t-10.5 -44.5 t-20.5 -66t-32.5 -92q-10 -23 -25 -30t-40 -7h-64l50 300h110z" />
<glyph unicode="&#x123;" horiz-adv-x="1064" d="M506 507q55 0 97 15.5t70.5 43t43 66t14.5 84.5q0 95 -58 151.5t-167 56.5q-111 0 -168.5 -56.5t-57.5 -151.5q0 -46 14.5 -84.5t43.5 -66t71 -43t97 -15.5zM835 -56q0 38 -21.5 61.5t-58 36.5t-84.5 19t-102 9t-109.5 6t-106.5 10q-57 -27 -93.5 -67.5t-36.5 -94.5 q0 -35 18 -65t55 -52t92.5 -35t131.5 -13q74 0 132.5 13.5t99 38t62 58.5t21.5 75zM1020 996v-67q0 -34 -43 -43l-118 -16q35 -68 35 -149q0 -76 -29 -138t-80.5 -106t-123 -67.5t-155.5 -23.5q-73 0 -137 17q-33 -20 -50.5 -43t-17.5 -47q0 -37 30 -55.5t79.5 -27 t112.5 -10.5t129 -6.5t129 -16t112 -37t79 -70.5t30 -117q0 -67 -33 -129t-95.5 -110.5t-153 -78t-204.5 -29.5t-199 22.5t-141 60.5t-84.5 87.5t-28.5 104.5q0 77 48.5 130t132.5 85q-46 20 -73.5 54.5t-27.5 92.5q0 23 8.5 47t25.5 48t41.5 45.5t56.5 37.5 q-77 43 -119.5 114.5t-42.5 165.5q0 76 29 138t81 105.5t124.5 67t158.5 23.5q68 0 126 -15t106 -44h282zM607 1186h-161l97 289h116z" />
<glyph unicode="&#x124;" horiz-adv-x="1563" d="M1376 1467v-1467h-198v668h-792v-668h-199v1467h199v-654h792v654h198zM1115 1583h-133q-12 0 -29 4.5t-34 25.5l-120 144l-12 19l-13 -19l-119 -144q-17 -20 -34.5 -25t-29.5 -5h-128l245 278h164z" />
<glyph unicode="&#x125;" horiz-adv-x="1142" d="M561 1583h-133q-12 0 -29 4.5t-34 25.5l-120 144l-13 19l-12 -19l-120 -144q-17 -20 -34 -25t-29 -5h-128l245 278h163zM328 899q67 71 147.5 113t186.5 42q85 0 150 -28.5t108.5 -80t66 -124t22.5 -161.5v-660h-184v660q0 118 -53.5 183t-163.5 65q-81 0 -151 -39 t-129 -105v-764h-184v1508h184v-609z" />
<glyph unicode="&#x126;" horiz-adv-x="1579" d="M1185 1063h-792v-250h792v250zM1551 1063h-168v-1063h-198v668h-792v-668h-198v1063h-167v118h167v286h198v-286h792v286h198v-286h168v-118z" />
<glyph unicode="&#x127;" horiz-adv-x="1142" d="M327 876q66 70 147.5 112.5t185.5 42.5q85 0 150.5 -28t109 -80t66 -124t22.5 -160v-639h-183v639q0 117 -53.5 182t-164.5 65q-81 0 -151 -38.5t-129 -106.5v-741h-183v1185h-157v115h157v208h183v-208h300v-115h-300v-309z" />
<glyph unicode="&#x128;" horiz-adv-x="573" d="M386 0h-199v1467h199v-1467zM419 1703q24 0 41.5 8.5t30 23.5t18.5 33.5t6 36.5h111q0 -44 -12 -84.5t-36 -71.5t-59 -49.5t-80 -18.5q-46 0 -82.5 17t-67.5 37t-58.5 37t-56.5 17q-24 0 -41 -9.5t-29 -24.5t-18 -33t-6 -37h-114q0 44 13 85t36.5 72.5t58 49.5t79.5 18 q46 0 83 -16.5t68 -36.5t58.5 -37t56.5 -17z" />
<glyph unicode="&#x129;" horiz-adv-x="491" d="M337 1037v-1037h-183v1037h183zM363 1357q37 0 57 21.5t21 66.5h111q0 -48 -13 -88.5t-37 -69.5t-57.5 -44.5t-74.5 -15.5q-36 0 -67 14.5t-58.5 32t-52 32.5t-48.5 15q-74 0 -76 -90h-113q0 49 13 89.5t37.5 69.5t58.5 45t74 16q36 0 67 -15t59 -32.5t51.5 -32 t47.5 -14.5z" />
<glyph unicode="&#x12a;" horiz-adv-x="573" d="M386 0h-199v1467h199v-1467zM4 1735h571v-108h-571v108z" />
<glyph unicode="&#x12b;" horiz-adv-x="491" d="M337 1037v-1037h-183v1037h183zM-43 1380h587v-119h-587v119z" />
<glyph unicode="&#x12c;" horiz-adv-x="573" d="M386 0h-199v1467h199v-1467zM290 1581q-145 0 -226.5 66.5t-81.5 204.5h142q0 -38 8.5 -67t28 -49.5t51.5 -31t78 -10.5q92 0 128 41.5t36 116.5h142q0 -130 -80.5 -200.5t-225.5 -70.5z" />
<glyph unicode="&#x12d;" horiz-adv-x="491" d="M337 1037v-1037h-183v1037h183zM251 1192q-79 0 -132.5 22t-86.5 59.5t-47.5 87.5t-14.5 106h129q0 -34 7 -63t24.5 -49.5t47 -32t73.5 -11.5t73 11.5t46.5 32t24.5 50t7 62.5h129q0 -56 -14 -106t-47.5 -87.5t-87 -59.5t-131.5 -22z" />
<glyph unicode="&#x12e;" horiz-adv-x="574" d="M472 -297q-31 -24 -78.5 -38.5t-99.5 -14.5q-90 0 -142 40.5t-52 107.5q0 58 40.5 110.5t102.5 91.5h-55v1467h199v-1467h-28q-20 -11 -41.5 -27t-39 -36t-28.5 -44t-11 -51q0 -39 25 -61t68 -22q24 0 39 4t25.5 8.5t17 8.5t11.5 4q7 0 11.5 -4t6.5 -9z" />
<glyph unicode="&#x12f;" horiz-adv-x="491" d="M244 1234q-27 0 -50 10t-40.5 28t-27.5 41t-10 50t10 51t27.5 42t40.5 28t50 10t50.5 -10t41.5 -28t29 -42t11 -51t-11 -50t-29 -41t-41.5 -28t-50.5 -10zM434 -297q-31 -24 -78.5 -38.5t-99.5 -14.5q-90 0 -142 40.5t-52 107.5q0 58 40.5 110.5t102.5 91.5h-50v1037h182 v-1037h-15q-20 -11 -42 -27t-39.5 -36t-28.5 -44t-11 -51q0 -39 25 -61t68 -22q24 0 39 4t25.5 8.5t17 8.5t11.5 4q7 0 11.5 -4t7.5 -9z" />
<glyph unicode="&#x130;" horiz-adv-x="573" d="M386 0h-199v1467h199v-1467zM414 1728q0 -25 -10.5 -47.5t-28 -39.5t-40.5 -27t-48 -10t-47.5 10t-39.5 27t-26.5 39.5t-9.5 47.5q0 26 9.5 48t26.5 39.5t39.5 27.5t47.5 10q26 0 48.5 -10t40 -27.5t28 -39.5t10.5 -48z" />
<glyph unicode="&#x131;" horiz-adv-x="492" d="M338 1037v-1037h-183v1037h183z" />
<glyph unicode="&#x132;" horiz-adv-x="1505" d="M386 0h-199v1467h199v-1467zM1333 507q0 -123 -30 -220.5t-89 -164.5t-145 -102.5t-198 -35.5q-101 0 -206 28q2 30 5 59t5 58q2 17 12.5 28t33.5 11q18 0 48.5 -9t81.5 -9q68 0 121 20t89 63t55 110.5t19 159.5v964h198v-960z" />
<glyph unicode="&#x133;" horiz-adv-x="1013" d="M337 1037v-1037h-182v1037h182zM376 1363q0 -27 -11 -50t-29 -41t-42 -28t-50 -10q-27 0 -50 10t-40.5 28t-27.5 41t-10 50t10 51t27.5 42t40.5 28t50 10t50.5 -10t41.5 -28t29 -42t11 -51zM859 1037v-1114q0 -62 -16.5 -116t-52.5 -94t-91.5 -63t-133.5 -23 q-33 0 -60.5 5.5t-55.5 15.5l7 98q2 9 7 13.5t13 6t21 1t32 -0.5q80 0 114 37t34 120v1114h182zM897 1363q0 -27 -11 -50t-29 -41t-41.5 -28t-49.5 -10q-27 0 -50 10t-40.5 28t-27.5 41t-10 50t10 51t27.5 42t40.5 28t50 10t50 -10t41 -28t29 -42t11 -51z" />
<glyph unicode="&#x134;" horiz-adv-x="865" d="M693 507q0 -123 -30 -220.5t-89 -164.5t-145 -102.5t-198 -35.5q-101 0 -206 28q2 30 5 59t5 58q2 17 12.5 28t33.5 11q18 0 48.5 -9t81.5 -9q68 0 121 20t89 63t55 110.5t19 159.5v964h198v-960zM923 1583h-133q-12 0 -29.5 4.5t-34.5 25.5l-120 144l-12 19l-12 -19 l-120 -144q-17 -20 -34 -25t-30 -5h-128l245 278h164z" />
<glyph unicode="&#x135;" horiz-adv-x="491" d="M337 1037v-1114q0 -62 -17 -116t-52.5 -94t-91 -63t-133.5 -23q-34 0 -61 5.5t-55 15.5l7 98q2 9 6.5 13.5t12.5 6t21 1t32 -0.5q80 0 114 37t34 120v1114h183zM559 1197h-122q-11 0 -23 4t-23 16l-126 135q-9 8 -16 19q-5 -5 -9 -10t-9 -9l-127 -135q-22 -19 -46 -20 h-126l229 270h170z" />
<glyph unicode="&#x136;" horiz-adv-x="1356" d="M385 824h75q39 0 62.5 10t42.5 33l489 553q20 27 42.5 37t55.5 10h168l-559 -631q-20 -25 -39.5 -41t-40.5 -26q28 -9 50.5 -27t43.5 -47l584 -695h-172q-19 0 -33 2.5t-24.5 8t-18 13.5t-14.5 18l-506 583q-20 26 -44 36.5t-72 10.5h-90v-672h-198v1467h198v-643z M726 -98q24 0 29.5 -11t5.5 -23q0 -9 -2.5 -26.5t-10.5 -44.5t-20.5 -66t-32.5 -92q-10 -23 -25 -30t-40 -7h-64l50 300h110z" />
<glyph unicode="&#x137;" horiz-adv-x="1040" d="M328 1508v-887h47q20 0 34 5.5t29 22.5l328 351q14 17 30 27t43 10h165l-382 -406q-28 -35 -60 -54q18 -12 33 -28.5t29 -36.5l405 -512h-163q-24 0 -40.5 7.5t-28.5 28.5l-341 425q-15 22 -30 28.5t-46 6.5h-52v-496h-184v1508h184zM589 -98q24 0 29.5 -11t5.5 -23 q0 -9 -2.5 -26.5t-10.5 -44.5t-20.5 -66t-32.5 -92q-10 -23 -25 -30t-40 -7h-64l50 300h110z" />
<glyph unicode="&#x138;" horiz-adv-x="1040" d="M328 1037v-416h47q20 0 34 5.5t29 22.5l328 351q14 17 30 27t43 10h165l-382 -406q-28 -35 -60 -54q18 -12 33 -28.5t29 -36.5l405 -512h-163q-24 0 -40.5 7.5t-28.5 28.5l-341 425q-15 22 -30 28.5t-46 6.5h-52v-496h-184v1037h184z" />
<glyph unicode="&#x139;" horiz-adv-x="1051" d="M1020 167v-167h-833v1467h198v-1300h635zM687 1896l-334 -292q-15 -14 -29.5 -17.5t-34.5 -3.5h-131l236 281q17 23 35 27.5t52 4.5h206z" />
<glyph unicode="&#x13a;" horiz-adv-x="483" d="M333 1508v-1508h-182v1508h182zM631 1896l-334 -292q-15 -14 -29.5 -17.5t-34.5 -3.5h-131l236 281q17 23 35 27.5t52 4.5h206z" />
<glyph unicode="&#x13b;" horiz-adv-x="1051" d="M1020 167v-167h-833v1467h198v-1300h635zM634 -98q24 0 29.5 -11t5.5 -23q0 -9 -2.5 -26.5t-10.5 -44.5t-20.5 -66t-32.5 -92q-10 -23 -25 -30t-40 -7h-64l50 300h110z" />
<glyph unicode="&#x13c;" horiz-adv-x="483" d="M333 1508v-1508h-182v1508h182zM298 -98q24 0 29.5 -11t5.5 -23q0 -9 -2.5 -26.5t-10.5 -44.5t-20.5 -66t-32.5 -92q-10 -23 -25 -30t-40 -7h-64l50 300h110z" />
<glyph unicode="&#x13d;" horiz-adv-x="1051" d="M1020 167v-167h-833v1467h198v-1300h635zM754 1510q23 0 28.5 -10.5t5.5 -22.5q0 -10 -3.5 -27t-12.5 -47.5t-25.5 -76.5t-42.5 -114q-10 -23 -25 -29.5t-40 -6.5h-64l59 334h120z" />
<glyph unicode="&#x13e;" horiz-adv-x="483" d="M333 1508v-1508h-182v1508h182zM629 1510q23 0 28.5 -10.5t5.5 -22.5q0 -10 -3.5 -27t-12.5 -47.5t-25.5 -76.5t-42.5 -114q-10 -23 -25 -29.5t-40 -6.5h-64l59 334h120z" />
<glyph unicode="&#x13f;" horiz-adv-x="1093" d="M1020 167v-167h-833v1467h198v-1300h635zM949 797q0 -27 -11 -50t-29 -40t-41.5 -27.5t-49.5 -10.5q-27 0 -50 10.5t-40.5 27.5t-27.5 40t-10 50t10 51t27.5 42t40.5 28t50 10t50 -10t41 -28t29 -42t11 -51z" />
<glyph unicode="&#x140;" horiz-adv-x="760" d="M333 1508v-1508h-182v1508h182zM502 771q0 27 9.5 50t26.5 40.5t40.5 28t50.5 10.5t50 -10.5t40.5 -28t28 -41t10.5 -49.5q0 -28 -10.5 -51t-28 -40.5t-41 -27t-49.5 -9.5q-27 0 -50.5 9.5t-40.5 27t-26.5 40.5t-9.5 51z" />
<glyph unicode="&#x141;" horiz-adv-x="1081" d="M1050 167v-167h-833v566l-191 -97v137q0 29 24 40l167 88v733h198v-643l394 201v-134q0 -34 -29 -45l-365 -191v-488h635z" />
<glyph unicode="&#x142;" horiz-adv-x="631" d="M604 1032v-103q0 -34 -27 -45l-165 -73v-811h-183v744l-185 -80v107q0 28 26 41l159 72v624h183v-557z" />
<glyph unicode="&#x143;" horiz-adv-x="1563" d="M1376 1467v-1467h-99q-24 0 -39.5 8t-31.5 28l-849 1106q2 -26 3 -50.5t1 -45.5v-1046h-174v1467h103q13 0 22.5 -1.5t16.5 -5t14 -10t15 -16.5l849 -1105q-2 27 -3.5 52t-1.5 47v1039h174zM1184 1895l-334 -292q-15 -14 -29.5 -17.5t-34.5 -3.5h-131l236 281 q17 23 35 27.5t52 4.5h206z" />
<glyph unicode="&#x144;" horiz-adv-x="1142" d="M316 887q34 38 72 68.5t80.5 52.5t90 34t103.5 12q85 0 150 -28.5t108.5 -80t66 -124t22.5 -161.5v-660h-184v660q0 118 -53.5 183t-163.5 65q-81 0 -151 -39t-129 -105v-764h-184v1037h110q39 0 48 -38zM876 1484l-239 -264q-14 -15 -28 -22t-35 -7h-109l152 248 q14 24 31 34.5t49 10.5h179z" />
<glyph unicode="&#x145;" horiz-adv-x="1563" d="M1376 1467v-1467h-99q-24 0 -39.5 8t-31.5 28l-849 1106q2 -26 3 -50.5t1 -45.5v-1046h-174v1467h103q13 0 22.5 -1.5t16.5 -5t14 -10t15 -16.5l849 -1105q-2 27 -3.5 52t-1.5 47v1039h174zM845 -98q24 0 29.5 -11t5.5 -23q0 -9 -2.5 -26.5t-10.5 -44.5t-20.5 -66 t-32.5 -92q-10 -23 -25 -30t-40 -7h-64l50 300h110z" />
<glyph unicode="&#x146;" horiz-adv-x="1142" d="M316 887q34 38 72 68.5t80.5 52.5t90 34t103.5 12q85 0 150 -28.5t108.5 -80t66 -124t22.5 -161.5v-660h-184v660q0 118 -53.5 183t-163.5 65q-81 0 -151 -39t-129 -105v-764h-184v1037h110q39 0 48 -38zM632 -98q24 0 29.5 -11t5.5 -23q0 -9 -2.5 -26.5t-10.5 -44.5 t-20.5 -66t-32.5 -92q-10 -23 -25 -30t-40 -7h-64l50 300h110z" />
<glyph unicode="&#x147;" horiz-adv-x="1563" d="M1376 1467v-1467h-99q-24 0 -39.5 8t-31.5 28l-849 1106q2 -26 3 -50.5t1 -45.5v-1046h-174v1467h103q13 0 22.5 -1.5t16.5 -5t14 -10t15 -16.5l849 -1105q-2 27 -3.5 52t-1.5 47v1039h174zM1125 1860l-243 -278h-170l-244 278h133q12 0 29 -3.5t29 -20.5l125 -155 l13 -18l12 18l124 154q13 18 30 21.5t29 3.5h133z" />
<glyph unicode="&#x148;" horiz-adv-x="1142" d="M316 887q34 38 72 68.5t80.5 52.5t90 34t103.5 12q85 0 150 -28.5t108.5 -80t66 -124t22.5 -161.5v-660h-184v660q0 118 -53.5 183t-163.5 65q-81 0 -151 -39t-129 -105v-764h-184v1037h110q39 0 48 -38zM891 1467l-228 -270h-170l-229 270h126q12 0 23.5 -5t17.5 -10 l131 -139q5 -5 9 -10.5t9 -10.5q5 5 8.5 10.5t8.5 10.5l131 139q7 5 18.5 10t22.5 5h122z" />
<glyph unicode="&#x149;" horiz-adv-x="1235" d="M196 1565q43 -73 58.5 -153.5t3 -159.5t-51.5 -151.5t-103 -129.5l-55 36q-15 9 -14 24t9 24q27 33 46 79.5t24.5 100.5t-5 111t-42.5 111q-13 22 -7.5 38.5t24.5 24.5zM410 887q34 38 72 68.5t80.5 52.5t90 34t103.5 12q85 0 150 -28.5t108.5 -80t66 -124t22.5 -161.5 v-660h-184v660q0 118 -53.5 183t-163.5 65q-81 0 -151 -39t-129 -105v-764h-184v1037h110q39 0 48 -38z" />
<glyph unicode="&#x14a;" horiz-adv-x="1563" d="M1376 1467v-1460q0 -84 -19 -152.5t-59.5 -117.5t-103 -76.5t-151.5 -27.5q-49 0 -89 9t-85 28l20 80q6 23 17.5 29.5t24.5 6.5t34.5 -7t60.5 -7q87 0 131.5 52.5t44.5 162.5v54l-845 1101q2 -26 3 -50.5t1 -45.5v-1046h-174v1467h103q13 0 22.5 -1.5t16.5 -5t14 -10 t15 -16.5l849 -1105q-2 27 -3.5 52t-1.5 47v1039h174z" />
<glyph unicode="&#x14b;" horiz-adv-x="1142" d="M316 887q34 38 72 68.5t80.5 52.5t90 34t103.5 12q85 0 150 -28.5t108.5 -80t66 -124t22.5 -161.5v-660q0 -84 -20.5 -152.5t-62.5 -117.5t-106.5 -76.5t-152.5 -27.5q-49 0 -88.5 9t-84.5 28l19 79q6 24 17.5 30.5t24.5 6.5q12 0 34 -8t61 -8q86 0 130.5 53.5 t44.5 163.5v680q0 118 -53.5 183t-163.5 65q-81 0 -151 -39t-129 -105v-764h-184v1037h110q39 0 48 -38z" />
<glyph unicode="&#x14c;" horiz-adv-x="1639" d="M1543 733q0 -165 -52 -302.5t-147.5 -237t-229 -154t-295.5 -54.5t-295 54.5t-228 154t-147.5 237t-52.5 302.5t52.5 303t147.5 237.5t228 155t295 55.5t295.5 -55.5t229 -155t147.5 -237.5t52 -303zM1339 733q0 135 -36.5 242.5t-104.5 182t-164 114.5t-215 40 q-118 0 -214 -40t-164 -114.5t-105 -182t-37 -242.5t37 -242t105 -181t164 -113.5t214 -39.5q119 0 215 39.5t164 113.5t104.5 181t36.5 242zM536 1735h571v-108h-571v108z" />
<glyph unicode="&#x14d;" horiz-adv-x="1161" d="M582 1054q114 0 205 -38t155.5 -107.5t98.5 -168.5t34 -221q0 -123 -34 -221t-98.5 -168t-156 -107t-204.5 -37q-115 0 -206.5 37t-156 107t-99 168t-34.5 221q0 122 34.5 221t99 168.5t156 107.5t206.5 38zM582 128q154 0 229.5 103t75.5 287q0 185 -76 288.5 t-229 103.5q-78 0 -136 -26.5t-96.5 -76.5t-57.5 -123.5t-19 -165.5q0 -184 76.5 -287t232.5 -103zM289 1380h587v-119h-587v119z" />
<glyph unicode="&#x14e;" horiz-adv-x="1639" d="M1543 733q0 -165 -52 -302.5t-147.5 -237t-229 -154t-295.5 -54.5t-295 54.5t-228 154t-147.5 237t-52.5 302.5t52.5 303t147.5 237.5t228 155t295 55.5t295.5 -55.5t229 -155t147.5 -237.5t52 -303zM1339 733q0 135 -36.5 242.5t-104.5 182t-164 114.5t-215 40 q-118 0 -214 -40t-164 -114.5t-105 -182t-37 -242.5t37 -242t105 -181t164 -113.5t214 -39.5q119 0 215 39.5t164 113.5t104.5 181t36.5 242zM822 1581q-145 0 -226.5 66.5t-81.5 204.5h142q0 -38 8.5 -67t28 -49.5t51.5 -31t78 -10.5q92 0 128 41.5t36 116.5h142 q0 -130 -80.5 -200.5t-225.5 -70.5z" />
<glyph unicode="&#x14f;" horiz-adv-x="1161" d="M582 1054q114 0 205 -38t155.5 -107.5t98.5 -168.5t34 -221q0 -123 -34 -221t-98.5 -168t-156 -107t-204.5 -37q-115 0 -206.5 37t-156 107t-99 168t-34.5 221q0 122 34.5 221t99 168.5t156 107.5t206.5 38zM582 128q154 0 229.5 103t75.5 287q0 185 -76 288.5 t-229 103.5q-78 0 -136 -26.5t-96.5 -76.5t-57.5 -123.5t-19 -165.5q0 -184 76.5 -287t232.5 -103zM583 1192q-79 0 -132.5 22t-86.5 59.5t-47.5 87.5t-14.5 106h129q0 -34 7 -63t24.5 -49.5t47 -32t73.5 -11.5t73 11.5t46.5 32t24.5 50t7 62.5h129q0 -56 -14 -106 t-47.5 -87.5t-87 -59.5t-131.5 -22z" />
<glyph unicode="&#x150;" horiz-adv-x="1639" d="M1543 733q0 -165 -52 -302.5t-147.5 -237t-229 -154t-295.5 -54.5t-295 54.5t-228 154t-147.5 237t-52.5 302.5t52.5 303t147.5 237.5t228 155t295 55.5t295.5 -55.5t229 -155t147.5 -237.5t52 -303zM1339 733q0 135 -36.5 242.5t-104.5 182t-164 114.5t-215 40 q-118 0 -214 -40t-164 -114.5t-105 -182t-37 -242.5t37 -242t105 -181t164 -113.5t214 -39.5q119 0 215 39.5t164 113.5t104.5 181t36.5 242zM939 1862l-210 -251q-14 -14 -28 -21t-35 -7h-87l151 234q14 22 35 33.5t55 11.5h119zM1320 1862l-255 -251q-15 -14 -31 -21 t-36 -7h-99l190 234q17 22 38.5 33.5t54.5 11.5h138z" />
<glyph unicode="&#x151;" horiz-adv-x="1161" d="M582 1054q114 0 205 -38t155.5 -107.5t98.5 -168.5t34 -221q0 -123 -34 -221t-98.5 -168t-156 -107t-204.5 -37q-115 0 -206.5 37t-156 107t-99 168t-34.5 221q0 122 34.5 221t99 168.5t156 107.5t206.5 38zM582 128q154 0 229.5 103t75.5 287q0 185 -76 288.5 t-229 103.5q-78 0 -136 -26.5t-96.5 -76.5t-57.5 -123.5t-19 -165.5q0 -184 76.5 -287t232.5 -103zM708 1484l-204 -264q-12 -16 -27 -22.5t-37 -6.5h-76l142 248q12 24 29.5 34.5t51.5 10.5h121zM1029 1484l-249 -264q-14 -15 -28 -22t-34 -7h-88l184 248q16 23 31.5 34 t49.5 11h134z" />
<glyph unicode="&#x152;" horiz-adv-x="2233" d="M771 152q106 0 193 39.5t147.5 115t93.5 183.5t33 243t-33 243t-93.5 184t-147 116.5t-193.5 40.5q-108 0 -194.5 -40.5t-147.5 -116.5t-94.5 -184t-33.5 -243t33.5 -243t94.5 -183.5t147.5 -115t194.5 -39.5zM2142 162l-1 -162h-880v245q-86 -123 -216.5 -191 t-294.5 -68q-145 0 -265 54.5t-206 153.5t-133.5 236.5t-47.5 302.5t47.5 303t133.5 237.5t205.5 155t265.5 55.5q165 0 295 -69t216 -192v244h880v-161h-704v-488h571v-155h-571v-501h705z" />
<glyph unicode="&#x153;" horiz-adv-x="1787" d="M1543 611q0 67 -16 124t-46.5 97.5t-75 64t-100.5 23.5q-62 0 -111.5 -21t-85 -61t-56.5 -97.5t-28 -129.5h519zM559 128q142 0 212 103t70 287q0 92 -17.5 165.5t-52.5 123.5t-88 76.5t-124 26.5q-73 0 -126 -26.5t-88.5 -76.5t-53 -123.5t-17.5 -165.5 q0 -184 70.5 -287t214.5 -103zM1022 498q4 -92 27 -161.5t62.5 -115.5t93 -69t120.5 -23q62 0 108 16t78.5 34.5t55.5 34t42 15.5q22 0 33 -17l53 -67q-34 -41 -78.5 -71t-95.5 -49.5t-105 -29t-107 -9.5q-121 0 -219.5 59t-154.5 181q-54 -115 -153.5 -177.5t-239.5 -62.5 q-102 0 -186.5 37t-144 107t-92.5 168t-33 221q0 122 33 221t93.5 168.5t146 107.5t190.5 38q134 0 231.5 -62t152.5 -174q26 53 62.5 96.5t84 74.5t106 48t126.5 17q84 0 155.5 -33t124.5 -95.5t83 -152t30 -204.5q0 -42 -8 -56.5t-34 -14.5h-641z" />
<glyph unicode="&#x154;" horiz-adv-x="1283" d="M594 757q86 0 152 21t110.5 59.5t67 91.5t22.5 118q0 131 -86 197.5t-258 66.5h-217v-554h209zM1272 0h-176q-54 0 -80 42l-381 524q-17 25 -37 35.5t-62 10.5h-151v-612h-198v1467h415q139 0 240.5 -28t167.5 -81t98 -128.5t32 -168.5q0 -78 -24.5 -145.5t-71.5 -121.5 t-114 -91.5t-152 -57.5q38 -22 66 -62zM997 1896l-334 -292q-15 -14 -29.5 -17.5t-34.5 -3.5h-131l236 281q17 23 35 27.5t52 4.5h206z" />
<glyph unicode="&#x155;" horiz-adv-x="745" d="M317 829q49 106 121 166.5t175 60.5q33 0 63.5 -7.5t53.5 -22.5l-13 -136q-6 -26 -31 -26q-14 0 -42 6.5t-62 6.5q-49 0 -87.5 -14.5t-69 -42.5t-54.5 -69.5t-43 -95.5v-655h-184v1037h105q30 0 41 -11t15 -39zM730 1484l-239 -264q-14 -15 -28 -22t-35 -7h-109l152 248 q14 24 31 34.5t49 10.5h179z" />
<glyph unicode="&#x156;" horiz-adv-x="1283" d="M594 757q86 0 152 21t110.5 59.5t67 91.5t22.5 118q0 131 -86 197.5t-258 66.5h-217v-554h209zM1272 0h-176q-54 0 -80 42l-381 524q-17 25 -37 35.5t-62 10.5h-151v-612h-198v1467h415q139 0 240.5 -28t167.5 -81t98 -128.5t32 -168.5q0 -78 -24.5 -145.5t-71.5 -121.5 t-114 -91.5t-152 -57.5q38 -22 66 -62zM721 -98q24 0 29.5 -11t5.5 -23q0 -9 -2.5 -26.5t-10.5 -44.5t-20.5 -66t-32.5 -92q-10 -23 -25 -30t-40 -7h-64l50 300h110z" />
<glyph unicode="&#x157;" horiz-adv-x="745" d="M317 829q49 106 121 166.5t175 60.5q33 0 63.5 -7.5t53.5 -22.5l-13 -136q-6 -26 -31 -26q-14 0 -42 6.5t-62 6.5q-49 0 -87.5 -14.5t-69 -42.5t-54.5 -69.5t-43 -95.5v-655h-184v1037h105q30 0 41 -11t15 -39zM293 -98q24 0 29.5 -11t5.5 -23q0 -9 -2.5 -26.5 t-10.5 -44.5t-20.5 -66t-32.5 -92q-10 -23 -25 -30t-40 -7h-64l50 300h110z" />
<glyph unicode="&#x158;" horiz-adv-x="1283" d="M594 757q86 0 152 21t110.5 59.5t67 91.5t22.5 118q0 131 -86 197.5t-258 66.5h-217v-554h209zM1272 0h-176q-54 0 -80 42l-381 524q-17 25 -37 35.5t-62 10.5h-151v-612h-198v1467h415q139 0 240.5 -28t167.5 -81t98 -128.5t32 -168.5q0 -78 -24.5 -145.5t-71.5 -121.5 t-114 -91.5t-152 -57.5q38 -22 66 -62zM939 1861l-243 -278h-170l-244 278h133q12 0 29 -3.5t29 -20.5l125 -155l13 -18l12 18l124 154q13 18 30 21.5t29 3.5h133z" />
<glyph unicode="&#x159;" horiz-adv-x="745" d="M316 829q49 106 121 166.5t175 60.5q33 0 63.5 -7.5t53.5 -22.5l-13 -136q-6 -26 -31 -26q-14 0 -42 6.5t-62 6.5q-49 0 -87.5 -14.5t-69 -42.5t-54.5 -69.5t-43 -95.5v-655h-184v1037h105q30 0 41 -11t15 -39zM743 1467l-228 -270h-170l-229 270h126q12 0 23.5 -5 t17.5 -10l131 -139q5 -5 9 -10.5t9 -10.5q5 5 8.5 10.5t8.5 10.5l131 139q7 5 18.5 10t22.5 5h122z" />
<glyph unicode="&#x15a;" horiz-adv-x="1111" d="M938 1238q-9 -15 -20 -23t-26 -8q-17 0 -41 17.5t-59 38.5t-85 38.5t-120 17.5q-67 0 -117.5 -18t-85 -48.5t-52 -72t-17.5 -89.5q0 -61 30.5 -102t80 -69.5t112.5 -49.5t129 -43.5t129 -50.5t112.5 -71t80 -105.5t30.5 -154.5q0 -96 -33 -180.5t-96 -147t-154.5 -98 t-208.5 -35.5q-143 0 -259.5 51.5t-199.5 139.5l57 94q8 11 20 19t26 8q13 0 30 -11t38.5 -27t49 -35.5t63 -36t80.5 -27.5t102 -11q71 0 126 19.5t93.5 55t59 84.5t20.5 110q0 67 -30.5 109t-79.5 71t-112.5 49t-129 41t-129 48.5t-113 71.5t-79.5 110t-30 163q0 78 30 151 t88 129t142.5 90t194.5 34q123 0 223.5 -39t177.5 -113zM990 1896l-334 -292q-15 -14 -29.5 -17.5t-34.5 -3.5h-131l236 281q17 23 35 27.5t52 4.5h206z" />
<glyph unicode="&#x15b;" horiz-adv-x="886" d="M749 866q-12 -23 -38 -22q-15 0 -35 11t-48 25t-67 26t-92 12q-46 0 -83 -12t-63 -32.5t-40 -47.5t-14 -59q0 -40 23 -66.5t61 -46t86 -34.5t99 -32t99 -37.5t86 -51t61 -75t23 -107.5q0 -72 -25.5 -132.5t-76 -105t-123 -70t-167.5 -25.5q-109 0 -197 35t-149 91l43 69 q8 13 19 20.5t29 7.5t38.5 -14.5t50 -32t71 -31.5t104.5 -14q53 0 93 13.5t66.5 37t39.5 54.5t13 66q0 43 -23 71t-61 48t-86.5 35t-99.5 31t-99.5 37t-86.5 53t-61 78.5t-23 113.5q0 59 24.5 114t72 96.5t116 66t156.5 24.5q102 0 183.5 -32.5t141.5 -88.5zM757 1484 l-239 -264q-14 -15 -28 -22t-35 -7h-109l152 248q14 24 31 34.5t49 10.5h179z" />
<glyph unicode="&#x15c;" horiz-adv-x="1111" d="M938 1238q-9 -15 -20 -23t-26 -8q-17 0 -41 17.5t-59 38.5t-85 38.5t-120 17.5q-67 0 -117.5 -18t-85 -48.5t-52 -72t-17.5 -89.5q0 -61 30.5 -102t80 -69.5t112.5 -49.5t129 -43.5t129 -50.5t112.5 -71t80 -105.5t30.5 -154.5q0 -96 -33 -180.5t-96 -147t-154.5 -98 t-208.5 -35.5q-143 0 -259.5 51.5t-199.5 139.5l57 94q8 11 20 19t26 8q13 0 30 -11t38.5 -27t49 -35.5t63 -36t80.5 -27.5t102 -11q71 0 126 19.5t93.5 55t59 84.5t20.5 110q0 67 -30.5 109t-79.5 71t-112.5 49t-129 41t-129 48.5t-113 71.5t-79.5 110t-30 163q0 78 30 151 t88 129t142.5 90t194.5 34q123 0 223.5 -39t177.5 -113zM931 1583h-133q-12 0 -29 4.5t-34 25.5l-120 144l-12 19l-13 -19l-119 -144q-17 -20 -34.5 -25t-29.5 -5h-128l245 278h164z" />
<glyph unicode="&#x15d;" horiz-adv-x="886" d="M749 866q-12 -23 -38 -22q-15 0 -35 11t-48 25t-67 26t-92 12q-46 0 -83 -12t-63 -32.5t-40 -47.5t-14 -59q0 -40 23 -66.5t61 -46t86 -34.5t99 -32t99 -37.5t86 -51t61 -75t23 -107.5q0 -72 -25.5 -132.5t-76 -105t-123 -70t-167.5 -25.5q-109 0 -197 35t-149 91l43 69 q8 13 19 20.5t29 7.5t38.5 -14.5t50 -32t71 -31.5t104.5 -14q53 0 93 13.5t66.5 37t39.5 54.5t13 66q0 43 -23 71t-61 48t-86.5 35t-99.5 31t-99.5 37t-86.5 53t-61 78.5t-23 113.5q0 59 24.5 114t72 96.5t116 66t156.5 24.5q102 0 183.5 -32.5t141.5 -88.5zM772 1197h-122 q-11 0 -23 4t-23 16l-126 135q-9 8 -16 19q-5 -5 -9 -10t-9 -9l-127 -135q-22 -19 -46 -20h-126l229 270h170z" />
<glyph unicode="&#x15e;" horiz-adv-x="1111" d="M938 1238q-9 -15 -20 -23t-26 -8q-17 0 -41 17.5t-59 38.5t-85 38.5t-120 17.5q-67 0 -117.5 -18t-85 -48.5t-52 -72t-17.5 -89.5q0 -61 30.5 -102t80 -69.5t112.5 -49.5t129 -43.5t129 -50.5t112.5 -71t80 -105.5t30.5 -154.5q0 -87 -27 -164t-78.5 -137.5 t-126.5 -100.5t-172 -53l-18 -67q95 -19 137 -55t42 -91q0 -33 -16.5 -59.5t-45.5 -45t-70 -28.5t-90 -10q-42 0 -80 9t-70 23l18 56q6 18 23 19q6 0 14.5 -3.5t20.5 -8t27.5 -8.5t37.5 -4q43 0 65 17.5t22 44.5q0 39 -43 54.5t-122 26.5l41 124q-137 4 -249 55t-191 136 l57 94q8 11 20 19t26 8q13 0 30 -11t38.5 -27t49 -35.5t63 -36t80.5 -27.5t102 -11q71 0 126 19.5t93.5 55t59 84.5t20.5 110q0 67 -30.5 109t-79.5 71t-112.5 49t-129 41t-129 48.5t-113 71.5t-79.5 110t-30 163q0 78 30 151t88 129t142.5 90t194.5 34q123 0 223.5 -39 t177.5 -113z" />
<glyph unicode="&#x15f;" horiz-adv-x="886" d="M749 866q-12 -23 -38 -22q-15 0 -35 11t-48 25t-67 26t-92 12q-46 0 -83 -12t-63 -32.5t-40 -47.5t-14 -59q0 -40 23 -66.5t61 -46t86 -34.5t99 -32t99 -37.5t86 -51t61 -75t23 -107.5q0 -67 -22 -123.5t-64.5 -100.5t-105.5 -72t-144 -35l-17 -63q95 -19 137 -55t42 -91 q0 -33 -16.5 -59.5t-45.5 -45t-70 -28.5t-90 -10q-42 0 -80 9t-70 23l18 56q6 18 23 19q6 0 14.5 -3.5t20 -8t27.5 -8.5t37 -4q43 0 65 17.5t22 44.5q0 39 -43 54.5t-121 26.5l42 126q-92 8 -167 41t-130 83l43 69q8 13 19 20.5t29 7.5t38.5 -14.5t50 -32t71 -31.5 t104.5 -14q53 0 93 13.5t66.5 37t39.5 54.5t13 66q0 43 -23 71t-61 48t-86.5 35t-99.5 31t-99.5 37t-86.5 53t-61 78.5t-23 113.5q0 59 24.5 114t72 96.5t116 66t156.5 24.5q102 0 183.5 -32.5t141.5 -88.5z" />
<glyph unicode="&#x160;" horiz-adv-x="1111" d="M938 1238q-9 -15 -20 -23t-26 -8q-17 0 -41 17.5t-59 38.5t-85 38.5t-120 17.5q-67 0 -117.5 -18t-85 -48.5t-52 -72t-17.5 -89.5q0 -61 30.5 -102t80 -69.5t112.5 -49.5t129 -43.5t129 -50.5t112.5 -71t80 -105.5t30.5 -154.5q0 -96 -33 -180.5t-96 -147t-154.5 -98 t-208.5 -35.5q-143 0 -259.5 51.5t-199.5 139.5l57 94q8 11 20 19t26 8q13 0 30 -11t38.5 -27t49 -35.5t63 -36t80.5 -27.5t102 -11q71 0 126 19.5t93.5 55t59 84.5t20.5 110q0 67 -30.5 109t-79.5 71t-112.5 49t-129 41t-129 48.5t-113 71.5t-79.5 110t-30 163q0 78 30 151 t88 129t142.5 90t194.5 34q123 0 223.5 -39t177.5 -113zM931 1861l-243 -278h-170l-244 278h133q12 0 29 -3.5t29 -20.5l125 -155l13 -18l12 18l124 154q13 18 30 21.5t29 3.5h133z" />
<glyph unicode="&#x161;" horiz-adv-x="886" d="M749 866q-12 -23 -38 -22q-15 0 -35 11t-48 25t-67 26t-92 12q-46 0 -83 -12t-63 -32.5t-40 -47.5t-14 -59q0 -40 23 -66.5t61 -46t86 -34.5t99 -32t99 -37.5t86 -51t61 -75t23 -107.5q0 -72 -25.5 -132.5t-76 -105t-123 -70t-167.5 -25.5q-109 0 -197 35t-149 91l43 69 q8 13 19 20.5t29 7.5t38.5 -14.5t50 -32t71 -31.5t104.5 -14q53 0 93 13.5t66.5 37t39.5 54.5t13 66q0 43 -23 71t-61 48t-86.5 35t-99.5 31t-99.5 37t-86.5 53t-61 78.5t-23 113.5q0 59 24.5 114t72 96.5t116 66t156.5 24.5q102 0 183.5 -32.5t141.5 -88.5zM772 1467 l-228 -270h-170l-229 270h126q12 0 23.5 -5t17.5 -10l131 -139q5 -5 9 -10.5t9 -10.5q5 5 8.5 10.5t8.5 10.5l131 139q7 5 18.5 10t22.5 5h122z" />
<glyph unicode="&#x162;" horiz-adv-x="1209" d="M660 0l-21 -77q95 -19 137 -55t42 -91q0 -33 -16.5 -59.5t-45.5 -45t-70 -28.5t-90 -10q-42 0 -80 9t-70 23l18 56q6 18 23 19q6 0 14.5 -3.5t20.5 -8t27.5 -8.5t37.5 -4q43 0 65 17.5t22 44.5q0 39 -43 54.5t-122 26.5l47 140h-49v1300h-476v167h1149v-167h-475v-1300 h-45z" />
<glyph unicode="&#x163;" horiz-adv-x="734" d="M715 78q-40 -38 -94.5 -61t-113.5 -30l-18 -64q95 -19 137.5 -55t42.5 -91q0 -33 -16.5 -59.5t-45.5 -45t-70 -28.5t-91 -10q-42 0 -79.5 9t-69.5 23l17 56q6 18 24 19q6 0 14 -3.5t20 -8t28 -8.5t37 -4q43 0 65 17.5t22 44.5q0 39 -43 54.5t-122 26.5l43 129 q-94 16 -143.5 82.5t-49.5 178.5v635h-125q-16 0 -27.5 9.5t-11.5 30.5v72l170 22l42 320q3 15 14 25t28 10h92v-357h300v-132h-300v-623q0 -66 32 -97.5t82 -31.5q29 0 49.5 7.5t36 17t26.5 17t19 7.5q14 0 26 -17l53 -87v0z" />
<glyph unicode="&#x164;" horiz-adv-x="1209" d="M1180 1300h-475v-1300h-198v1300h-476v167h1149v-167zM937 1861l-243 -278h-170l-244 278h133q12 0 29 -3.5t29 -20.5l125 -155l13 -18l12 18l124 154q13 18 30 21.5t29 3.5h133z" />
<glyph unicode="&#x165;" horiz-adv-x="732" d="M461 -16q-123 0 -189 68.5t-66 197.5v635h-125q-16 0 -27.5 9.5t-11.5 30.5v72l170 22l42 320q3 15 14 25t28 10h92v-357h300v-132h-300v-623q0 -66 32 -97.5t82 -31.5q29 0 49.5 7.5t36 17t26.5 17t19 7.5q14 0 25 -17l54 -87q-47 -44 -113.5 -69t-137.5 -25zM789 1510 q23 0 28.5 -10.5t5.5 -22.5q0 -10 -3.5 -27t-12.5 -47.5t-25.5 -76.5t-42.5 -114q-10 -23 -25 -29.5t-40 -6.5h-64l59 334h120z" />
<glyph unicode="&#x166;" horiz-adv-x="1239" d="M720 1300v-429h334v-115h-334v-756h-198v756h-336v115h336v429h-476v167h1149v-167h-475z" />
<glyph unicode="&#x167;" horiz-adv-x="742" d="M66 709h145v176h-125q-16 0 -27.5 9.5t-11.5 30.5v72l170 22l42 320q3 15 14 25t28 10h92v-357h300v-132h-300v-176h302v-116h-302v-331q0 -66 32 -97.5t82 -31.5q29 0 50 7.5t36 17t26 17t19 7.5q14 0 26 -17l53 -87q-47 -44 -113.5 -69t-137.5 -25q-123 0 -189 68.5 t-66 197.5v343h-145v116z" />
<glyph unicode="&#x168;" horiz-adv-x="1506" d="M754 158q91 0 162.5 30.5t121 86t76 132t26.5 168.5v892h197v-892q0 -127 -40.5 -235.5t-115.5 -187.5t-183.5 -124t-243.5 -45t-244 45t-184.5 124t-116 188t-40.5 235v892h198v-890q0 -92 26 -169t75.5 -132.5t122 -86.5t163.5 -31zM883 1703q24 0 41.5 8.5t30 23.5 t18.5 33.5t6 36.5h111q0 -44 -12 -84.5t-36 -71.5t-59 -49.5t-80 -18.5q-46 0 -82.5 17t-67.5 37t-58.5 37t-56.5 17q-24 0 -41 -9.5t-29 -24.5t-18 -33t-6 -37h-114q0 44 13 85t36.5 72.5t58 49.5t79.5 18q46 0 83 -16.5t68 -36.5t58.5 -37t56.5 -17z" />
<glyph unicode="&#x169;" horiz-adv-x="1141" d="M997 1037v-1037h-108q-39 0 -49 38l-15 112q-68 -75 -151.5 -120.5t-192.5 -45.5q-85 0 -150 28t-109 79t-66 124t-22 161v661h182v-661q0 -118 54 -182.5t165 -64.5q81 0 151 38.5t129 105.5v764h182zM684 1357q37 0 57 21.5t21 66.5h111q0 -48 -13 -88.5t-37 -69.5 t-57.5 -44.5t-74.5 -15.5q-36 0 -67 14.5t-58.5 32t-52 32.5t-48.5 15q-74 0 -76 -90h-113q0 49 13 89.5t37.5 69.5t58.5 45t74 16q36 0 67 -15t59 -32.5t51.5 -32t47.5 -14.5z" />
<glyph unicode="&#x16a;" horiz-adv-x="1506" d="M754 158q91 0 162.5 30.5t121 86t76 132t26.5 168.5v892h197v-892q0 -127 -40.5 -235.5t-115.5 -187.5t-183.5 -124t-243.5 -45t-244 45t-184.5 124t-116 188t-40.5 235v892h198v-890q0 -92 26 -169t75.5 -132.5t122 -86.5t163.5 -31zM468 1735h571v-108h-571v108z" />
<glyph unicode="&#x16b;" horiz-adv-x="1141" d="M997 1037v-1037h-108q-39 0 -49 38l-15 112q-68 -75 -151.5 -120.5t-192.5 -45.5q-85 0 -150 28t-109 79t-66 124t-22 161v661h182v-661q0 -118 54 -182.5t165 -64.5q81 0 151 38.5t129 105.5v764h182zM278 1380h587v-119h-587v119z" />
<glyph unicode="&#x16c;" horiz-adv-x="1506" d="M754 158q91 0 162.5 30.5t121 86t76 132t26.5 168.5v892h197v-892q0 -127 -40.5 -235.5t-115.5 -187.5t-183.5 -124t-243.5 -45t-244 45t-184.5 124t-116 188t-40.5 235v892h198v-890q0 -92 26 -169t75.5 -132.5t122 -86.5t163.5 -31zM754 1581q-145 0 -226.5 66.5 t-81.5 204.5h142q0 -38 8.5 -67t28 -49.5t51.5 -31t78 -10.5q92 0 128 41.5t36 116.5h142q0 -130 -80.5 -200.5t-225.5 -70.5z" />
<glyph unicode="&#x16d;" horiz-adv-x="1141" d="M997 1037v-1037h-108q-39 0 -49 38l-15 112q-68 -75 -151.5 -120.5t-192.5 -45.5q-85 0 -150 28t-109 79t-66 124t-22 161v661h182v-661q0 -118 54 -182.5t165 -64.5q81 0 151 38.5t129 105.5v764h182zM572 1192q-79 0 -132.5 22t-86.5 59.5t-47.5 87.5t-14.5 106h129 q0 -34 7 -63t24.5 -49.5t47 -32t73.5 -11.5t73 11.5t46.5 32t24.5 50t7 62.5h129q0 -56 -14 -106t-47.5 -87.5t-87 -59.5t-131.5 -22z" />
<glyph unicode="&#x16e;" horiz-adv-x="1506" d="M754 158q91 0 162.5 30.5t121 86t76 132t26.5 168.5v892h197v-892q0 -127 -40.5 -235.5t-115.5 -187.5t-183.5 -124t-243.5 -45t-244 45t-184.5 124t-116 188t-40.5 235v892h198v-890q0 -92 26 -169t75.5 -132.5t122 -86.5t163.5 -31zM560 1738q0 40 16 73.5t42 57t61 37 t74 13.5q40 0 75.5 -13.5t62 -37t42.5 -57t16 -73.5t-16 -73t-42.5 -56.5t-62.5 -36.5t-75 -13t-74 13t-61 36.5t-42 56.5t-16 73zM651 1738q0 -45 27.5 -74t77.5 -29q46 0 74 29t28 74q0 46 -28 74.5t-74 28.5q-49 0 -77 -28.5t-28 -74.5z" />
<glyph unicode="&#x16f;" horiz-adv-x="1141" d="M997 1037v-1037h-108q-39 0 -49 38l-15 112q-68 -75 -151.5 -120.5t-192.5 -45.5q-85 0 -150 28t-109 79t-66 124t-22 161v661h182v-661q0 -118 54 -182.5t165 -64.5q81 0 151 38.5t129 105.5v764h182zM369 1347q0 43 16.5 77.5t44.5 60t65 39.5t78 14q42 0 79 -14 t66 -39.5t45 -60t16 -77.5q0 -42 -16 -77t-45 -59.5t-66 -38.5t-79 -14q-41 0 -78 14t-65 38.5t-44.5 59.5t-16.5 77zM471 1347q0 -45 27.5 -74t76.5 -29q46 0 74 29t28 74q0 46 -28 74.5t-74 28.5q-48 0 -76 -28.5t-28 -74.5z" />
<glyph unicode="&#x170;" horiz-adv-x="1506" d="M754 158q91 0 162.5 30.5t121 86t76 132t26.5 168.5v892h197v-892q0 -127 -40.5 -235.5t-115.5 -187.5t-183.5 -124t-243.5 -45t-244 45t-184.5 124t-116 188t-40.5 235v892h198v-890q0 -92 26 -169t75.5 -132.5t122 -86.5t163.5 -31zM871 1862l-210 -251 q-14 -14 -28 -21t-35 -7h-87l151 234q14 22 35 33.5t55 11.5h119zM1252 1862l-255 -251q-15 -14 -31 -21t-36 -7h-99l190 234q17 22 38.5 33.5t54.5 11.5h138z" />
<glyph unicode="&#x171;" horiz-adv-x="1140" d="M997 1037v-1037h-108q-39 0 -49 38l-15 112q-68 -75 -151.5 -120.5t-192.5 -45.5q-85 0 -150 28t-109 79t-66 124t-22 161v661h182v-661q0 -118 54 -182.5t165 -64.5q81 0 151 38.5t129 105.5v764h182zM697 1484l-204 -264q-12 -16 -27 -22.5t-37 -6.5h-76l142 248 q12 24 29.5 34.5t51.5 10.5h121zM1018 1484l-249 -264q-14 -15 -28 -22t-34 -7h-88l184 248q16 23 31.5 34t49.5 11h134z" />
<glyph unicode="&#x172;" horiz-adv-x="1506" d="M1337 1467v-892q0 -116 -33 -215.5t-96 -177.5t-153.5 -128t-205.5 -65q-19 -11 -39 -27t-36 -35.5t-26 -42t-10 -47.5q0 -39 25 -61t68 -22q24 0 39.5 3.5t25.5 8.5t17 9t12 4q7 0 11.5 -4t6.5 -9l29 -68q-31 -24 -78.5 -38.5t-99.5 -14.5q-90 0 -142 40.5t-52 107.5 q0 55 35 103.5t90 87.5q-129 4 -232.5 51t-175 126t-110 185.5t-38.5 228.5v892h198v-890q0 -92 26 -169t75.5 -132.5t122 -86.5t163.5 -31t162.5 30.5t121 86t76 132t26.5 168.5v892h197z" />
<glyph unicode="&#x173;" horiz-adv-x="1141" d="M1111 -297q-31 -24 -78.5 -38.5t-99.5 -14.5q-90 0 -142 40.5t-52 107.5q0 58 40.5 110.5t103.5 91.5q-34 3 -43 38l-15 112q-68 -75 -151.5 -120.5t-192.5 -45.5q-85 0 -150 28t-109 79t-66 124t-22 161v661h182v-661q0 -118 54 -182.5t165 -64.5q81 0 151 38.5 t129 105.5v764h182v-1037h1q-20 -11 -41.5 -27t-39 -36t-28.5 -44t-11 -51q0 -39 25 -61t68 -22q24 0 39 4t25.5 8.5t17 8.5t11.5 4q7 0 11.5 -4t6.5 -9z" />
<glyph unicode="&#x174;" horiz-adv-x="2120" d="M2089 1467l-458 -1467h-178l-372 1119q-5 16 -9.5 34.5t-9.5 39.5q-5 -20 -10 -38.5t-11 -35.5l-373 -1119h-179l-457 1467h165q27 0 44.5 -13t22.5 -34l303 -1020q7 -28 14 -59.5t13 -67.5q7 36 14.5 68.5t17.5 58.5l345 1020q6 17 24 32t43 15h58q27 0 43 -13t24 -34 l344 -1020q9 -27 17 -57.5t15 -63.5q5 34 11 64.5t14 56.5l304 1020q5 18 23 32.5t43 14.5h155zM1388 1583h-133q-12 0 -29 4.5t-34 25.5l-120 144l-12 19l-13 -19l-119 -144q-17 -20 -34.5 -25t-29.5 -5h-128l245 278h164z" />
<glyph unicode="&#x175;" horiz-adv-x="1608" d="M1575 1037l-336 -1037h-144q-27 0 -37 35l-230 703q-8 24 -13 48l-10 48l-10 -48t-14 -49l-233 -702q-9 -35 -41 -35h-137l-336 1037h143q22 0 36.5 -11t19.5 -27l199 -667q17 -74 28 -139q9 34 18.5 68.5t21.5 70.5l219 672q5 15 18 25t31 10h80q20 0 33.5 -10t18.5 -25 l214 -672q11 -36 20.5 -71t17.5 -68q5 34 12.5 68t17.5 71l202 667q5 16 19.5 27t34.5 11h137zM1120 1197h-122q-11 0 -22.5 4t-23.5 16l-126 135q-9 8 -16 19q-5 -5 -9 -10t-8 -9l-127 -135q-22 -19 -46 -20h-126l228 270h170z" />
<glyph unicode="&#x176;" horiz-adv-x="1277" d="M738 585v-585h-198v585l-538 882h174q27 0 42 -12.5t27 -33.5l336 -570l33.5 -67t26.5 -63q11 32 25.5 63t31.5 67l335 570q9 17 25.5 31.5t42.5 14.5h175zM969 1583h-133q-12 0 -29 4.5t-34 25.5l-120 144l-12 19l-13 -19l-119 -144q-17 -20 -34.5 -25t-29.5 -5h-128 l245 278h164z" />
<glyph unicode="&#x177;" horiz-adv-x="1055" d="M1039 1037l-578 -1343q-9 -20 -23 -32.5t-43 -12.5h-135l190 411l-428 977h157q24 0 37.5 -11.5t19.5 -26.5l277 -653q16 -43 28 -90q14 48 30 91l270 652q6 16 21 27t33 11h144zM868 1197h-122q-11 0 -22.5 4t-23.5 16l-126 135q-9 8 -16 19q-5 -5 -9 -10t-8 -9 l-127 -135q-22 -19 -46 -20h-126l228 270h170z" />
<glyph unicode="&#x178;" horiz-adv-x="1277" d="M738 585v-585h-198v585l-538 882h174q27 0 42 -12.5t27 -33.5l336 -570l33.5 -67t26.5 -63q11 32 25.5 63t31.5 67l335 570q9 17 25.5 31.5t42.5 14.5h175zM539 1706q0 -23 -9 -42.5t-25 -35t-37 -24.5t-43 -9t-42 9t-35.5 24.5t-24.5 35t-9 42.5q0 24 9 45t24.5 36 t35.5 24.5t42 9.5q23 0 43.5 -9.5t36.5 -24.5t25 -36t9 -45zM967 1706q0 -23 -9 -42.5t-24.5 -35t-36 -24.5t-42.5 -9q-24 0 -44.5 9t-36 24.5t-24 35t-8.5 42.5q0 24 8.5 45t24 36t36 24.5t44.5 9.5q23 0 43 -9.5t35.5 -24.5t24.5 -36t9 -45z" />
<glyph unicode="&#x179;" horiz-adv-x="1232" d="M1166 1394q0 -34 -20 -66l-831 -1166h839v-162h-1100v78q0 16 6 30.5t14 27.5l832 1170h-813v161h1073v-73zM1022 1896l-334 -292q-15 -14 -29.5 -17.5t-34.5 -3.5h-131l236 281q17 23 35 27.5t52 4.5h206z" />
<glyph unicode="&#x17a;" horiz-adv-x="926" d="M861 959q0 -19 -6.5 -37.5t-17.5 -31.5l-563 -748h568v-142h-782v76q0 13 6.5 31t18.5 34l565 753h-558v143h769v-78zM785 1484l-239 -264q-14 -15 -28 -22t-35 -7h-109l152 248q14 24 31 34.5t49 10.5h179z" />
<glyph unicode="&#x17b;" horiz-adv-x="1232" d="M1166 1394q0 -34 -20 -66l-831 -1166h839v-162h-1100v78q0 16 6 30.5t14 27.5l832 1170h-813v161h1073v-73zM759 1728q0 -25 -10.5 -47.5t-28 -39.5t-40.5 -27t-48 -10t-47.5 10t-39.5 27t-26.5 39.5t-9.5 47.5q0 26 9.5 48t26.5 39.5t39.5 27.5t47.5 10q26 0 48.5 -10 t40 -27.5t28 -39.5t10.5 -48z" />
<glyph unicode="&#x17c;" horiz-adv-x="925" d="M860 959q0 -19 -6.5 -37.5t-17.5 -31.5l-563 -748h568v-142h-782v76q0 13 6.5 31t18.5 34l565 753h-558v143h769v-78zM616 1370q0 -27 -11 -50t-29 -40t-41.5 -27.5t-49.5 -10.5q-27 0 -50 10.5t-40.5 27.5t-27.5 40t-10 50t10 51t27.5 42t40.5 28t50 10t50 -10t41 -28 t29 -42t11 -51z" />
<glyph unicode="&#x17d;" horiz-adv-x="1232" d="M1166 1394q0 -34 -20 -66l-831 -1166h839v-162h-1100v78q0 16 6 30.5t14 27.5l832 1170h-813v161h1073v-73zM963 1861l-243 -278h-170l-244 278h133q12 0 29 -3.5t29 -20.5l125 -155l13 -18l12 18l124 154q13 18 30 21.5t29 3.5h133z" />
<glyph unicode="&#x17e;" horiz-adv-x="925" d="M860 959q0 -19 -6.5 -37.5t-17.5 -31.5l-563 -748h568v-142h-782v76q0 13 6.5 31t18.5 34l565 753h-558v143h769v-78zM799 1467l-228 -270h-170l-229 270h126q12 0 23.5 -5t17.5 -10l131 -139q5 -5 9 -10.5t9 -10.5q5 5 8.5 10.5t8.5 10.5l131 139q7 5 18.5 10t22.5 5 h122z" />
<glyph unicode="&#x17f;" horiz-adv-x="581" d="M214 1117q0 89 25 158.5t71 117t112 72t148 24.5q70 0 129 -21l-7 -94q-1 -10 -8 -14.5t-19.5 -5.5t-28.5 -0.5t-36 0.5q-47 0 -85 -13t-64 -41.5t-40.5 -74.5t-14.5 -113v-1112h-182v883l-115 12q-23 5 -36 16t-13 31v75h164v100z" />
<glyph unicode="&#x180;" horiz-adv-x="1147" d="M327 251q51 -69 110.5 -96.5t132.5 -27.5q144 0 222 98.5t78 289.5q0 101 -17 172t-51 115t-83 64t-112 20q-90 0 -157 -41t-123 -116v-478zM327 864q65 76 148.5 121.5t191.5 45.5q89 0 161.5 -32t124 -96.5t79 -161.5t27.5 -226q0 -116 -31 -212.5t-88 -167 t-140.5 -110t-188.5 -39.5q-100 0 -170 38t-124 108l-9 -93q-7 -39 -46 -39h-118v1170h-151v116h151v222h183v-222h242v-116h-242v-306z" />
<glyph unicode="&#x181;" horiz-adv-x="1630" d="M1010 158q85 0 146 19.5t100 54.5t57.5 84t18.5 107q0 114 -80.5 180t-242.5 66h-317v-511h318zM692 1311v-501h262q84 0 145.5 18.5t102 51t60 79.5t19.5 102q0 129 -78 189.5t-241 60.5h-270zM962 1467q135 0 232.5 -26.5t160.5 -75.5t93.5 -120t30.5 -161 q0 -54 -17 -103.5t-51.5 -92.5t-86 -77.5t-120.5 -55.5q161 -31 243 -115.5t82 -221.5q0 -93 -35 -170t-101 -132.5t-161.5 -85.5t-218.5 -30h-519v1320h-29q-131 0 -190.5 -51t-59.5 -145q0 -27 5 -51.5t10 -41.5q2 -10 2.5 -20t-2.5 -18.5t-11 -15t-22 -10.5l-113 -25 q-17 47 -27 89.5t-10 94.5q0 78 27.5 141t81 107.5t131.5 68.5t178 24h497z" />
<glyph unicode="&#x182;" horiz-adv-x="1269" d="M670 158q85 0 146 19.5t99 53.5t56 82.5t18 107.5q0 61 -18 109t-56 81t-98.5 50t-145.5 17h-286v-520h285zM671 836q134 0 231 -29.5t160 -82t93.5 -125.5t30.5 -159q0 -101 -34.5 -182.5t-100.5 -139t-162 -88t-219 -30.5h-483v1467h949v-156h-751v-475h286z" />
<glyph unicode="&#x183;" horiz-adv-x="1146" d="M328 250q50 -68 109.5 -95.5t132.5 -27.5q145 0 223 103.5t78 294.5q0 101 -17.5 174t-51.5 119.5t-83 68t-112 21.5q-89 0 -156 -41t-123 -115v-502zM328 888q66 76 148.5 121t190.5 45q90 0 162.5 -34t124 -101t79 -166t27.5 -228q0 -115 -31 -213.5t-88.5 -170.5 t-141 -113.5t-188.5 -41.5q-100 0 -170 38.5t-123 108.5l-9 -94q-8 -39 -47 -39h-118v1508h831v-133h-647v-487z" />
<glyph unicode="&#x184;" horiz-adv-x="1380" d="M793 158q92 0 156 27.5t104 72t58 101.5t18 115q0 56 -19 110t-60.5 95.5t-105.5 66.5t-152 25h-319v-613h320zM783 929q136 0 237.5 -37t169 -100t101.5 -146.5t34 -176.5q0 -100 -34 -185.5t-101 -148.5t-165.5 -99t-228.5 -36h-521v968l-218 140l271 359h145v-538h310 z" />
<glyph unicode="&#x185;" horiz-adv-x="1177" d="M357 251q51 -69 110.5 -96.5t133.5 -27.5q145 0 223 103.5t78 294.5q0 101 -18 174t-51.5 119.5t-83 68t-111.5 21.5q-89 0 -156.5 -41t-124.5 -115v-501zM357 887q65 76 149 121.5t191 45.5q90 0 162.5 -34t123.5 -101t79 -166t28 -228q0 -115 -31 -213.5t-88.5 -170.5 t-141 -113.5t-187.5 -41.5q-100 0 -170 38t-124 108l-9 -93q-7 -39 -46 -39h-118v1051l-200 127l246 330h136v-621z" />
<glyph unicode="&#x186;" horiz-adv-x="1378" d="M161 303q17 0 35 -15q38 -35 76 -60t82.5 -41.5t97 -24t118.5 -7.5q108 0 200.5 38.5t160.5 113t107.5 182t39.5 244.5q0 135 -38 242.5t-106 182.5t-162 114.5t-208 39.5q-94 0 -158.5 -20t-107.5 -44.5t-69.5 -44.5t-45.5 -20q-16 0 -26 6.5t-16 16.5l-65 91 q91 86 211.5 136.5t275.5 50.5q160 0 292 -55t227 -154t147 -237.5t52 -304.5t-50 -304t-141.5 -237t-220.5 -153.5t-286 -54.5q-182 0 -311 58t-219 163l79 85q13 13 29 13z" />
<glyph unicode="&#x187;" horiz-adv-x="1376" d="M1326 205q-90 -104 -218.5 -162.5t-309.5 -58.5q-159 0 -288 54.5t-220 153.5t-141.5 237t-50.5 304t52.5 304.5t147 237.5t226.5 154t292 55q94 0 175 -19t151 -54q-1 10 -1 20v21q0 68 15.5 128t51 106.5t92 73.5t138.5 27q59 0 103 -10t91 -27l-24 -102 q-4 -14 -11 -22.5t-15.5 -11.5t-18.5 -2.5t-19 2.5q-20 6 -42.5 9t-45.5 3q-79 0 -115.5 -56.5t-36.5 -161.5v-111l-65 -91q-7 -10 -16.5 -16.5t-25.5 -6.5q-18 0 -45 20t-70.5 44.5t-108 44.5t-158.5 20q-114 0 -208 -39.5t-162 -114.5t-106 -182.5t-38 -242.5 q0 -137 39.5 -244.5t108 -182t161 -113t200.5 -38.5q66 0 118.5 7.5t96.5 24t82.5 41.5t77.5 60q17 15 34 15q16 0 29 -13z" />
<glyph unicode="&#x188;" horiz-adv-x="984" d="M915 919l-48 -66q-8 -11 -16 -17.5t-23 -6.5t-33.5 13t-45.5 28.5t-66.5 28t-96.5 12.5q-77 0 -135.5 -27t-98 -78t-59.5 -124t-20 -163q0 -94 21.5 -167t61 -123t95.5 -76t126 -26q67 0 109.5 16t70.5 35.5t47 35t38 15.5q23 0 35 -17l51 -67q-34 -42 -77 -71.5 t-92.5 -49.5t-104 -29t-110.5 -9q-97 0 -180.5 35.5t-145 104t-96.5 167.5t-35 226q0 116 32.5 214t94 169.5t152.5 111.5t208 40q51 0 96.5 -8.5t86.5 -23.5v83q0 63 14 121.5t46 102.5t83.5 70t125.5 26q41 0 82 -8.5t86 -27.5l-19 -79q-6 -24 -18.5 -30.5t-23.5 -6.5 q-12 0 -37 7.5t-59 7.5q-35 0 -58 -12t-37 -34.5t-20.5 -55t-6.5 -73.5v-194z" />
<glyph unicode="&#x189;" horiz-adv-x="1573" d="M753 161q118 0 214 39t163.5 112t104.5 179.5t37 241.5t-37 241.5t-104.5 180.5t-164 113t-213.5 39h-350v-508h297v-117h-297v-521h350zM753 1467q162 0 295 -52.5t228 -149.5t147.5 -232t52.5 -300t-52.5 -300t-147.5 -231.5t-228.5 -149t-294.5 -52.5h-549v682h-201 v117h201v668h549z" />
<glyph unicode="&#x18a;" horiz-adv-x="1863" d="M1042 161q119 0 215 39t163.5 112t104.5 179.5t37 241.5t-37 241.5t-104.5 180.5t-163.5 113t-215 39h-349v-1146h349zM1042 1467q162 0 295 -52.5t228.5 -149.5t147.5 -232t52 -300t-52 -300t-147.5 -231.5t-228.5 -149t-295 -52.5h-548v1320h-29q-131 0 -190.5 -51 t-59.5 -145q0 -27 5 -51.5t10 -41.5q2 -10 2.5 -20t-2.5 -18.5t-11 -15t-22 -10.5l-113 -25q-17 47 -27 89.5t-10 94.5q0 78 27.5 141t81 107.5t131.5 68.5t178 24h577z" />
<glyph unicode="&#x18b;" horiz-adv-x="1269" d="M885 158v520h-286q-85 0 -145.5 -17t-99 -50t-56 -81t-17.5 -109q0 -58 17.5 -107t56 -83t99.5 -53.5t146 -19.5h285zM1082 1467v-1467h-482q-123 0 -219 30.5t-162 88t-100.5 139t-34.5 182.5q0 86 30 159t93 125.5t160.5 82t231.5 29.5h286v475h-751v156h948z" />
<glyph unicode="&#x18c;" horiz-adv-x="1146" d="M820 791q-51 69 -110.5 95.5t-132.5 26.5q-144 0 -222.5 -103t-78.5 -295q0 -101 17.5 -173.5t51.5 -119t83 -68t112 -21.5q90 0 157 41t123 116v501zM1002 0h-108q-39 0 -49 38l-17 126q-67 -80 -151.5 -129t-196.5 -49q-89 0 -161.5 34t-124 100.5t-79 166t-27.5 228.5 q0 115 31 213.5t88 171.5t140.5 114.5t188.5 41.5q95 0 163 -32.5t121 -89.5v441h-647v133h829v-1508z" />
<glyph unicode="&#x18d;" horiz-adv-x="1060" d="M518 584q60 22 115 55t97 82t67 115t25 153q0 71 -18 134t-54.5 110.5t-92.5 75.5t-131 28q-67 0 -121.5 -22.5t-93.5 -65.5t-61 -104t-22 -137q0 -83 24 -147t64.5 -114.5t93 -89.5t108.5 -73zM181 136q3 25 15.5 33t35.5 8q13 0 45 -7t74 -15.5t88.5 -15.5t88.5 -7 q46 0 78.5 7t52.5 20.5t29 30.5t9 37q0 37 -28 68.5t-73.5 61.5t-104 63t-120 71t-119.5 86.5t-104 109.5t-74 138t-28 175q0 105 34 193.5t96.5 151.5t151.5 98t198 35q116 0 206 -37.5t152 -102.5t94.5 -153t32.5 -191q0 -174 -93.5 -294.5t-280.5 -185.5q47 -28 89 -57 t73.5 -63t50 -74t18.5 -92q0 -51 -20 -95t-62.5 -76.5t-108.5 -51t-159 -18.5q-35 0 -79.5 2.5t-91 7.5t-93 12t-86.5 17z" />
<glyph unicode="&#x18e;" horiz-adv-x="1177" d="M991 0h-904l-1 162h706v501h-571v155h571v488h-705v161h904v-1467z" />
<glyph unicode="&#x18f;" horiz-adv-x="1478" d="M282 597q0 -100 30 -182t85 -140.5t131.5 -90.5t170.5 -32q102 0 184 31.5t141 89.5t96 140.5t49 183.5h-887zM114 1263q54 60 119.5 103t138 70t152 39.5t161.5 12.5q151 0 278.5 -51.5t220 -150.5t144.5 -244.5t52 -333.5q0 -153 -46.5 -285t-134.5 -229.5 t-214.5 -152.5t-286.5 -55q-131 0 -242 43.5t-192.5 126.5t-127.5 204t-46 277q0 30 3 49t10.5 30t19 15.5t29.5 4.5h1025q-3 142 -40.5 250.5t-103.5 180.5t-159.5 108.5t-209.5 36.5q-68 0 -122 -11t-97 -27.5t-76.5 -35t-60.5 -35t-48 -27.5t-39 -11q-32 0 -48 24z" />
<glyph unicode="&#x190;" horiz-adv-x="1214" d="M1159 208q-45 -58 -103.5 -100t-126 -69.5t-143 -40.5t-156.5 -13q-104 0 -199.5 29t-168.5 85t-116 138t-43 189q0 62 20.5 119.5t58.5 105.5t92.5 86t121.5 62q-72 19 -121.5 51.5t-80 71.5t-44.5 84t-14 91q0 78 36 148t104 123t167 84.5t224 31.5q157 0 269.5 -44.5 t191.5 -117.5l-45 -77q-12 -23 -25.5 -28.5t-24.5 -5.5q-17 0 -42.5 17t-67.5 37t-105.5 37t-155.5 17q-81 0 -140.5 -19t-99 -50.5t-58.5 -73.5t-19 -90q0 -55 24.5 -96.5t68.5 -69.5t106 -42.5t137 -14.5h241v-144h-257q-91 0 -158.5 -23.5t-112 -62.5t-66.5 -88.5 t-22 -101.5q0 -61 25 -114.5t73.5 -92t118 -60.5t157.5 -22q81 0 139.5 16.5t98.5 39.5t65.5 46t39.5 34q8 7 16.5 11.5t17.5 4.5q16 0 29 -13z" />
<glyph unicode="&#x191;" horiz-adv-x="1158" d="M386 1306v-513h603v-162h-603v-626q0 -84 -19.5 -153.5t-60 -119.5t-101.5 -78t-144 -28q-33 0 -59.5 2.5t-50.5 7.5t-46.5 11.5t-45.5 15.5l25 103q7 29 25 33t39 0q19 -6 42 -9t45 -3q80 0 116 56.5t36 161.5v1462h905v-161h-706z" />
<glyph unicode="&#x192;" horiz-adv-x="692" d="M671 1377q-2 -25 -26.5 -26.5t-67.5 -1.5q-47 0 -85.5 -12.5t-66 -40t-42 -72.5t-14.5 -112v-95h298v-132h-293v-917q0 -84 -20.5 -152.5t-62.5 -117.5t-106.5 -75.5t-152.5 -26.5q-49 0 -88.5 8.5t-84.5 26.5l19 80q6 24 17.5 30.5t24.5 6.5t34.5 -7.5t60.5 -7.5 q87 0 131.5 53t44.5 162v935l-114 12q-23 5 -36 16t-13 31v75h163v100q0 89 25.5 158.5t71.5 117t111.5 72t147.5 24.5q70 0 129 -21z" />
<glyph unicode="&#x193;" horiz-adv-x="1502" d="M1366 1298l-56 -90q-13 -20 -34.5 -25.5t-46.5 9.5q-25 14 -56.5 34.5t-77 39.5t-107.5 32.5t-147 13.5q-124 0 -224.5 -40.5t-171 -116t-108.5 -182.5t-38 -240q0 -139 39.5 -248t110.5 -185t170 -116t218 -40q59 0 108.5 6.5t93.5 17t83 26.5t78 36v324h-228 q-19 0 -31 11.5t-12 27.5v113h450v-564q-55 -40 -114.5 -69.5t-127.5 -49.5t-146 -29.5t-169 -9.5q-160 0 -293 54.5t-229 153.5t-150 237t-54 304q0 168 53 306.5t150 237t236.5 153t311.5 54.5q109 0 196 -19.5t161 -55.5q-1 10 -1 21v22q0 68 15.5 128t51 106.5 t91.5 73.5t138 27q30 0 55 -2.5t48.5 -7t46 -11.5t46.5 -16l-26 -102q-3 -14 -9.5 -22.5t-15.5 -11.5t-18.5 -2.5t-19.5 2.5q-19 6 -42.5 9t-44.5 3q-80 0 -116.5 -56.5t-36.5 -161.5v-110z" />
<glyph unicode="&#x194;" horiz-adv-x="1371" d="M935 152q-8 6 -16.5 13.5t-14.5 16.5l-221 312q-8 -20 -18 -41t-24 -38l-169 -240q-9 -12 -28 -23h491zM807 597l427 -597h-1095l433 608l-604 859h192q23 0 33 -7.5t21 -23.5l483 -708l471 708q17 31 46 30h190z" />
<glyph unicode="&#x195;" horiz-adv-x="1750" d="M1617 1037v-661q0 -88 -23.5 -161t-72 -124t-123.5 -79t-176 -28q-102 0 -177 28t-124 79t-72.5 124t-23.5 161v284q0 118 -53.5 183t-163.5 65q-81 0 -151 -39t-129 -105v-764h-184v1508h184v-609q67 71 147.5 113t186.5 42q85 0 150 -28.5t108.5 -80t66 -124 t22.5 -161.5v-284q0 -125 53 -189t160 -64q105 0 158.5 64t53.5 189v661h183z" />
<glyph unicode="&#x196;" horiz-adv-x="654" d="M179 1467h200v-1156q0 -88 37.5 -130t118.5 -42h89v-66q0 -24 -12.5 -40.5t-34.5 -26.5t-52 -14t-65 -4q-69 0 -121 23t-87.5 64.5t-54 98.5t-18.5 127v1166z" />
<glyph unicode="&#x197;" horiz-adv-x="616" d="M617 692h-208v-692h-200v692h-210v119h210v656h200v-656h208v-119z" />
<glyph unicode="&#x198;" horiz-adv-x="1402" d="M385 824h75q39 0 64.5 10t48.5 42l287 418q62 101 148.5 144t201.5 43q60 0 101.5 -9t72.5 -22l-18 -100q-3 -14 -9.5 -22.5t-15.5 -11.5t-18.5 -3t-18.5 2q-16 5 -38.5 8t-44.5 3q-58 0 -104 -24.5t-78 -70.5l-265 -379q-19 -30 -42 -50t-50 -31q32 -10 57 -29t48 -51 l572 -691h-172q-19 0 -33 2.5t-24.5 8t-18 13.5t-14.5 18l-494 578q-11 13 -22 22.5t-24.5 16.5t-31 10t-42.5 3h-98v-672h-198v1467h198v-643z" />
<glyph unicode="&#x199;" horiz-adv-x="1040" d="M328 621h47q20 0 34 5.5t29 22.5l328 351q14 17 30 27t43 10h165l-382 -406q-28 -35 -60 -54q18 -12 33 -28.5t29 -36.5l405 -512h-163q-24 0 -40.5 7.5t-28.5 28.5l-341 425q-15 22 -30 28.5t-46 6.5h-52v-496h-184v1109q0 84 20.5 152.5t62.5 117.5t106.5 76.5 t152.5 27.5q49 0 88.5 -9.5t84.5 -27.5l-19 -80q-6 -23 -17.5 -29.5t-24.5 -6.5q-12 0 -34 7.5t-61 7.5q-86 0 -130.5 -53.5t-44.5 -162.5v-508z" />
<glyph unicode="&#x19a;" horiz-adv-x="562" d="M528 685h-163v-685h-183v685h-150v132h150v691h183v-691h163v-132z" />
<glyph unicode="&#x19b;" horiz-adv-x="1101" d="M1063 126v-74q0 -39 -25 -50.5t-82 -11.5q-36 0 -72 7.5t-69 29t-61.5 59.5t-50.5 98l-185 494q-15 45 -22 84q-9 -42 -26 -81l-242 -643q-5 -14 -18.5 -26t-37.5 -12h-158l402 945l-38 105l-192 -71l-39 110l191 69l-28 78q-11 31 -24.5 52t-32.5 33.5t-44.5 18.5 t-61.5 6h-72v68q0 14 5 26.5t18.5 21.5t37 15t59.5 6q42 0 81 -8.5t73.5 -28.5t62 -54t46.5 -85l34 -92l196 72l39 -109l-195 -72l323 -866q23 -60 55 -87t90 -27h63z" />
<glyph unicode="&#x19c;" horiz-adv-x="2209" d="M2023 1467v-1464h-101q-53 0 -65 52l-22 189q-34 -59 -74.5 -107.5t-89 -82.5t-106 -51.5t-122.5 -17.5q-72 0 -131.5 19.5t-106 55t-80.5 87t-57 115.5q-32 -73 -79.5 -125.5t-104.5 -86.5t-121 -49.5t-127 -15.5q-115 0 -202 36t-145.5 106.5t-87.5 172t-29 234.5v933 h200v-933q0 -96 21.5 -170t61.5 -124t95.5 -75.5t124.5 -25.5t127.5 25t102 75t68 123.5t24.5 171.5v933h200v-933q0 -91 18 -164t53.5 -124t89 -79t126.5 -28q110 0 199 78.5t141 231.5v1018h199z" />
<glyph unicode="&#x19d;" horiz-adv-x="1563" d="M1376 1467v-1467h-99q-24 0 -39.5 8t-31.5 28l-849 1106q2 -26 3 -50.5t1 -45.5v-1073q0 -84 -17 -153.5t-54 -119t-95.5 -77t-140.5 -27.5q-59 0 -103.5 9t-91.5 26l25 103q7 29 25 33.5t39 0.5q19 -6 42 -9.5t45 -3.5q80 0 116 56.5t36 161.5v1494h103q13 0 22.5 -1.5 t16.5 -5t14 -10t15 -16.5l849 -1105q-2 27 -3.5 52t-1.5 47v1039h174z" />
<glyph unicode="&#x19e;" horiz-adv-x="1218" d="M1084 -351h-183v1011q0 118 -53.5 183t-163.5 65q-82 0 -152 -39t-129 -105v-764h-183v756q0 80 -33.5 117t-101.5 37h-43v74q0 24 22 43.5t75 19.5q84 0 147 -40t87 -125q72 77 162.5 124.5t201.5 47.5q85 0 150 -28.5t108.5 -80t66 -124t22.5 -161.5v-1011z" />
<glyph unicode="&#x19f;" horiz-adv-x="1639" d="M301 672q8 -122 48.5 -217.5t108 -162t159.5 -101t202 -34.5q112 0 203.5 34.5t158.5 101t107.5 162t48.5 217.5h-1036zM1335 822q-12 115 -53 206t-108 154t-156.5 96.5t-198.5 33.5q-108 0 -198 -33.5t-156.5 -96.5t-108 -154t-53.5 -206h1032zM819 1484 q162 0 295.5 -55.5t229 -155t147.5 -237.5t52 -303t-52 -302.5t-147.5 -237t-229 -154t-295.5 -54.5t-295 54.5t-228 154t-147.5 237t-52.5 302.5t52.5 303t147.5 237.5t228 155t295 55.5z" />
<glyph unicode="&#x1a0;" horiz-adv-x="1737" d="M819 157q119 0 215 39.5t164 113.5t104.5 181t36.5 242t-36.5 242.5t-104.5 182t-164 114.5t-215 40q-118 0 -214 -40t-164 -114.5t-105 -182t-37 -242.5t37 -242t105 -181t164 -113.5t214 -39.5zM1678 1611q7 -23 11.5 -52t4.5 -59q0 -127 -71.5 -211.5t-202.5 -112.5 q59 -92 91 -203.5t32 -239.5q0 -165 -52 -302.5t-147.5 -237t-229 -154t-295.5 -54.5t-295 54.5t-228 154t-147.5 237t-52.5 302.5t52.5 303t147.5 237.5t228 155t295 55.5q168 0 303 -58.5t232 -163.5q76 11 117.5 45t41.5 84q0 22 -7.5 36.5t-16 27.5t-16.5 28.5t-8 39.5 q0 88 110 88h103z" />
<glyph unicode="&#x1a1;" horiz-adv-x="1253" d="M582 128q154 0 229.5 103t75.5 287q0 185 -76 288.5t-229 103.5q-78 0 -136 -26.5t-96.5 -76.5t-57.5 -123.5t-19 -165.5q0 -184 76.5 -287t232.5 -103zM1260 1195q7 -20 10.5 -47.5t3.5 -55.5q0 -117 -65.5 -196t-189.5 -103q56 -118 56 -274q0 -123 -34 -221 t-98.5 -168t-156 -107t-204.5 -37q-115 0 -206.5 37t-156 107t-99 168t-34.5 221q0 122 34.5 221t99 168.5t156 107.5t206.5 38q129 0 227.5 -48t163.5 -135q66 11 102.5 45.5t36.5 82.5q0 17 -7 29t-16.5 24t-16.5 26.5t-7 36.5q0 39 24.5 59.5t75.5 20.5h95z" />
<glyph unicode="&#x1a2;" horiz-adv-x="2046" d="M769 152q105 0 191.5 39.5t147.5 115t94.5 183.5t33.5 243t-33.5 243t-94.5 184t-147.5 116.5t-191.5 40.5t-191 -40.5t-147.5 -116.5t-95.5 -184t-34 -243t34 -243t95.5 -183.5t147.5 -115t191 -39.5zM1669 1118q0 42 -9.5 79t-30 64t-52 42.5t-73.5 15.5 q-56 0 -108.5 -26.5t-98.5 -69.5q69 -96 105.5 -220t36.5 -270q0 -165 -47 -302.5t-134.5 -236.5t-211 -153.5t-277.5 -54.5t-277.5 54.5t-211 153.5t-135 236.5t-47.5 302.5t47.5 303t135 237.5t211 155t277.5 55.5q134 0 244.5 -42.5t195.5 -119.5q69 72 152 116t184 44 q80 0 141 -25.5t101.5 -73.5t61 -115t20.5 -150v-1475h-200v1475z" />
<glyph unicode="&#x1a3;" horiz-adv-x="1619" d="M811 805q-30 43 -85 74t-144 31q-78 0 -136 -26.5t-96.5 -76.5t-57.5 -123.5t-19 -165.5q0 -184 76.5 -287t232.5 -103q77 0 122.5 23.5t69 57.5t30.5 71t7 64v461zM993 345q0 -57 -21.5 -120.5t-70.5 -117t-127.5 -87.5t-191.5 -34q-115 0 -206.5 37t-156 107t-99 168 t-34.5 221q0 122 34.5 221t99 168.5t156 107.5t206.5 38q104 0 190.5 -32.5t149.5 -92.5q57 59 122 91.5t149 32.5q75 0 129.5 -26t90.5 -73.5t54 -114t18 -149.5v-1041h-183v1041q0 43 -7.5 82.5t-24.5 68.5t-45.5 46.5t-71.5 17.5q-46 0 -85 -19.5t-75 -51.5v-489z" />
<glyph unicode="&#x1a4;" horiz-adv-x="1537" d="M927 707q85 0 150 22.5t109.5 63t67 96.5t22.5 124q0 140 -86.5 219t-262.5 79h-235v-604h235zM927 1467q139 0 242 -32t171 -91.5t101.5 -143.5t33.5 -187q0 -102 -36 -187.5t-105.5 -147t-171.5 -95.5t-235 -34h-235v-549h-198v1320h-29q-131 0 -190.5 -51t-59.5 -145 q0 -27 5 -51.5t10 -41.5q2 -10 2.5 -20t-2.5 -18.5t-11 -15t-22 -10.5l-113 -25q-17 47 -27 89.5t-10 94.5q0 78 27.5 141t81 107.5t131.5 68.5t178 24h462z" />
<glyph unicode="&#x1a5;" horiz-adv-x="1147" d="M328 250q50 -68 109.5 -95.5t132.5 -27.5q145 0 223 103.5t78 294.5q0 101 -17.5 174t-51.5 119.5t-83 68t-112 21.5q-89 0 -156 -41t-123 -115v-502zM328 888q66 76 148.5 121t190.5 45q90 0 162.5 -34t124 -101t79 -166t27.5 -228q0 -115 -31 -213.5t-88.5 -170.5 t-141 -113.5t-188.5 -41.5q-96 0 -163.5 35t-119.5 100v-472h-184v1460q0 84 20.5 152.5t62.5 117.5t106.5 76.5t152.5 27.5q49 0 88.5 -9.5t84.5 -27.5l-19 -80q-6 -23 -17.5 -29.5t-24.5 -6.5q-12 0 -34 7.5t-61 7.5q-86 0 -130.5 -53.5t-44.5 -162.5v-241z" />
<glyph unicode="&#x1a6;" horiz-adv-x="1223" d="M594 535q86 0 152 21t110.5 59t67 91.5t22.5 117.5q0 131 -86 198t-258 67h-217v-554h209zM1272 -222h-176q-54 0 -80 42l-381 524q-17 25 -37 35.5t-62 10.5h-151v-390h-198v1483h198v-239h217q139 0 240.5 -28t167.5 -81t98 -128t32 -168q0 -79 -24.5 -146.5 t-71.5 -121.5t-114 -92t-152 -56q18 -11 34.5 -27t31.5 -37z" />
<glyph unicode="&#x1a7;" horiz-adv-x="1101" d="M129 1332q76 74 177.5 113t223.5 39q109 0 194 -33t142.5 -88t87.5 -127t30 -150q0 -96 -30 -162t-80 -112t-113.5 -75.5t-130 -54t-130 -47.5t-113 -54t-79.5 -76t-30 -113q0 -118 76.5 -181t211.5 -63q84 0 143.5 23.5t101 51t69 50.5t48.5 23q14 0 26.5 -7.5 t20.5 -19.5l57 -94q-83 -88 -200 -139.5t-261 -51.5q-117 0 -208.5 31t-154.5 87.5t-95.5 135.5t-32.5 175q0 90 30 153t80.5 108t114 75.5t130 55.5t130 49.5t113.5 56t80 74t30 106.5q0 47 -16.5 88.5t-49.5 72.5t-81.5 49t-113.5 18q-71 0 -120.5 -17.5t-84.5 -38.5 t-58 -38.5t-41 -17.5q-16 0 -26.5 8t-19.5 23z" />
<glyph unicode="&#x1a8;" horiz-adv-x="887" d="M811 110q-61 -55 -153 -90.5t-209 -35.5q-89 0 -159.5 22t-118.5 61t-73 94t-25 120t23.5 111.5t62.5 81t88.5 59t100.5 44.5t101 38t89 40t62.5 50t23.5 68q0 31 -14.5 57.5t-40.5 45.5t-64.5 30.5t-85.5 11.5q-52 0 -89.5 -12t-65 -26t-47.5 -25t-37 -11q-24 0 -36 22 l-41 67q59 56 143 88.5t189 32.5q86 0 153 -21t114 -59t71 -91t24 -115q0 -63 -23.5 -108.5t-62.5 -78t-89 -55.5t-102 -42.5t-101.5 -38t-88.5 -41.5t-62.5 -54t-23.5 -75q0 -32 12.5 -61t40 -51t68.5 -35t96 -13q61 0 102 14t70.5 31.5t49.5 32t40 14.5q29 0 46 -28 l42 -69v0z" />
<glyph unicode="&#x1a9;" horiz-adv-x="1245" d="M439 1311q-47 0 -85 3.5t-76 10.5q43 -23 75 -49t61 -59l296 -371q32 -37 41 -58t10 -37q0 -22 -9.5 -45.5t-41.5 -60.5l-333 -411q-30 -35 -51 -54.5t-42 -33.5q38 5 70.5 7.5t62.5 2.5h749v-156h-1098v75q0 23 10.5 44.5t25.5 38.5l483 574l-495 592q-10 11 -17 26.5 t-7 30.5v86h1098v-156h-727z" />
<glyph unicode="&#x1aa;" horiz-adv-x="696" d="M214 1085q73 0 114.5 43.5t41.5 131.5q0 84 -40.5 128t-113.5 44t-115 -44.5t-42 -130.5q0 -85 41.5 -128.5t113.5 -43.5zM884 -338q-45 -19 -84.5 -28t-88.5 -9q-88 0 -152.5 27t-106.5 76.5t-62.5 118t-20.5 152.5v1011q-72 -54 -179 -55q-68 0 -123.5 21.5t-95.5 60.5 t-62 94t-22 121q0 71 25 129t68.5 98.5t104.5 63t135 22.5t135.5 -23t105 -66.5t67.5 -107t24 -144.5v-1246q0 -109 44.5 -162t130.5 -53q39 0 61 7.5t34 7.5q13 0 24.5 -7t17.5 -29z" />
<glyph unicode="&#x1ab;" horiz-adv-x="754" d="M557 9q-25 -12 -52.5 -18.5t-60.5 -6.5q-54 0 -97.5 17t-74 51t-47.5 83.5t-17 114.5v635h-125q-16 0 -27 9.5t-11 30.5v72l169 22l42 320q4 15 15 25t28 10h92v-357h299v-132h-299v-623q0 -66 32 -97.5t81 -31.5q30 0 50.5 7.5t35.5 17t25.5 17t19.5 7.5h81v-236 q0 -63 -14.5 -121t-46.5 -102.5t-83.5 -70.5t-125.5 -26q-41 0 -79 9t-83 28l14 74q6 24 18.5 30t23.5 6q12 0 36.5 -8t58.5 -8q66 0 94 44t28 131v77z" />
<glyph unicode="&#x1ac;" horiz-adv-x="1368" d="M1338 1300h-475v-1300h-197v1300h-199q-69 0 -116.5 -11t-77.5 -33t-43.5 -56t-13.5 -78q0 -26 5 -50t10 -41q5 -20 0.5 -38t-33.5 -26l-113 -25q-17 47 -27 89.5t-10 94.5q0 78 27.5 141t81 107.5t132 68.5t178.5 24h871v-167z" />
<glyph unicode="&#x1ad;" horiz-adv-x="734" d="M463 -16q-123 0 -189 68.5t-66 197.5v635h-125q-16 0 -27.5 9.5t-11.5 30.5v72l171 22l33 228q17 121 81.5 178.5t174.5 57.5q47 0 82.5 -7.5t73.5 -24.5l-13 -74q-6 -24 -18.5 -30.5t-23.5 -6.5q-12 0 -31.5 8t-57.5 8q-66 0 -96 -44t-30 -134v-161h300v-132h-300v-623 q0 -66 32 -97.5t82 -31.5q29 0 49.5 7.5t36 17t26.5 17t19 7.5q14 0 25 -17l54 -87q-47 -44 -113.5 -69t-137.5 -25z" />
<glyph unicode="&#x1ae;" horiz-adv-x="1209" d="M705 -52q0 -100 39 -157.5t125 -57.5q36 0 60 7.5t38 7.5q11 0 23 -6.5t19 -30.5l19 -80q-45 -18 -87 -26.5t-93 -8.5q-92 0 -156.5 26.5t-105.5 75.5t-60 117.5t-19 152.5v1332h-476v167h1149v-167h-475v-1352z" />
<glyph unicode="&#x1af;" horiz-adv-x="1720" d="M1715 1611q8 -23 12 -52t4 -59q0 -77 -27 -139t-77.5 -106t-123.5 -68t-166 -25v-587q0 -127 -40.5 -235.5t-115.5 -187.5t-183.5 -124t-243.5 -45t-244 45t-184.5 124t-116 188t-40.5 235v892h198v-890q0 -92 26 -169t75.5 -132.5t122 -86.5t163.5 -31t162.5 30.5 t121 86t76 132t26.5 168.5v892h197v-210q49 0 88.5 10.5t67.5 28.5t42.5 42t14.5 53q0 22 -7 36.5t-16 27.5t-16.5 28.5t-7.5 39.5q0 88 110 88h102z" />
<glyph unicode="&#x1b0;" horiz-adv-x="1297" d="M1312 1195q6 -20 9.5 -47.5t3.5 -55.5q0 -67 -21.5 -122t-63.5 -94.5t-103 -63.5t-140 -28v-784h-108q-39 0 -49 38l-15 112q-68 -75 -151.5 -120.5t-192.5 -45.5q-85 0 -150 28t-109 79t-66 124t-22 161v661h182v-661q0 -118 54 -182.5t165 -64.5q81 0 151 38.5 t129 105.5v764h182v-170q79 7 122.5 43.5t43.5 88.5q0 17 -7 29t-16.5 24t-16.5 26.5t-7 36.5q0 39 24.5 59.5t76.5 20.5h95z" />
<glyph unicode="&#x1b1;" horiz-adv-x="1654" d="M827 -16q-146 0 -275 49t-225 139t-151.5 216.5t-55.5 280.5q0 118 33 221.5t91.5 187t139 144.5t175.5 92q-39 -6 -80 -10t-79 -4h-292v103q0 28 18 46t49 18h533v-229q-83 -15 -154.5 -65.5t-124 -125.5t-82.5 -171.5t-30 -204.5q0 -129 41.5 -226t112 -161t162.5 -96 t194 -32t194.5 32t162.5 96t111.5 161t41.5 226q0 109 -29.5 205t-82.5 171t-124 125.5t-154 65.5v229h533q31 0 49 -18t18 -46v-103h-293q-39 0 -79 4t-79 10q94 -31 174.5 -92t139 -144.5t92 -187.5t33.5 -221q0 -154 -56 -280.5t-151.5 -216.5t-225 -139t-275.5 -49z" />
<glyph unicode="&#x1b2;" horiz-adv-x="1486" d="M862 1447q48 17 90.5 27t95.5 10q89 0 154 -29t106.5 -84.5t61.5 -137t20 -186.5q0 -152 -33 -289.5t-91.5 -255.5t-137 -214.5t-171.5 -164t-195 -104t-205 -36.5q-88 0 -158.5 28t-120.5 87t-77 149.5t-27 216.5v1003h199v-1003q0 -84 14 -143.5t41.5 -97t67.5 -54.5 t91 -17q70 0 141.5 29t138.5 84.5t126 135t103 180t69.5 220.5t25.5 256q0 56 -6 104.5t-23 84.5t-47.5 56.5t-78.5 20.5q-20 0 -42.5 -3t-42.5 -9q-10 -2 -19.5 -2.5t-18.5 2.5t-15.5 11t-9.5 23l-26 102v0z" />
<glyph unicode="&#x1b3;" horiz-adv-x="1477" d="M952 1270q65 112 140.5 162.5t179.5 50.5q27 0 50 -2.5t43.5 -7.5t42.5 -11.5t45 -15.5l-26 -96q-8 -30 -25.5 -34.5t-37.5 0.5q-16 5 -38.5 10t-46.5 5q-51 0 -88.5 -28.5t-70.5 -80.5l-383 -636v-586h-198v585l-538 882h174q27 0 42 -12.5t27 -33.5l336 -570 q18 -36 33 -67t26 -62q11 32 26 63t34 66z" />
<glyph unicode="&#x1b4;" horiz-adv-x="1236" d="M790 871q14 38 36.5 71.5t55 58t75.5 39t100 14.5q47 0 83 -8t74 -25l-14 -74q-5 -24 -17.5 -30.5t-23.5 -6.5q-13 0 -32.5 8t-56.5 8q-35 0 -63 -15.5t-49 -61.5l-498 -1155q-9 -20 -23 -32.5t-43 -12.5h-135l190 411l-429 977h158q24 0 37 -11.5t19 -26.5l278 -653 q16 -44 28 -91q13 46 30 92z" />
<glyph unicode="&#x1b5;" horiz-adv-x="1241" d="M1170 1394q0 -35 -21 -66l-355 -500h340v-150h-448l-368 -516h840v-162h-1100v78q0 16 6 30.5t14 27.5l385 542h-337v150h444l340 478h-813v161h1073v-73z" />
<glyph unicode="&#x1b6;" horiz-adv-x="934" d="M863 959q0 -19 -6.5 -37.5t-17.5 -31.5l-215 -286h215v-127h-311l-252 -335h568v-142h-782v76q0 13 7 31t19 34l252 336h-244v127h339l217 290h-558v143h769v-78z" />
<glyph unicode="&#x1b7;" horiz-adv-x="1202" d="M610 904q133 -4 228 -36.5t155.5 -88t88 -128.5t27.5 -157q0 -116 -45.5 -210.5t-123 -161t-181 -102t-218.5 -35.5q-76 0 -146.5 15t-133 44.5t-115.5 70.5t-93 93l78 87q10 11 19 13t15 2q11 0 20.5 -4t26.5 -18q16 -18 44.5 -42t69 -44.5t93.5 -34t120 -13.5 q88 0 156.5 26.5t115 71.5t71 105.5t24.5 126.5q0 58 -20.5 108.5t-65.5 87.5t-117.5 58t-178.5 21h-166v84q0 16 6.5 33t22.5 33l404 397h-696v161h973v-73q0 -17 -5.5 -36.5t-26.5 -39.5z" />
<glyph unicode="&#x1b8;" horiz-adv-x="1203" d="M1149 208q-40 -52 -92.5 -93t-114.5 -70.5t-133 -44.5t-146 -15q-116 0 -219.5 35.5t-181.5 102t-123 161t-45 210.5q0 84 28 157t87.5 128t154 88t228.5 37l-426 414q-20 20 -25.5 39t-5.5 37v73h973v-161h-695l403 -397q16 -16 22.5 -33t6.5 -33v-84h-166 q-105 0 -178 -21t-118.5 -58t-65.5 -87t-20 -109q0 -67 24 -127t70.5 -105t115 -71.5t157.5 -26.5q66 0 119.5 13.5t94 34t69 44t44.5 42.5q17 14 26.5 18t20.5 4q6 0 15 -2t19 -13z" />
<glyph unicode="&#x1b9;" horiz-adv-x="901" d="M130 1037h736v-143h-516l350 -433q26 -19 26 -51v-59h-181q-78 0 -134 -20t-92 -56t-53 -87.5t-17 -112.5q0 -73 22 -130.5t63 -96.5t98.5 -60t129.5 -21q62 0 104.5 13t71.5 29.5t50 30t40 13.5q30 0 48 -28l42 -70q-61 -55 -145.5 -90.5t-207.5 -35.5 q-120 0 -212.5 35.5t-155.5 97t-95 145t-32 179.5q0 84 25.5 153.5t79 120.5t135 80.5t194.5 34.5l-337 405q-15 16 -26 36t-11 43v78z" />
<glyph unicode="&#x1ba;" horiz-adv-x="894" d="M778 959q0 -24 -9.5 -44.5t-27.5 -34.5l-283 -260q94 -5 161.5 -28t110.5 -60.5t63.5 -90t20.5 -114.5q0 -144 -102 -234.5t-309 -112.5q-61 -6 -100.5 -17t-62.5 -25.5t-31.5 -32.5t-8.5 -37q0 -44 39.5 -72t117.5 -28q25 0 42.5 2.5t30 5t21.5 5t15 2.5q11 0 23.5 -6.5 t18.5 -30.5l21 -82q-23 -9 -43.5 -16t-42 -12t-44.5 -7t-51 -2q-152 0 -232.5 62.5t-80.5 177.5q0 108 77.5 175.5t244.5 83.5q146 14 211.5 66t65.5 134q0 80 -58 125.5t-178 45.5h-165v57q0 32 26 51l310 289h-526v143h735v-78z" />
<glyph unicode="&#x1bb;" horiz-adv-x="1179" d="M797 626q-19 -20 -39.5 -41t-40.5 -41l-387 -396q41 11 83 18t81 7h491q30 0 47.5 -17.5t17.5 -44.5v-111h-979v62q0 19 8 40t25 38l469 472l14 14h-482v144h611q56 72 87 144t31 156q0 65 -20.5 113.5t-56 80t-83.5 47.5t-104 16t-103 -16.5t-83.5 -45.5t-61 -69 t-34.5 -88q-12 -36 -33.5 -47.5t-58.5 -6.5l-96 16q14 100 56 177.5t104.5 130t143.5 79.5t176 27q93 0 174 -28t140 -80.5t93 -128.5t34 -172q0 -89 -28 -163t-77 -142h189v-144h-308z" />
<glyph unicode="&#x1bc;" horiz-adv-x="1178" d="M1048 1388q0 -39 -25 -64.5t-83 -25.5h-436l-114 -376q46 8 88.5 12t81.5 4q133 0 232 -34t165 -94t99 -142.5t33 -181.5q0 -114 -43.5 -206.5t-116 -158.5t-168 -101.5t-201.5 -35.5q-173 0 -296 59t-204 163l69 80q10 11 18 14.5t16 3.5q17 0 35 -15q17 -14 44.5 -38 t69 -46t98 -37.5t130.5 -15.5q92 0 159 28t110.5 74.5t64 107t20.5 124.5q0 69 -24 122.5t-69.5 90t-111.5 56t-149 19.5q-62 0 -128.5 -9.5t-129.5 -29.5l-115 34l163 545q-39 -3 -78 -3h-68q-40 0 -56.5 20t-16.5 40v96h937v-79z" />
<glyph unicode="&#x1bd;" horiz-adv-x="907" d="M328 640q31 5 61.5 7.5t60.5 2.5q94 0 165 -23t118 -63.5t70.5 -96.5t23.5 -124q0 -84 -31 -149.5t-85.5 -111t-127 -69.5t-154.5 -24q-109 0 -204.5 42t-163.5 125l55 57q8 11 15.5 14.5t14.5 3.5q8 0 16 -4t15 -10q11 -10 33 -27t54 -33t73.5 -27t90.5 -11 q58 0 101.5 17t72.5 45.5t43 66t14 78.5q0 90 -62.5 141t-180.5 51q-42 0 -87.5 -6.5t-86.5 -21.5l-108 31l119 377q-11 -1 -22.5 -1.5t-22.5 -0.5h-40q-19 0 -32.5 5t-22.5 14t-12.5 19t-3.5 19v84h701v-63q0 -37 -23 -60t-78 -23h-289z" />
<glyph unicode="&#x1be;" horiz-adv-x="907" d="M468 842q0 -60 26.5 -97.5t66.5 -66t87 -53.5t87 -59.5t66.5 -85.5t26.5 -131t-28.5 -147.5t-80.5 -116.5t-125 -76t-162 -27q-56 0 -113 11t-108.5 32t-94 49t-71.5 62l52 67q11 17 35 17q16 0 41 -16t59 -34t79.5 -34t104.5 -16q53 0 96.5 15t73 42.5t46 66.5t16.5 86 t-16 80.5t-41 59t-57.5 45t-67 39t-67 43t-58 56t-41 77t-15.5 107.5v48h-124q-16 0 -27.5 9.5t-11.5 30.5v72l170 23l42 319q3 15 13.5 25t28.5 10h92v-357h300v-132h-300v-43z" />
<glyph unicode="&#x1bf;" horiz-adv-x="1135" d="M328 92q111 44 209.5 101t172.5 128t117.5 155.5t43.5 183.5q0 60 -16.5 107t-48.5 78.5t-76 47t-99 15.5q-93 0 -169 -41t-134 -116v-659zM318 876q69 82 161 131t212 49q79 0 146.5 -24t117 -71.5t77.5 -116t28 -158.5q0 -95 -31.5 -178.5t-84.5 -156t-124.5 -134.5 t-153 -113.5t-168 -92.5t-170.5 -70v-292h-184v1388h110q39 0 48 -38z" />
<glyph unicode="&#x1c0;" horiz-adv-x="431" d="M144 1570h143v-1927h-143v1927z" />
<glyph unicode="&#x1c1;" horiz-adv-x="1045" d="M144 1570h143v-1927h-143v1927zM758 1570h143v-1927h-143v1927z" />
<glyph unicode="&#x1c2;" horiz-adv-x="1088" d="M636 701v-249h355v-145h-355v-706h-183v706h-356v145h356v249h-356v145h356v662h183v-662h355v-145h-355z" />
<glyph unicode="&#x1c3;" horiz-adv-x="417" d="M297 1467v-585q0 -46 -2 -90t-5 -89t-7.5 -91.5t-10.5 -99.5h-124q-6 53 -10.5 99.5t-7.5 91.5t-4.5 89t-1.5 90v585h173zM79 113q0 27 9.5 50t27 40.5t40.5 28t51 10.5q27 0 50 -10.5t40 -28t27.5 -41t10.5 -49.5q0 -28 -10.5 -51t-27.5 -40.5t-40.5 -27t-49.5 -9.5 q-28 0 -51 9.5t-40.5 27t-27 40.5t-9.5 51z" />
<glyph unicode="&#x1c4;" horiz-adv-x="2817" d="M1459 733q0 -165 -52 -300t-147.5 -231.5t-229 -149t-295.5 -52.5h-548v1467h548q162 0 295.5 -52.5t229 -149.5t147.5 -232t52 -300zM1255 733q0 135 -36.5 241.5t-104 180.5t-164 113t-215.5 39h-349v-1146h349q119 0 215.5 39t164 112t104 179.5t36.5 241.5z M2749 1394q0 -34 -20 -66l-831 -1166h839v-162h-1100v78q0 16 6 30.5t14 27.5l832 1170h-813v161h1073v-73zM2546 1861l-243 -278h-170l-244 278h133q12 0 29 -3.5t29 -20.5l125 -155l13 -18l12 18l124 154q13 18 30 21.5t29 3.5h133z" />
<glyph unicode="&#x1c5;" horiz-adv-x="2489" d="M1459 733q0 -165 -52 -300t-147.5 -231.5t-229 -149t-295.5 -52.5h-548v1467h548q162 0 295.5 -52.5t229 -149.5t147.5 -232t52 -300zM1255 733q0 135 -36.5 241.5t-104 180.5t-164 113t-215.5 39h-349v-1146h349q119 0 215.5 39t164 112t104 179.5t36.5 241.5zM2423 959 q0 -19 -6.5 -37.5t-17.5 -31.5l-563 -748h568v-142h-782v76q0 13 6.5 31t18.5 34l565 753h-558v143h769v-78zM2362 1467l-228 -270h-170l-229 270h126q12 0 23.5 -5t17.5 -10l131 -139q5 -5 9 -10.5t9 -10.5q5 5 8.5 10.5t8.5 10.5l131 139q7 5 18.5 10t22.5 5h122z" />
<glyph unicode="&#x1c6;" horiz-adv-x="2097" d="M820 791q-51 69 -110.5 95.5t-132.5 26.5q-144 0 -222.5 -103t-78.5 -295q0 -101 17.5 -173.5t51.5 -119t83 -68t112 -21.5q90 0 157 41t123 116v501zM1002 1508v-1508h-108q-39 0 -49 38l-17 126q-67 -80 -151.5 -129t-196.5 -49q-89 0 -161.5 34t-124 100.5t-79 166 t-27.5 228.5q0 115 31 213.5t88 171.5t140.5 114.5t188.5 41.5q95 0 163 -32.5t121 -89.5v574h182zM2031 959q0 -19 -6.5 -37.5t-17.5 -31.5l-563 -748h568v-142h-782v76q0 13 6.5 31t18.5 34l565 753h-558v143h769v-78zM1970 1467l-228 -270h-170l-229 270h126 q12 0 23.5 -5t17.5 -10l131 -139q5 -5 9 -10.5t9 -10.5q5 5 8.5 10.5t8.5 10.5l131 139q7 5 18.5 10t22.5 5h122z" />
<glyph unicode="&#x1c7;" horiz-adv-x="1965" d="M1020 167v-167h-833v1467h198v-1300h635zM1793 507q0 -123 -30 -220.5t-89 -164.5t-145 -102.5t-198 -35.5q-101 0 -207 28q2 30 5.5 59t5.5 58q2 17 12.5 28t33.5 11q18 0 48.5 -9t81.5 -9q68 0 121 20t88.5 63t54.5 110.5t19 159.5v964h199v-960z" />
<glyph unicode="&#x1c8;" horiz-adv-x="1568" d="M1020 167v-167h-833v1467h198v-1300h635zM1414 1037v-1114q0 -62 -16.5 -116t-52.5 -94t-91.5 -63t-133.5 -23q-33 0 -60.5 5.5t-55.5 15.5l7 98q2 9 7 13.5t13 6t21 1t32 -0.5q80 0 114 37t34 120v1114h182zM1452 1363q0 -27 -11 -50t-29 -41t-41.5 -28t-49.5 -10 q-27 0 -50 10t-40.5 28t-27.5 41t-10 50t10 51t27.5 42t40.5 28t50 10t50 -10t41 -28t29 -42t11 -51z" />
<glyph unicode="&#x1c9;" horiz-adv-x="1009" d="M333 1508v-1508h-182v1508h182zM856 1037v-1114q0 -62 -16.5 -116t-52.5 -94t-91.5 -63t-133.5 -23q-33 0 -60.5 5.5t-55.5 15.5l7 98q2 9 7 13.5t13 6t21 1t32 -0.5q80 0 114 37t34 120v1114h182zM894 1363q0 -27 -11 -50t-29 -41t-41.5 -28t-49.5 -10q-27 0 -50 10 t-40.5 28t-27.5 41t-10 50t10 51t27.5 42t40.5 28t50 10t50 -10t41 -28t29 -42t11 -51z" />
<glyph unicode="&#x1ca;" horiz-adv-x="2459" d="M1376 1467v-1467h-99q-24 0 -39.5 8t-31.5 28l-849 1106q2 -26 3 -50.5t1 -45.5v-1046h-174v1467h103q13 0 22.5 -1.5t16.5 -5t14 -10t15 -16.5l849 -1105q-2 27 -3.5 52t-1.5 47v1039h174zM2288 507q0 -123 -30.5 -220.5t-89.5 -164.5t-145 -102.5t-197 -35.5 q-101 0 -207 28q2 30 5 59t5 58q2 17 13 28t33 11q18 0 48.5 -9t81.5 -9q68 0 121 20t89 63t55 110.5t19 159.5v964h199v-960z" />
<glyph unicode="&#x1cb;" horiz-adv-x="2063" d="M1376 1467v-1467h-99q-24 0 -39.5 8t-31.5 28l-849 1106q2 -26 3 -50.5t1 -45.5v-1046h-174v1467h103q13 0 22.5 -1.5t16.5 -5t14 -10t15 -16.5l849 -1105q-2 27 -3.5 52t-1.5 47v1039h174zM1909 1037v-1114q0 -62 -16.5 -116t-52.5 -94t-91.5 -63t-133.5 -23 q-33 0 -60.5 5.5t-55.5 15.5l7 98q2 9 7 13.5t13 6t21 1t32 -0.5q80 0 114 37t34 120v1114h182zM1947 1363q0 -27 -11 -50t-29 -41t-41.5 -28t-49.5 -10q-27 0 -50 10t-40.5 28t-27.5 41t-10 50t10 51t27.5 42t40.5 28t50 10t50 -10t41 -28t29 -42t11 -51z" />
<glyph unicode="&#x1cc;" horiz-adv-x="1650" d="M316 887q34 38 72 68.5t80.5 52.5t90 34t103.5 12q85 0 150 -28.5t108.5 -80t66 -124t22.5 -161.5v-660h-184v660q0 118 -53.5 183t-163.5 65q-81 0 -151 -39t-129 -105v-764h-184v1037h110q39 0 48 -38zM1496 1037v-1114q0 -62 -16.5 -116t-52.5 -94t-91.5 -63 t-133.5 -23q-33 0 -60.5 5.5t-55.5 15.5l7 98q2 9 7 13.5t13 6t21 1t32 -0.5q80 0 114 37t34 120v1114h182zM1534 1363q0 -27 -11 -50t-29 -41t-41.5 -28t-49.5 -10q-27 0 -50 10t-40.5 28t-27.5 41t-10 50t10 51t27.5 42t40.5 28t50 10t50 -10t41 -28t29 -42t11 -51z" />
<glyph unicode="&#x1cd;" horiz-adv-x="1386" d="M967 545l-231 597q-10 27 -21.5 62t-21.5 75q-22 -83 -44 -138l-230 -596h548zM1380 0h-153q-27 0 -43.5 13.5t-24.5 33.5l-137 354h-658l-138 -354q-6 -18 -23.5 -32.5t-42.5 -14.5h-154l587 1467h201zM1021 1861l-243 -278h-170l-244 278h133q12 0 29 -3.5t29 -20.5 l125 -155l13 -18l12 18l124 154q13 18 30 21.5t29 3.5h133z" />
<glyph unicode="&#x1ce;" horiz-adv-x="1017" d="M707 467q-126 -4 -215 -20t-144.5 -41.5t-80.5 -60.5t-25 -78q0 -41 13 -70.5t36 -48.5t54.5 -27.5t67.5 -8.5q48 0 88 9.5t75 28t67.5 44t63.5 58.5v215zM118 891q86 83 185 124t220 41q87 0 154.5 -29t114 -80t70 -123.5t23.5 -159.5v-664h-81q-27 0 -41 8.5t-23 34.5 l-20 98q-41 -38 -80 -67t-82 -49t-91.5 -30.5t-108.5 -10.5t-113.5 16.5t-92.5 50.5t-62 85.5t-23 122.5q0 61 33.5 118t109.5 101t197.5 72.5t299.5 32.5v81q0 121 -52.5 182.5t-152.5 61.5q-68 0 -113.5 -17t-79 -37.5t-57.5 -37.5t-47 -17q-18 0 -31.5 9.5t-22.5 24.5z M814 1467l-228 -270h-170l-229 270h126q12 0 23.5 -5t17.5 -10l131 -139q5 -5 9 -10.5t9 -10.5q5 5 8.5 10.5t8.5 10.5l131 139q7 5 18.5 10t22.5 5h122z" />
<glyph unicode="&#x1cf;" horiz-adv-x="573" d="M386 0h-199v1467h199v-1467zM618 1861l-243 -278h-170l-244 278h133q12 0 29 -3.5t29 -20.5l125 -155l13 -18l12 18l124 154q13 18 30 21.5t29 3.5h133z" />
<glyph unicode="&#x1d0;" horiz-adv-x="491" d="M337 1037v-1037h-183v1037h183zM564 1467l-228 -270h-170l-229 270h126q12 0 23.5 -5t17.5 -10l131 -139q5 -5 9 -10.5t9 -10.5q5 5 8.5 10.5t8.5 10.5l131 139q7 5 18.5 10t22.5 5h122z" />
<glyph unicode="&#x1d1;" horiz-adv-x="1639" d="M1543 733q0 -165 -52 -302.5t-147.5 -237t-229 -154t-295.5 -54.5t-295 54.5t-228 154t-147.5 237t-52.5 302.5t52.5 303t147.5 237.5t228 155t295 55.5t295.5 -55.5t229 -155t147.5 -237.5t52 -303zM1339 733q0 135 -36.5 242.5t-104.5 182t-164 114.5t-215 40 q-118 0 -214 -40t-164 -114.5t-105 -182t-37 -242.5t37 -242t105 -181t164 -113.5t214 -39.5q119 0 215 39.5t164 113.5t104.5 181t36.5 242zM1150 1861l-243 -278h-170l-244 278h133q12 0 29 -3.5t29 -20.5l125 -155l13 -18l12 18l124 154q13 18 30 21.5t29 3.5h133z" />
<glyph unicode="&#x1d2;" horiz-adv-x="1161" d="M582 1054q114 0 205 -38t155.5 -107.5t98.5 -168.5t34 -221q0 -123 -34 -221t-98.5 -168t-156 -107t-204.5 -37q-115 0 -206.5 37t-156 107t-99 168t-34.5 221q0 122 34.5 221t99 168.5t156 107.5t206.5 38zM582 128q154 0 229.5 103t75.5 287q0 185 -76 288.5 t-229 103.5q-78 0 -136 -26.5t-96.5 -76.5t-57.5 -123.5t-19 -165.5q0 -184 76.5 -287t232.5 -103zM896 1467l-228 -270h-170l-229 270h126q12 0 23.5 -5t17.5 -10l131 -139q5 -5 9 -10.5t9 -10.5q5 5 8.5 10.5t8.5 10.5l131 139q7 5 18.5 10t22.5 5h122z" />
<glyph unicode="&#x1d3;" horiz-adv-x="1506" d="M754 158q91 0 162.5 30.5t121 86t76 132t26.5 168.5v892h197v-892q0 -127 -40.5 -235.5t-115.5 -187.5t-183.5 -124t-243.5 -45t-244 45t-184.5 124t-116 188t-40.5 235v892h198v-890q0 -92 26 -169t75.5 -132.5t122 -86.5t163.5 -31zM1082 1861l-243 -278h-170l-244 278 h133q12 0 29 -3.5t29 -20.5l125 -155l13 -18l12 18l124 154q13 18 30 21.5t29 3.5h133z" />
<glyph unicode="&#x1d4;" horiz-adv-x="1141" d="M997 1037v-1037h-108q-39 0 -49 38l-15 112q-68 -75 -151.5 -120.5t-192.5 -45.5q-85 0 -150 28t-109 79t-66 124t-22 161v661h182v-661q0 -118 54 -182.5t165 -64.5q81 0 151 38.5t129 105.5v764h182zM885 1467l-228 -270h-170l-229 270h126q12 0 23.5 -5t17.5 -10 l131 -139q5 -5 9 -10.5t9 -10.5q5 5 8.5 10.5t8.5 10.5l131 139q7 5 18.5 10t22.5 5h122z" />
<glyph unicode="&#x1d5;" horiz-adv-x="1506" d="M754 158q91 0 162.5 30.5t121 86t76 132t26.5 168.5v892h197v-892q0 -127 -40.5 -235.5t-115.5 -187.5t-183.5 -124t-243.5 -45t-244 45t-184.5 124t-116 188t-40.5 235v892h198v-890q0 -92 26 -169t75.5 -132.5t122 -86.5t163.5 -31zM468 2011h571v-108h-571v108z M652 1706q0 -23 -9 -42.5t-25 -35t-37 -24.5t-43 -9t-42 9t-35.5 24.5t-24.5 35t-9 42.5q0 24 9 45t24.5 36t35.5 24.5t42 9.5q23 0 43.5 -9.5t36.5 -24.5t25 -36t9 -45zM1080 1706q0 -23 -9 -42.5t-24.5 -35t-36 -24.5t-42.5 -9q-24 0 -44.5 9t-36 24.5t-24 35t-8.5 42.5 q0 24 8.5 45t24 36t36 24.5t44.5 9.5q23 0 43 -9.5t35.5 -24.5t24.5 -36t9 -45z" />
<glyph unicode="&#x1d6;" horiz-adv-x="1141" d="M997 1037v-1037h-108q-39 0 -49 38l-15 112q-68 -75 -151.5 -120.5t-192.5 -45.5q-85 0 -150 28t-109 79t-66 124t-22 161v661h182v-661q0 -118 54 -182.5t165 -64.5q81 0 151 38.5t129 105.5v764h182zM492 1320q0 -24 -9.5 -44.5t-25.5 -35.5t-37 -24.5t-45 -9.5 q-23 0 -43 9.5t-36 24.5t-25.5 35.5t-9.5 44.5t9.5 45t25.5 37t36 25.5t43 9.5q24 0 45 -9.5t37 -25.5t25.5 -37t9.5 -45zM882 1320q0 -24 -9.5 -44.5t-25 -35.5t-36.5 -24.5t-45 -9.5t-44.5 9.5t-36 24.5t-25 35.5t-9.5 44.5t9.5 45t25 37t36.5 25.5t44 9.5q24 0 45 -9.5 t36.5 -25.5t25 -37t9.5 -45zM278 1700h587v-120h-587v120z" />
<glyph unicode="&#x1d7;" horiz-adv-x="1506" d="M754 158q91 0 162.5 30.5t121 86t76 132t26.5 168.5v892h197v-892q0 -127 -40.5 -235.5t-115.5 -187.5t-183.5 -124t-243.5 -45t-244 45t-184.5 124t-116 188t-40.5 235v892h198v-890q0 -92 26 -169t75.5 -132.5t122 -86.5t163.5 -31zM1193 2172l-334 -292 q-15 -14 -29.5 -17.5t-34.5 -3.5h-131l236 281q17 23 35 27.5t52 4.5h206zM652 1706q0 -23 -9 -42.5t-25 -35t-37 -24.5t-43 -9t-42 9t-35.5 24.5t-24.5 35t-9 42.5q0 24 9 45t24.5 36t35.5 24.5t42 9.5q23 0 43.5 -9.5t36.5 -24.5t25 -36t9 -45zM1080 1706q0 -23 -9 -42.5 t-24.5 -35t-36 -24.5t-42.5 -9q-24 0 -44.5 9t-36 24.5t-24 35t-8.5 42.5q0 24 8.5 45t24 36t36 24.5t44.5 9.5q23 0 43 -9.5t35.5 -24.5t24.5 -36t9 -45z" />
<glyph unicode="&#x1d8;" horiz-adv-x="1141" d="M997 1037v-1037h-108q-39 0 -49 38l-15 112q-68 -75 -151.5 -120.5t-192.5 -45.5q-85 0 -150 28t-109 79t-66 124t-22 161v661h182v-661q0 -118 54 -182.5t165 -64.5q81 0 151 38.5t129 105.5v764h182zM916 1806l-239 -264q-14 -15 -28 -22t-35 -7h-109l152 248 q14 24 31 34.5t49 10.5h179zM492 1320q0 -24 -9.5 -44.5t-25.5 -35.5t-37 -24.5t-45 -9.5q-23 0 -43 9.5t-36 24.5t-25.5 35.5t-9.5 44.5t9.5 45t25.5 37t36 25.5t43 9.5q24 0 45 -9.5t37 -25.5t25.5 -37t9.5 -45zM882 1320q0 -24 -9.5 -44.5t-25 -35.5t-36.5 -24.5 t-45 -9.5t-44.5 9.5t-36 24.5t-25 35.5t-9.5 44.5t9.5 45t25 37t36.5 25.5t44 9.5q24 0 45 -9.5t36.5 -25.5t25 -37t9.5 -45z" />
<glyph unicode="&#x1d9;" horiz-adv-x="1506" d="M754 158q91 0 162.5 30.5t121 86t76 132t26.5 168.5v892h197v-892q0 -127 -40.5 -235.5t-115.5 -187.5t-183.5 -124t-243.5 -45t-244 45t-184.5 124t-116 188t-40.5 235v892h198v-890q0 -92 26 -169t75.5 -132.5t122 -86.5t163.5 -31zM1082 2137l-243 -278h-170l-244 278 h133q12 0 29 -3.5t29 -20.5l125 -155l13 -18l12 18l124 154q13 18 30 21.5t29 3.5h133zM652 1706q0 -23 -9 -42.5t-25 -35t-37 -24.5t-43 -9t-42 9t-35.5 24.5t-24.5 35t-9 42.5q0 24 9 45t24.5 36t35.5 24.5t42 9.5q23 0 43.5 -9.5t36.5 -24.5t25 -36t9 -45zM1080 1706 q0 -23 -9 -42.5t-24.5 -35t-36 -24.5t-42.5 -9q-24 0 -44.5 9t-36 24.5t-24 35t-8.5 42.5q0 24 8.5 45t24 36t36 24.5t44.5 9.5q23 0 43 -9.5t35.5 -24.5t24.5 -36t9 -45z" />
<glyph unicode="&#x1da;" horiz-adv-x="1141" d="M997 1037v-1037h-108q-39 0 -49 38l-15 112q-68 -75 -151.5 -120.5t-192.5 -45.5q-85 0 -150 28t-109 79t-66 124t-22 161v661h182v-661q0 -118 54 -182.5t165 -64.5q81 0 151 38.5t129 105.5v764h182zM375 1437q24 0 45 -9.5t37 -25.5t25.5 -37.5t9.5 -44.5 q0 -24 -9.5 -44.5t-25.5 -35.5t-37 -24.5t-45 -9.5q-23 0 -43 9.5t-36 24.5t-25.5 35.5t-9.5 44.5t9.5 45t25.5 37t36 25.5t43 9.5zM657 1517h-170l-229 270h126q12 0 23.5 -4.5t17.5 -9.5l131 -141q8 -8 18 -20q9 12 17 20l131 141q7 5 18.5 9.5t22.5 4.5h122zM766 1437 q24 0 45 -9.5t36.5 -25.5t25 -37.5t9.5 -44.5q0 -24 -9.5 -44.5t-25 -35.5t-36.5 -24.5t-45 -9.5t-44.5 9.5t-36 24.5t-25 35.5t-9.5 44.5t9.5 45t25 37t36 25.5t44.5 9.5z" />
<glyph unicode="&#x1db;" horiz-adv-x="1506" d="M754 158q91 0 162.5 30.5t121 86t76 132t26.5 168.5v892h197v-892q0 -127 -40.5 -235.5t-115.5 -187.5t-183.5 -124t-243.5 -45t-244 45t-184.5 124t-116 188t-40.5 235v892h198v-890q0 -92 26 -169t75.5 -132.5t122 -86.5t163.5 -31zM526 2172q34 0 51 -5t35 -27 l233 -281h-131q-23 0 -35.5 2.5t-27.5 17.5l-320 293h195zM652 1706q0 -23 -9 -42.5t-25 -35t-37 -24.5t-43 -9t-42 9t-35.5 24.5t-24.5 35t-9 42.5q0 24 9 45t24.5 36t35.5 24.5t42 9.5q23 0 43.5 -9.5t36.5 -24.5t25 -36t9 -45zM1080 1706q0 -23 -9 -42.5t-24.5 -35 t-36 -24.5t-42.5 -9q-24 0 -44.5 9t-36 24.5t-24 35t-8.5 42.5q0 24 8.5 45t24 36t36 24.5t44.5 9.5q23 0 43 -9.5t35.5 -24.5t24.5 -36t9 -45z" />
<glyph unicode="&#x1dc;" horiz-adv-x="1141" d="M997 1037v-1037h-108q-39 0 -49 38l-15 112q-68 -75 -151.5 -120.5t-192.5 -45.5q-85 0 -150 28t-109 79t-66 124t-22 161v661h182v-661q0 -118 54 -182.5t165 -64.5q81 0 151 38.5t129 105.5v764h182zM497 1320q0 -24 -9.5 -44.5t-25.5 -35.5t-37 -24.5t-45 -9.5 q-23 0 -43 9.5t-36 24.5t-25.5 35.5t-9.5 44.5t9.5 45t25.5 37t36 25.5t43 9.5q24 0 45 -9.5t37 -25.5t25.5 -37t9.5 -45zM887 1320q0 -24 -9.5 -44.5t-25 -35.5t-36.5 -24.5t-45 -9.5t-44.5 9.5t-36 24.5t-25 35.5t-9.5 44.5t9.5 45t25 37t36.5 25.5t44 9.5q24 0 45 -9.5 t36.5 -25.5t25 -37t9.5 -45zM443 1803q34 0 50.5 -10.5t30.5 -34.5l153 -247h-104q-22 0 -35.5 6.5t-27.5 22.5l-240 263h173z" />
<glyph unicode="&#x1dd;" horiz-adv-x="1081" d="M243 408q0 -63 18 -116t52 -91.5t83.5 -59.5t112.5 -21q131 0 207 76t94 212h-567zM95 893q35 41 81.5 71t100.5 50t111 30t114 10q108 0 198.5 -36.5t156.5 -107t102.5 -174t36.5 -237.5q0 -109 -33 -202.5t-95.5 -162.5t-152 -108.5t-203.5 -39.5q-93 0 -172.5 30.5 t-137.5 90t-90.5 145.5t-32.5 197q0 43 9 57t35 14h693q-3 98 -27 171.5t-66.5 121.5t-102.5 72t-134 24q-69 0 -118.5 -15.5t-85 -34t-59.5 -34.5t-41 -16q-24 0 -35 18z" />
<glyph unicode="&#x1de;" horiz-adv-x="1386" d="M967 545l-231 597q-10 27 -21.5 62t-21.5 75q-22 -83 -44 -138l-230 -596h548zM1380 0h-153q-27 0 -43.5 13.5t-24.5 33.5l-137 354h-658l-138 -354q-6 -18 -23.5 -32.5t-42.5 -14.5h-154l587 1467h201zM407 2011h571v-108h-571v108zM591 1706q0 -23 -9 -42.5t-25 -35 t-37 -24.5t-43 -9t-42 9t-35.5 24.5t-24.5 35t-9 42.5q0 24 9 45t24.5 36t35.5 24.5t42 9.5q23 0 43.5 -9.5t36.5 -24.5t25 -36t9 -45zM1019 1706q0 -23 -9 -42.5t-24.5 -35t-36 -24.5t-42.5 -9q-24 0 -44.5 9t-36 24.5t-24 35t-8.5 42.5q0 24 8.5 45t24 36t36 24.5 t44.5 9.5q23 0 43 -9.5t35.5 -24.5t24.5 -36t9 -45z" />
<glyph unicode="&#x1df;" horiz-adv-x="1017" d="M707 467q-126 -4 -215 -20t-144.5 -41.5t-80.5 -60.5t-25 -78q0 -41 13 -70.5t36 -48.5t54.5 -27.5t67.5 -8.5q48 0 88 9.5t75 28t67.5 44t63.5 58.5v215zM118 891q86 83 185 124t220 41q87 0 154.5 -29t114 -80t70 -123.5t23.5 -159.5v-664h-81q-27 0 -41 8.5t-23 34.5 l-20 98q-41 -38 -80 -67t-82 -49t-91.5 -30.5t-108.5 -10.5t-113.5 16.5t-92.5 50.5t-62 85.5t-23 122.5q0 61 33.5 118t109.5 101t197.5 72.5t299.5 32.5v81q0 121 -52.5 182.5t-152.5 61.5q-68 0 -113.5 -17t-79 -37.5t-57.5 -37.5t-47 -17q-18 0 -31.5 9.5t-22.5 24.5z M421 1320q0 -24 -9.5 -44.5t-25.5 -35.5t-37 -24.5t-45 -9.5q-23 0 -43 9.5t-36 24.5t-25.5 35.5t-9.5 44.5t9.5 45t25.5 37t36 25.5t43 9.5q24 0 45 -9.5t37 -25.5t25.5 -37t9.5 -45zM811 1320q0 -24 -9.5 -44.5t-25 -35.5t-36.5 -24.5t-45 -9.5t-44.5 9.5t-36 24.5 t-25 35.5t-9.5 44.5t9.5 45t25 37t36.5 25.5t44 9.5q24 0 45 -9.5t36.5 -25.5t25 -37t9.5 -45zM207 1700h587v-120h-587v120z" />
<glyph unicode="&#x1e0;" horiz-adv-x="1386" d="M967 545l-231 597q-10 27 -21.5 62t-21.5 75q-22 -83 -44 -138l-230 -596h548zM1380 0h-153q-27 0 -43.5 13.5t-24.5 33.5l-137 354h-658l-138 -354q-6 -18 -23.5 -32.5t-42.5 -14.5h-154l587 1467h201zM407 2045h571v-108h-571v108zM818 1729q0 -25 -10.5 -47.5 t-28 -39.5t-40.5 -27t-48 -10t-47.5 10t-39.5 27t-26.5 39.5t-9.5 47.5q0 26 9.5 48t26.5 39.5t39.5 27.5t47.5 10q26 0 48.5 -10t40 -27.5t28 -39.5t10.5 -48z" />
<glyph unicode="&#x1e1;" horiz-adv-x="1017" d="M707 467q-126 -4 -215 -20t-144.5 -41.5t-80.5 -60.5t-25 -78q0 -41 13 -70.5t36 -48.5t54.5 -27.5t67.5 -8.5q48 0 88 9.5t75 28t67.5 44t63.5 58.5v215zM118 891q86 83 185 124t220 41q87 0 154.5 -29t114 -80t70 -123.5t23.5 -159.5v-664h-81q-27 0 -41 8.5t-23 34.5 l-20 98q-41 -38 -80 -67t-82 -49t-91.5 -30.5t-108.5 -10.5t-113.5 16.5t-92.5 50.5t-62 85.5t-23 122.5q0 61 33.5 118t109.5 101t197.5 72.5t299.5 32.5v81q0 121 -52.5 182.5t-152.5 61.5q-68 0 -113.5 -17t-79 -37.5t-57.5 -37.5t-47 -17q-18 0 -31.5 9.5t-22.5 24.5z M207 1699h587v-119h-587v119zM631 1370q0 -27 -11 -50t-29 -40t-41.5 -27.5t-49.5 -10.5q-27 0 -50 10.5t-40.5 27.5t-27.5 40t-10 50t10 51t27.5 42t40.5 28t50 10t50 -10t41 -28t29 -42t11 -51z" />
<glyph unicode="&#x1e2;" horiz-adv-x="1905" d="M956 545l-97 774q-13 -43 -27.5 -79t-28.5 -69l-325 -626h478zM1816 162l-1 -162h-791l-50 401h-570l-184 -355q-10 -20 -29.5 -33t-46.5 -13h-150l774 1467h1047v-161h-766l60 -488h571v-155h-552l62 -501h626zM995 1735h571v-108h-571v108z" />
<glyph unicode="&#x1e3;" horiz-adv-x="1648" d="M1405 611q0 67 -16.5 124t-47.5 97.5t-76 64t-102 23.5q-62 0 -111.5 -21t-84.5 -61t-56.5 -97.5t-28.5 -129.5h523zM709 498q-126 -5 -214.5 -23t-144 -46.5t-80.5 -65.5t-25 -80q0 -89 51 -130t134 -41q58 0 109 18t89 56t59.5 94.5t21.5 132.5v85zM120 891 q86 83 178.5 124t208.5 41q123 0 197.5 -52.5t108.5 -144.5q55 90 144.5 142.5t211.5 52.5q84 0 157 -33t126 -95.5t84 -152t31 -204.5q0 -42 -8.5 -56.5t-33.5 -14.5h-645q4 -92 27.5 -161.5t63 -115.5t93 -69t120.5 -23q71 0 118 15t78 33.5t51 33t36 14.5q14 0 23 -4.5 t15 -12.5l48 -63q-34 -41 -78 -71t-95 -49.5t-105 -29t-108 -9.5q-121 0 -217.5 57.5t-153.5 176.5q-28 -63 -72 -108t-99 -74t-115.5 -41.5t-121.5 -12.5q-71 0 -129 17.5t-100.5 53.5t-65.5 90.5t-23 127.5q0 61 33.5 121t109 107t197 77t299.5 34v52q0 121 -52.5 185 t-152.5 64q-68 0 -113.5 -17.5t-78.5 -39t-57.5 -39.5t-47.5 -18q-18 0 -31.5 9.5t-22.5 24.5zM520 1380h587v-119h-587v119z" />
<glyph unicode="&#x1e4;" horiz-adv-x="1561" d="M1551 344h-171v-202q-55 -40 -115 -69.5t-128 -49.5t-146 -29.5t-169 -9.5q-160 0 -293 54.5t-229 153.5t-150 237t-54 304q0 168 53 306.5t150.5 237t237 153t311.5 54.5q87 0 161.5 -13t138 -37t118 -58.5t101.5 -77.5l-56 -90q-13 -20 -34.5 -25.5t-46.5 9.5 q-26 14 -57.5 34.5t-76.5 39.5t-107 32.5t-148 13.5q-124 0 -224.5 -40.5t-171 -116t-108.5 -182.5t-38 -240q0 -139 39.5 -248t111 -185t170 -116t217.5 -40q59 0 109 6.5t93.5 17t82.5 26.5t78 36v114h-232q-19 0 -31 11t-12 28v99h275v132h-232q-20 0 -31.5 11t-11.5 28 v102h455v-273h171v-138z" />
<glyph unicode="&#x1e5;" horiz-adv-x="1132" d="M273 -119q6 -29 27.5 -54t57.5 -44t88.5 -30t120.5 -11q143 0 222.5 37.5t92.5 101.5h-609zM884 -19q-2 31 -23.5 50t-57 31t-81 17.5t-96.5 9t-104 6.5t-102 10q-55 -23 -95 -54t-52 -70h611zM553 924q-111 0 -168.5 -56.5t-57.5 -151.5q0 -46 14.5 -84.5t43.5 -66 t71 -43t97 -15.5t97 15.5t71 43t43 66t14 84.5q0 95 -57.5 151.5t-167.5 56.5zM1152 -130h-120q-20 -49 -61 -93.5t-100.5 -78t-137 -53t-169.5 -19.5q-106 0 -187 19.5t-137 53t-88 78t-39 93.5h-108v122h126q24 47 68.5 82.5t106.5 56.5q-52 18 -84 51.5t-32 90.5 q0 45 34 90.5t100 76.5q-77 43 -120.5 115t-43.5 166q0 76 29 138t81.5 105.5t124.5 67t158 23.5q68 0 126 -15t106 -44h283v-67q0 -34 -43 -43l-119 -16q35 -68 35 -149q0 -76 -29 -138t-80.5 -106t-123 -67.5t-155.5 -23.5q-73 0 -139 17q-66 -35 -66 -79q0 -32 29 -48 t76.5 -23.5t109 -10.5t125.5 -9.5t126.5 -19t113 -39t83.5 -70.5t40 -112h101v-122z" />
<glyph unicode="&#x1e6;" horiz-adv-x="1496" d="M1379 706v-564q-111 -80 -236 -119t-275 -39q-177 0 -319 54.5t-243 153.5t-155.5 237t-54.5 304q0 168 53 306.5t150 237t236.5 153t311.5 54.5q87 0 161.5 -13t138 -37t118 -58.5t101.5 -77.5l-56 -90q-13 -20 -34.5 -25.5t-46.5 9.5q-25 14 -56.5 34.5t-77 39.5 t-107.5 32.5t-147 13.5q-124 0 -224.5 -40.5t-171 -116t-108.5 -182.5t-38 -240q0 -138 39.5 -247t112.5 -185.5t177.5 -116.5t234.5 -40q102 0 181.5 23t155.5 64v323h-228q-19 0 -31 11.5t-12 27.5v113h450zM1177 1861l-243 -278h-170l-244 278h133q12 0 29 -3.5t29 -20.5 l125 -155l13 -18l12 18l124 154q13 18 30 21.5t29 3.5h133z" />
<glyph unicode="&#x1e7;" horiz-adv-x="1064" d="M506 507q55 0 97 15.5t70.5 43t43 66t14.5 84.5q0 95 -58 151.5t-167 56.5q-111 0 -168.5 -56.5t-57.5 -151.5q0 -46 14.5 -84.5t43.5 -66t71 -43t97 -15.5zM835 -56q0 38 -21.5 61.5t-58 36.5t-84.5 19t-102 9t-109.5 6t-106.5 10q-57 -27 -93.5 -67.5t-36.5 -94.5 q0 -35 18 -65t55 -52t92.5 -35t131.5 -13q74 0 132.5 13.5t99 38t62 58.5t21.5 75zM1020 996v-67q0 -34 -43 -43l-118 -16q35 -68 35 -149q0 -76 -29 -138t-80.5 -106t-123 -67.5t-155.5 -23.5q-73 0 -137 17q-33 -20 -50.5 -43t-17.5 -47q0 -37 30 -55.5t79.5 -27 t112.5 -10.5t129 -6.5t129 -16t112 -37t79 -70.5t30 -117q0 -67 -33 -129t-95.5 -110.5t-153 -78t-204.5 -29.5t-199 22.5t-141 60.5t-84.5 87.5t-28.5 104.5q0 77 48.5 130t132.5 85q-46 20 -73.5 54.5t-27.5 92.5q0 23 8.5 47t25.5 48t41.5 45.5t56.5 37.5 q-77 43 -119.5 114.5t-42.5 165.5q0 76 29 138t81 105.5t124.5 67t158.5 23.5q68 0 126 -15t106 -44h282zM843 1467l-228 -270h-170l-229 270h126q12 0 23.5 -5t17.5 -10l131 -139q5 -5 9 -10.5t9 -10.5q5 5 8.5 10.5t8.5 10.5l131 139q7 5 18.5 10t22.5 5h122z" />
<glyph unicode="&#x1e8;" horiz-adv-x="1356" d="M385 824h75q39 0 62.5 10t42.5 33l489 553q20 27 42.5 37t55.5 10h168l-559 -631q-20 -25 -39.5 -41t-40.5 -26q28 -9 50.5 -27t43.5 -47l584 -695h-172q-19 0 -33 2.5t-24.5 8t-18 13.5t-14.5 18l-506 583q-20 26 -44 36.5t-72 10.5h-90v-672h-198v1467h198v-643z M1045 1861l-243 -278h-170l-244 278h133q12 0 29 -3.5t29 -20.5l125 -155l13 -18l12 18l124 154q13 18 30 21.5t29 3.5h133z" />
<glyph unicode="&#x1e9;" horiz-adv-x="1040" d="M328 1508v-887h47q20 0 34 5.5t29 22.5l328 351q14 17 30 27t43 10h165l-382 -406q-28 -35 -60 -54q18 -12 33 -28.5t29 -36.5l405 -512h-163q-24 0 -40.5 7.5t-28.5 28.5l-341 425q-15 22 -30 28.5t-46 6.5h-52v-496h-184v1508h184zM566 1861l-243 -278h-170l-244 278 h133q12 0 29 -3.5t29 -20.5l125 -155l13 -18l12 18l124 154q13 18 30 21.5t29 3.5h133z" />
<glyph unicode="&#x1ea;" horiz-adv-x="1638" d="M299 733q0 -135 37 -242t105 -181t164 -113.5t214 -39.5q119 0 215 39.5t164 113.5t104.5 181t36.5 242t-36.5 242.5t-104.5 182t-164 114.5t-215 40q-118 0 -214 -40t-164 -114.5t-105 -182t-37 -242.5zM1040 -300q-32 -24 -79 -38.5t-99 -14.5q-91 0 -142 40.5 t-51 107.5q0 55 34 103.5t90 86.5q-156 5 -284.5 61.5t-220 155.5t-142 234t-50.5 297q0 165 52.5 303t147.5 237.5t228 155t295 55.5t295.5 -55.5t229 -155t147.5 -237.5t52 -303q0 -153 -45 -282t-127.5 -226.5t-198 -158.5t-258.5 -76q-19 -11 -38.5 -27t-35 -35 t-25 -41.5t-9.5 -47.5q0 -39 25.5 -61t67.5 -22q24 0 39 3.5t25.5 8.5t17 8.5t11.5 3.5q14 0 20 -12z" />
<glyph unicode="&#x1eb;" horiz-adv-x="1160" d="M273 518q0 -92 19 -164.5t57.5 -122.5t96 -76.5t135.5 -26.5q154 0 229.5 103t75.5 287q0 185 -76 288.5t-229 103.5q-78 0 -135.5 -26.5t-96 -76.5t-57.5 -123.5t-19 -165.5zM794 -300q-31 -24 -78.5 -38.5t-100.5 -14.5q-90 0 -141 40.5t-51 107.5q0 55 35.5 104 t90.5 88q-108 5 -193.5 44.5t-145.5 108.5t-92.5 164.5t-32.5 214.5q0 122 35 221t99.5 168.5t156 107.5t205.5 38t205.5 -38t155.5 -107.5t98 -168.5t34 -221q0 -110 -27.5 -200.5t-79.5 -158t-126.5 -110.5t-167.5 -57q-19 -11 -39.5 -27t-36.5 -35.5t-26.5 -42.5 t-10.5 -49q0 -39 25 -61t68 -22q24 0 39.5 3.5t25.5 8.5t16.5 8.5t11.5 3.5q14 0 20 -12z" />
<glyph unicode="&#x1ec;" horiz-adv-x="1639" d="M1107 1627h-571v108h571v-108zM299 733q0 -135 37 -242t105 -181t164 -113.5t214 -39.5q119 0 215 39.5t164 113.5t104.5 181t36.5 242t-36.5 242.5t-104.5 182t-164 114.5t-215 40q-118 0 -214 -40t-164 -114.5t-105 -182t-37 -242.5zM1015 -297q-31 -24 -78.5 -38.5 t-99.5 -14.5q-90 0 -142 40.5t-52 107.5q0 54 34 102t88 87q-151 9 -273.5 67.5t-210.5 156.5t-136.5 230.5t-48.5 291.5q0 165 52.5 303t147.5 237.5t228 155t295 55.5t295.5 -55.5t229 -155t147.5 -237.5t52 -303q0 -158 -47.5 -290t-134.5 -230t-209.5 -157t-271.5 -69 q-18 -12 -36 -27t-31.5 -33.5t-22.5 -39.5t-9 -45q0 -39 25 -61t68 -22q24 0 39.5 4t25.5 8.5t17 8.5t12 4q7 0 11.5 -4t6.5 -9z" />
<glyph unicode="&#x1ed;" horiz-adv-x="1161" d="M877 1261h-588v119h588v-119zM273 518q0 -184 76.5 -287t232.5 -103q154 0 229.5 103t75.5 287q0 185 -76 288.5t-229 103.5q-78 0 -136 -26.5t-96.5 -76.5t-57.5 -123.5t-19 -165.5zM777 -297q-31 -24 -78.5 -38.5t-99.5 -14.5q-90 0 -141.5 40.5t-51.5 107.5 q0 54 34 103t89 87q-103 8 -185 49t-139.5 109.5t-88 162.5t-30.5 210q0 122 34.5 221t99 168.5t156 107.5t206.5 38q114 0 205 -38t155.5 -107.5t98.5 -168.5t34 -221q0 -114 -29.5 -207t-85.5 -161.5t-135.5 -110t-178.5 -51.5q-18 -12 -36.5 -27.5t-33.5 -34t-23.5 -40 t-8.5 -45.5q0 -39 25 -61t68 -22q24 0 39 4t25.5 8.5t17 8.5t11.5 4q7 0 11.5 -4t7.5 -9z" />
<glyph unicode="&#x1ee;" horiz-adv-x="1202" d="M610 904q133 -4 228 -36.5t155.5 -88t88 -128.5t27.5 -157q0 -116 -45.5 -210.5t-123 -161t-181 -102t-218.5 -35.5q-76 0 -146.5 15t-133 44.5t-115.5 70.5t-93 93l78 87q10 11 19 13t15 2q11 0 20.5 -4t26.5 -18q16 -18 44.5 -42t69 -44.5t93.5 -34t120 -13.5 q88 0 156.5 26.5t115 71.5t71 105.5t24.5 126.5q0 58 -20.5 108.5t-65.5 87.5t-117.5 58t-178.5 21h-166v84q0 16 6.5 33t22.5 33l404 397h-696v161h973v-73q0 -17 -5.5 -36.5t-26.5 -39.5zM907 1861l-243 -278h-170l-244 278h133q12 0 29 -3.5t29 -20.5l125 -155l13 -18 l12 18l124 154q13 18 30 21.5t29 3.5h133z" />
<glyph unicode="&#x1ef;" horiz-adv-x="900" d="M397 475q112 -4 194 -34t135 -81t79 -120.5t26 -153.5q0 -96 -32.5 -179t-95.5 -144t-155 -96t-212 -35q-122 0 -206.5 36t-145.5 91l42 70q17 27 47 27q19 0 40 -13.5t50.5 -30t71 -29.5t104.5 -13q72 0 129.5 20.5t98.5 59t63 95t22 129.5q0 61 -17.5 112.5t-53 88 t-91.5 56.5t-134 20h-181v59q0 32 26 51l349 433h-515v143h736v-78q0 -24 -10.5 -43.5t-26.5 -35.5zM739 1467l-228 -270h-170l-229 270h126q12 0 23.5 -5t17.5 -10l131 -139q5 -5 9 -10.5t9 -10.5q5 5 8.5 10.5t8.5 10.5l131 139q7 5 18.5 10t22.5 5h122z" />
<glyph unicode="&#x1f0;" horiz-adv-x="491" d="M337 1037v-1114q0 -62 -17 -116t-52.5 -94t-91 -63t-133.5 -23q-34 0 -61 5.5t-55 15.5l7 98q2 9 6.5 13.5t12.5 6t21 1t32 -0.5q80 0 114 37t34 120v1114h183zM559 1467l-228 -270h-170l-229 270h126q12 0 23.5 -5t17.5 -10l131 -139q5 -5 9 -10.5t9 -10.5q5 5 8.5 10.5 t8.5 10.5l131 139q7 5 18.5 10t22.5 5h122z" />
<glyph unicode="&#x1f1;" horiz-adv-x="2817" d="M1459 733q0 -165 -52 -300t-147.5 -231.5t-229 -149t-295.5 -52.5h-548v1467h548q162 0 295.5 -52.5t229 -149.5t147.5 -232t52 -300zM1255 733q0 135 -36.5 241.5t-104 180.5t-164 113t-215.5 39h-349v-1146h349q119 0 215.5 39t164 112t104 179.5t36.5 241.5z M2749 1394q0 -34 -20 -66l-831 -1166h839v-162h-1100v78q0 16 6 30.5t14 27.5l832 1170h-813v161h1073v-73z" />
<glyph unicode="&#x1f2;" horiz-adv-x="2489" d="M1459 733q0 -165 -52 -300t-147.5 -231.5t-229 -149t-295.5 -52.5h-548v1467h548q162 0 295.5 -52.5t229 -149.5t147.5 -232t52 -300zM1255 733q0 135 -36.5 241.5t-104 180.5t-164 113t-215.5 39h-349v-1146h349q119 0 215.5 39t164 112t104 179.5t36.5 241.5zM2423 959 q0 -19 -6.5 -37.5t-17.5 -31.5l-563 -748h568v-142h-782v76q0 13 6.5 31t18.5 34l565 753h-558v143h769v-78z" />
<glyph unicode="&#x1f3;" horiz-adv-x="2097" d="M820 791q-51 69 -110.5 95.5t-132.5 26.5q-144 0 -222.5 -103t-78.5 -295q0 -101 17.5 -173.5t51.5 -119t83 -68t112 -21.5q90 0 157 41t123 116v501zM1002 1508v-1508h-108q-39 0 -49 38l-17 126q-67 -80 -151.5 -129t-196.5 -49q-89 0 -161.5 34t-124 100.5t-79 166 t-27.5 228.5q0 115 31 213.5t88 171.5t140.5 114.5t188.5 41.5q95 0 163 -32.5t121 -89.5v574h182zM2031 959q0 -19 -6.5 -37.5t-17.5 -31.5l-563 -748h568v-142h-782v76q0 13 6.5 31t18.5 34l565 753h-558v143h769v-78z" />
<glyph unicode="&#x1f4;" horiz-adv-x="1496" d="M1379 706v-564q-111 -80 -236 -119t-275 -39q-177 0 -319 54.5t-243 153.5t-155.5 237t-54.5 304q0 168 53 306.5t150 237t236.5 153t311.5 54.5q87 0 161.5 -13t138 -37t118 -58.5t101.5 -77.5l-56 -90q-13 -20 -34.5 -25.5t-46.5 9.5q-25 14 -56.5 34.5t-77 39.5 t-107.5 32.5t-147 13.5q-124 0 -224.5 -40.5t-171 -116t-108.5 -182.5t-38 -240q0 -138 39.5 -247t112.5 -185.5t177.5 -116.5t234.5 -40q102 0 181.5 23t155.5 64v323h-228q-19 0 -31 11.5t-12 27.5v113h450zM1236 1896l-334 -292q-15 -14 -29.5 -17.5t-34.5 -3.5h-131 l236 281q17 23 35 27.5t52 4.5h206z" />
<glyph unicode="&#x1f5;" horiz-adv-x="1064" d="M506 507q55 0 97 15.5t70.5 43t43 66t14.5 84.5q0 95 -58 151.5t-167 56.5q-111 0 -168.5 -56.5t-57.5 -151.5q0 -46 14.5 -84.5t43.5 -66t71 -43t97 -15.5zM835 -56q0 38 -21.5 61.5t-58 36.5t-84.5 19t-102 9t-109.5 6t-106.5 10q-57 -27 -93.5 -67.5t-36.5 -94.5 q0 -35 18 -65t55 -52t92.5 -35t131.5 -13q74 0 132.5 13.5t99 38t62 58.5t21.5 75zM1020 996v-67q0 -34 -43 -43l-118 -16q35 -68 35 -149q0 -76 -29 -138t-80.5 -106t-123 -67.5t-155.5 -23.5q-73 0 -137 17q-33 -20 -50.5 -43t-17.5 -47q0 -37 30 -55.5t79.5 -27 t112.5 -10.5t129 -6.5t129 -16t112 -37t79 -70.5t30 -117q0 -67 -33 -129t-95.5 -110.5t-153 -78t-204.5 -29.5t-199 22.5t-141 60.5t-84.5 87.5t-28.5 104.5q0 77 48.5 130t132.5 85q-46 20 -73.5 54.5t-27.5 92.5q0 23 8.5 47t25.5 48t41.5 45.5t56.5 37.5 q-77 43 -119.5 114.5t-42.5 165.5q0 76 29 138t81 105.5t124.5 67t158.5 23.5q68 0 126 -15t106 -44h282zM828 1484l-239 -264q-14 -15 -28 -22t-35 -7h-109l152 248q14 24 31 34.5t49 10.5h179z" />
<glyph unicode="&#x1f6;" horiz-adv-x="2178" d="M1644 1027q42 14 86 20t90 6q83 0 137 -29t86 -77t44.5 -111.5t12.5 -133.5q0 -179 -45 -313.5t-119 -224t-169.5 -134.5t-195.5 -45q-82 0 -153 23.5t-125 75t-84.5 134t-30.5 201.5v249h-792v-668h-199v1467h199v-654h792v654h198l-1 -1048q0 -146 52.5 -216t146.5 -70 q69 0 130 34t108 103.5t74 175t27 248.5q0 102 -32 154.5t-108 52.5q-26 0 -46 -5.5t-31 -5.5q-31 0 -37 35z" />
<glyph unicode="&#x1f7;" horiz-adv-x="1436" d="M385 151q185 78 327.5 166.5t239.5 189.5t146.5 218t49.5 252q0 77 -23 139t-65 105.5t-101.5 67.5t-132.5 24q-67 0 -127 -18t-115 -50.5t-105 -78t-94 -100.5v-915zM382 1256q59 60 117 103.5t117 70.5t121 39.5t129 12.5q114 0 203.5 -41t151.5 -109.5t95 -158 t33 -184.5q0 -168 -68 -315t-193 -274.5t-303.5 -236.5t-399.5 -200v-315h-198v1828h143q17 0 32.5 -16t16.5 -41z" />
<glyph unicode="&#x1f8;" horiz-adv-x="1563" d="M1376 1467v-1467h-99q-24 0 -39.5 8t-31.5 28l-849 1106q2 -26 3 -50.5t1 -45.5v-1046h-174v1467h103q13 0 22.5 -1.5t16.5 -5t14 -10t15 -16.5l849 -1105q-2 27 -3.5 52t-1.5 47v1039h174zM751 1914q34 0 50.5 -11t30.5 -34l153 -248h-105q-22 0 -35 6.5t-27 22.5 l-240 264h173z" />
<glyph unicode="&#x1f9;" horiz-adv-x="1142" d="M316 887q34 38 72 68.5t80.5 52.5t90 34t103.5 12q85 0 150 -28.5t108.5 -80t66 -124t22.5 -161.5v-660h-184v660q0 118 -53.5 183t-163.5 65q-81 0 -151 -39t-129 -105v-764h-184v1037h110q39 0 48 -38zM475 1484q34 0 50.5 -11t30.5 -34l153 -248h-105q-22 0 -35 6.5 t-27 22.5l-240 264h173z" />
<glyph unicode="&#x1fa;" horiz-adv-x="1386" d="M967 545l-231 597q-10 27 -21.5 62t-21.5 75q-22 -83 -44 -138l-230 -596h548zM1380 0h-153q-27 0 -43.5 13.5t-24.5 33.5l-137 354h-658l-138 -354q-6 -18 -23.5 -32.5t-42.5 -14.5h-154l587 1467h201zM509 1696q0 38 15 70t40 55t58.5 36t70.5 13q38 0 71.5 -13t59 -36 t40.5 -55t15 -70t-15 -69.5t-40.5 -54t-59.5 -34.5t-71 -12t-70.5 12t-58.5 34.5t-40 54t-15 69.5zM594 1696q0 -43 26.5 -71.5t73.5 -28.5q45 0 72.5 28.5t27.5 71.5q0 46 -27.5 73t-72.5 27q-46 0 -73 -27t-27 -73zM1101 2158l-297 -218q-15 -14 -29.5 -17t-34.5 -3h-131 l199 205q17 23 35.5 28t51.5 5h206z" />
<glyph unicode="&#x1fb;" horiz-adv-x="1017" d="M707 467q-126 -4 -215 -20t-144.5 -41.5t-80.5 -60.5t-25 -78q0 -41 13 -70.5t36 -48.5t54.5 -27.5t67.5 -8.5q48 0 88 9.5t75 28t67.5 44t63.5 58.5v215zM118 891q86 83 185 124t220 41q87 0 154.5 -29t114 -80t70 -123.5t23.5 -159.5v-664h-81q-27 0 -41 8.5t-23 34.5 l-20 98q-41 -38 -80 -67t-82 -49t-91.5 -30.5t-108.5 -10.5t-113.5 16.5t-92.5 50.5t-62 85.5t-23 122.5q0 61 33.5 118t109.5 101t197.5 72.5t299.5 32.5v81q0 121 -52.5 182.5t-152.5 61.5q-68 0 -113.5 -17t-79 -37.5t-57.5 -37.5t-47 -17q-18 0 -31.5 9.5t-22.5 24.5z M297 1339q0 43 16.5 78t44.5 60.5t65 39.5t78 14q42 0 79 -14t66 -39.5t45 -60.5t16 -78q0 -42 -16 -76.5t-45 -59.5t-66 -39t-79 -14q-41 0 -78 14t-65 39t-44.5 59.5t-16.5 76.5zM399 1339q0 -45 27.5 -73.5t76.5 -28.5q46 0 74 28.5t28 73.5q0 46 -28 75t-74 29 q-48 0 -76 -29t-28 -75zM860 1891l-240 -264q-14 -15 -27.5 -21.5t-34.5 -6.5h-110l153 247q13 24 30 34.5t51 10.5h178z" />
<glyph unicode="&#x1fc;" horiz-adv-x="1905" d="M956 545l-97 774q-13 -43 -27.5 -79t-28.5 -69l-325 -626h478zM1816 162l-1 -162h-791l-50 401h-570l-184 -355q-10 -20 -29.5 -33t-46.5 -13h-150l774 1467h1047v-161h-766l60 -488h571v-155h-552l62 -501h626zM1668 1896l-334 -292q-15 -14 -29.5 -17.5t-34.5 -3.5 h-131l236 281q17 23 35 27.5t52 4.5h206z" />
<glyph unicode="&#x1fd;" horiz-adv-x="1648" d="M1405 611q0 67 -16.5 124t-47.5 97.5t-76 64t-102 23.5q-62 0 -111.5 -21t-84.5 -61t-56.5 -97.5t-28.5 -129.5h523zM709 498q-126 -5 -214.5 -23t-144 -46.5t-80.5 -65.5t-25 -80q0 -89 51 -130t134 -41q58 0 109 18t89 56t59.5 94.5t21.5 132.5v85zM120 891 q86 83 178.5 124t208.5 41q123 0 197.5 -52.5t108.5 -144.5q55 90 144.5 142.5t211.5 52.5q84 0 157 -33t126 -95.5t84 -152t31 -204.5q0 -42 -8.5 -56.5t-33.5 -14.5h-645q4 -92 27.5 -161.5t63 -115.5t93 -69t120.5 -23q71 0 118 15t78 33.5t51 33t36 14.5q14 0 23 -4.5 t15 -12.5l48 -63q-34 -41 -78 -71t-95 -49.5t-105 -29t-108 -9.5q-121 0 -217.5 57.5t-153.5 176.5q-28 -63 -72 -108t-99 -74t-115.5 -41.5t-121.5 -12.5q-71 0 -129 17.5t-100.5 53.5t-65.5 90.5t-23 127.5q0 61 33.5 121t109 107t197 77t299.5 34v52q0 121 -52.5 185 t-152.5 64q-68 0 -113.5 -17.5t-78.5 -39t-57.5 -39.5t-47.5 -18q-18 0 -31.5 9.5t-22.5 24.5zM1112 1484l-239 -264q-14 -15 -28 -22t-35 -7h-109l152 248q14 24 31 34.5t49 10.5h179z" />
<glyph unicode="&#x1fe;" horiz-adv-x="1636" d="M541 228q119 -72 278 -71q119 0 215 39.5t164 113.5t104.5 181t36.5 242q0 129 -33 232t-95 177zM1121 1225q-61 43 -137 65t-165 22q-118 0 -214 -40t-164 -114.5t-105 -182t-37 -242.5q0 -138 38.5 -246t108.5 -183zM1323 1293q105 -100 162.5 -242.5t57.5 -317.5 q0 -165 -52 -302.5t-147.5 -237t-229 -154t-295.5 -54.5q-110 0 -206 25.5t-178 73.5l-102 -139q-22 -31 -52 -44t-60 -13h-80l196 267q-115 100 -178 247.5t-63 330.5q0 165 52.5 303t147.5 237.5t228 155t295 55.5q118 0 221 -30t188 -85l83 114q20 28 36.5 39.5 t49.5 11.5h102zM1216 1896l-334 -292q-15 -14 -29.5 -17.5t-34.5 -3.5h-131l236 281q17 23 35 27.5t52 4.5h206z" />
<glyph unicode="&#x1ff;" horiz-adv-x="1161" d="M401 172q72 -49 181 -49q77 0 135.5 27t99 78.5t61 124.5t20.5 165q0 155 -53 253zM770 859q-75 57 -188 57q-78 0 -137.5 -27.5t-100 -78.5t-61 -125.5t-20.5 -166.5q0 -164 61 -263zM944 906q63 -71 97 -168t34 -219q0 -123 -34 -221t-98.5 -168t-156 -107t-204.5 -37 q-78 0 -145 17t-123 50l-56 -76q-20 -31 -51.5 -43t-61.5 -12h-68l148 201q-68 71 -103.5 170.5t-35.5 225.5q0 122 34.5 221t99 168.5t156 107.5t206.5 38q81 0 150 -19.5t126 -55.5l70 93q18 29 35 40t51 11h91zM879 1484l-239 -264q-14 -15 -28 -22t-35 -7h-109l152 248 q14 24 31 34.5t49 10.5h179z" />
<glyph unicode="&#x200;" horiz-adv-x="1386" d="M967 545l-231 597q-10 27 -21.5 62t-21.5 75q-22 -83 -44 -138l-230 -596h548zM1380 0h-153q-27 0 -43.5 13.5t-24.5 33.5l-137 354h-658l-138 -354q-6 -18 -23.5 -32.5t-42.5 -14.5h-154l587 1467h201zM699 1862q33 0 53.5 -12t35.5 -33l151 -234h-88q-20 0 -34 6.5 t-28 21.5l-211 251h121zM336 1862q33 0 54.5 -12t38.5 -33l190 -234h-98q-20 0 -36.5 6.5t-32.5 21.5l-255 251h139z" />
<glyph unicode="&#x201;" horiz-adv-x="1017" d="M707 467q-126 -4 -215 -20t-144.5 -41.5t-80.5 -60.5t-25 -78q0 -41 13 -70.5t36 -48.5t54.5 -27.5t67.5 -8.5q48 0 88 9.5t75 28t67.5 44t63.5 58.5v215zM118 891q86 83 185 124t220 41q87 0 154.5 -29t114 -80t70 -123.5t23.5 -159.5v-664h-81q-27 0 -41 8.5t-23 34.5 l-20 98q-41 -38 -80 -67t-82 -49t-91.5 -30.5t-108.5 -10.5t-113.5 16.5t-92.5 50.5t-62 85.5t-23 122.5q0 61 33.5 118t109.5 101t197.5 72.5t299.5 32.5v81q0 121 -52.5 182.5t-152.5 61.5q-68 0 -113.5 -17t-79 -37.5t-57.5 -37.5t-47 -17q-18 0 -31.5 9.5t-22.5 24.5z M503 1484q34 0 51 -11t30 -34l141 -248h-76q-22 0 -36.5 6t-26.5 23l-204 264h121zM194 1484q34 0 50 -11.5t31 -33.5l185 -248h-88q-20 0 -34.5 6.5t-28.5 22.5l-248 264h133z" />
<glyph unicode="&#x202;" horiz-adv-x="1386" d="M967 545l-231 597q-10 27 -21.5 62t-21.5 75q-22 -83 -44 -138l-230 -596h548zM1380 0h-153q-27 0 -43.5 13.5t-24.5 33.5l-137 354h-658l-138 -354q-6 -18 -23.5 -32.5t-42.5 -14.5h-154l587 1467h201zM693 1852q145 0 225.5 -70.5t80.5 -200.5h-142q0 38 -8.5 67 t-27.5 49t-50.5 31t-77.5 11t-78 -11t-51.5 -31t-28 -49t-8.5 -67h-142q0 138 81.5 204.5t226.5 66.5z" />
<glyph unicode="&#x203;" horiz-adv-x="1017" d="M707 467q-126 -4 -215 -20t-144.5 -41.5t-80.5 -60.5t-25 -78q0 -41 13 -70.5t36 -48.5t54.5 -27.5t67.5 -8.5q48 0 88 9.5t75 28t67.5 44t63.5 58.5v215zM118 891q86 83 185 124t220 41q87 0 154.5 -29t114 -80t70 -123.5t23.5 -159.5v-664h-81q-27 0 -41 8.5t-23 34.5 l-20 98q-41 -38 -80 -67t-82 -49t-91.5 -30.5t-108.5 -10.5t-113.5 16.5t-92.5 50.5t-62 85.5t-23 122.5q0 61 33.5 118t109.5 101t197.5 72.5t299.5 32.5v81q0 121 -52.5 182.5t-152.5 61.5q-68 0 -113.5 -17t-79 -37.5t-57.5 -37.5t-47 -17q-18 0 -31.5 9.5t-22.5 24.5z M501 1483q78 0 131.5 -22t87 -60t47.5 -87.5t14 -106.5h-129q0 34 -7 63t-24.5 49.5t-46.5 32.5t-73 12t-73.5 -12t-47 -32.5t-24.5 -49.5t-7 -63h-129q0 56 14.5 106t47.5 88t86.5 60t132.5 22z" />
<glyph unicode="&#x204;" horiz-adv-x="1182" d="M1093 162l-1 -162h-905v1467h905v-161h-706v-488h571v-155h-571v-501h707zM659 1862q33 0 53.5 -12t35.5 -33l151 -234h-88q-20 0 -34 6.5t-28 21.5l-211 251h121zM296 1862q33 0 54.5 -12t38.5 -33l190 -234h-98q-20 0 -36.5 6.5t-32.5 21.5l-255 251h139z" />
<glyph unicode="&#x205;" horiz-adv-x="1081" d="M839 632q0 63 -18 116t-52.5 91.5t-83.5 59.5t-112 21q-131 0 -207 -76.5t-95 -211.5h568zM986 145q-34 -41 -81 -71t-100.5 -49.5t-111 -29t-113.5 -9.5q-108 0 -198.5 36t-156.5 106.5t-103 174t-37 237.5q0 109 33.5 203t95.5 163t152.5 108.5t202.5 39.5 q93 0 172.5 -31.5t137.5 -90.5t90.5 -145.5t32.5 -196.5q0 -43 -9 -57.5t-35 -14.5h-693q3 -98 27 -171t67 -121.5t102.5 -72.5t133.5 -24q69 0 118.5 16t85.5 34.5t60 34t41 15.5q23 0 35 -17zM576 1484q34 0 51 -11t30 -34l141 -248h-76q-22 0 -36.5 6t-26.5 23l-204 264 h121zM267 1484q34 0 50 -11.5t31 -33.5l185 -248h-88q-20 0 -34.5 6.5t-28.5 22.5l-248 264h133z" />
<glyph unicode="&#x206;" horiz-adv-x="1182" d="M1093 162l-1 -162h-905v1467h905v-161h-706v-488h571v-155h-571v-501h707zM653 1852q145 0 225.5 -70.5t80.5 -200.5h-142q0 38 -8.5 67t-27.5 49t-50.5 31t-77.5 11t-78 -11t-51.5 -31t-28 -49t-8.5 -67h-142q0 138 81.5 204.5t226.5 66.5z" />
<glyph unicode="&#x207;" horiz-adv-x="1081" d="M839 632q0 63 -18 116t-52.5 91.5t-83.5 59.5t-112 21q-131 0 -207 -76.5t-95 -211.5h568zM986 145q-34 -41 -81 -71t-100.5 -49.5t-111 -29t-113.5 -9.5q-108 0 -198.5 36t-156.5 106.5t-103 174t-37 237.5q0 109 33.5 203t95.5 163t152.5 108.5t202.5 39.5 q93 0 172.5 -31.5t137.5 -90.5t90.5 -145.5t32.5 -196.5q0 -43 -9 -57.5t-35 -14.5h-693q3 -98 27 -171t67 -121.5t102.5 -72.5t133.5 -24q69 0 118.5 16t85.5 34.5t60 34t41 15.5q23 0 35 -17zM574 1483q78 0 131.5 -22t87 -60t47.5 -87.5t14 -106.5h-129q0 34 -7 63 t-24.5 49.5t-46.5 32.5t-73 12t-73.5 -12t-47 -32.5t-24.5 -49.5t-7 -63h-129q0 56 14.5 106t47.5 88t86.5 60t132.5 22z" />
<glyph unicode="&#x208;" horiz-adv-x="573" d="M386 0h-199v1467h199v-1467zM296 1862q33 0 53.5 -12t35.5 -33l151 -234h-88q-20 0 -34 6.5t-28 21.5l-211 251h121zM-67 1862q33 0 54.5 -12t38.5 -33l190 -234h-98q-20 0 -36.5 6.5t-32.5 21.5l-255 251h139z" />
<glyph unicode="&#x209;" horiz-adv-x="491" d="M337 1037v-1037h-183v1037h183zM253 1484q34 0 51 -11t30 -34l141 -248h-76q-22 0 -36.5 6t-26.5 23l-204 264h121zM-56 1484q34 0 50 -11.5t31 -33.5l185 -248h-88q-20 0 -34.5 6.5t-28.5 22.5l-248 264h133z" />
<glyph unicode="&#x20a;" horiz-adv-x="573" d="M386 0h-199v1467h199v-1467zM290 1852q145 0 225.5 -70.5t80.5 -200.5h-142q0 38 -8.5 67t-27.5 49t-50.5 31t-77.5 11t-78 -11t-51.5 -31t-28 -49t-8.5 -67h-142q0 138 81.5 204.5t226.5 66.5z" />
<glyph unicode="&#x20b;" horiz-adv-x="491" d="M337 1037v-1037h-183v1037h183zM251 1483q78 0 131.5 -22t87 -60t47.5 -87.5t14 -106.5h-129q0 34 -7 63t-24.5 49.5t-46.5 32.5t-73 12t-73.5 -12t-47 -32.5t-24.5 -49.5t-7 -63h-129q0 56 14.5 106t47.5 88t86.5 60t132.5 22z" />
<glyph unicode="&#x20c;" horiz-adv-x="1639" d="M1543 733q0 -165 -52 -302.5t-147.5 -237t-229 -154t-295.5 -54.5t-295 54.5t-228 154t-147.5 237t-52.5 302.5t52.5 303t147.5 237.5t228 155t295 55.5t295.5 -55.5t229 -155t147.5 -237.5t52 -303zM1339 733q0 135 -36.5 242.5t-104.5 182t-164 114.5t-215 40 q-118 0 -214 -40t-164 -114.5t-105 -182t-37 -242.5t37 -242t105 -181t164 -113.5t214 -39.5q119 0 215 39.5t164 113.5t104.5 181t36.5 242zM828 1862q33 0 53.5 -12t35.5 -33l151 -234h-88q-20 0 -34 6.5t-28 21.5l-211 251h121zM465 1862q33 0 54.5 -12t38.5 -33 l190 -234h-98q-20 0 -36.5 6.5t-32.5 21.5l-255 251h139z" />
<glyph unicode="&#x20d;" horiz-adv-x="1161" d="M582 1054q114 0 205 -38t155.5 -107.5t98.5 -168.5t34 -221q0 -123 -34 -221t-98.5 -168t-156 -107t-204.5 -37q-115 0 -206.5 37t-156 107t-99 168t-34.5 221q0 122 34.5 221t99 168.5t156 107.5t206.5 38zM582 128q154 0 229.5 103t75.5 287q0 185 -76 288.5 t-229 103.5q-78 0 -136 -26.5t-96.5 -76.5t-57.5 -123.5t-19 -165.5q0 -184 76.5 -287t232.5 -103zM585 1484q34 0 51 -11t30 -34l141 -248h-76q-22 0 -36.5 6t-26.5 23l-204 264h121zM276 1484q34 0 50 -11.5t31 -33.5l185 -248h-88q-20 0 -34.5 6.5t-28.5 22.5l-248 264 h133z" />
<glyph unicode="&#x20e;" horiz-adv-x="1639" d="M1543 733q0 -165 -52 -302.5t-147.5 -237t-229 -154t-295.5 -54.5t-295 54.5t-228 154t-147.5 237t-52.5 302.5t52.5 303t147.5 237.5t228 155t295 55.5t295.5 -55.5t229 -155t147.5 -237.5t52 -303zM1339 733q0 135 -36.5 242.5t-104.5 182t-164 114.5t-215 40 q-118 0 -214 -40t-164 -114.5t-105 -182t-37 -242.5t37 -242t105 -181t164 -113.5t214 -39.5q119 0 215 39.5t164 113.5t104.5 181t36.5 242zM822 1852q145 0 225.5 -70.5t80.5 -200.5h-142q0 38 -8.5 67t-27.5 49t-50.5 31t-77.5 11t-78 -11t-51.5 -31t-28 -49t-8.5 -67 h-142q0 138 81.5 204.5t226.5 66.5z" />
<glyph unicode="&#x20f;" horiz-adv-x="1161" d="M582 1054q114 0 205 -38t155.5 -107.5t98.5 -168.5t34 -221q0 -123 -34 -221t-98.5 -168t-156 -107t-204.5 -37q-115 0 -206.5 37t-156 107t-99 168t-34.5 221q0 122 34.5 221t99 168.5t156 107.5t206.5 38zM582 128q154 0 229.5 103t75.5 287q0 185 -76 288.5 t-229 103.5q-78 0 -136 -26.5t-96.5 -76.5t-57.5 -123.5t-19 -165.5q0 -184 76.5 -287t232.5 -103zM583 1483q78 0 131.5 -22t87 -60t47.5 -87.5t14 -106.5h-129q0 34 -7 63t-24.5 49.5t-46.5 32.5t-73 12t-73.5 -12t-47 -32.5t-24.5 -49.5t-7 -63h-129q0 56 14.5 106 t47.5 88t86.5 60t132.5 22z" />
<glyph unicode="&#x210;" horiz-adv-x="1283" d="M594 757q86 0 152 21t110.5 59.5t67 91.5t22.5 118q0 131 -86 197.5t-258 66.5h-217v-554h209zM1272 0h-176q-54 0 -80 42l-381 524q-17 25 -37 35.5t-62 10.5h-151v-612h-198v1467h415q139 0 240.5 -28t167.5 -81t98 -128.5t32 -168.5q0 -78 -24.5 -145.5t-71.5 -121.5 t-114 -91.5t-152 -57.5q38 -22 66 -62zM617 1862q33 0 53.5 -12t35.5 -33l151 -234h-88q-20 0 -34 6.5t-28 21.5l-211 251h121zM254 1862q33 0 54.5 -12t38.5 -33l190 -234h-98q-20 0 -36.5 6.5t-32.5 21.5l-255 251h139z" />
<glyph unicode="&#x211;" horiz-adv-x="745" d="M316 829q49 106 121 166.5t175 60.5q33 0 63.5 -7.5t53.5 -22.5l-13 -136q-6 -26 -31 -26q-14 0 -42 6.5t-62 6.5q-49 0 -87.5 -14.5t-69 -42.5t-54.5 -69.5t-43 -95.5v-655h-184v1037h105q30 0 41 -11t15 -39zM432 1484q34 0 51 -11t30 -34l141 -248h-76q-22 0 -36.5 6 t-26.5 23l-204 264h121zM123 1484q34 0 50 -11.5t31 -33.5l185 -248h-88q-20 0 -34.5 6.5t-28.5 22.5l-248 264h133z" />
<glyph unicode="&#x212;" horiz-adv-x="1283" d="M594 757q86 0 152 21t110.5 59.5t67 91.5t22.5 118q0 131 -86 197.5t-258 66.5h-217v-554h209zM1272 0h-176q-54 0 -80 42l-381 524q-17 25 -37 35.5t-62 10.5h-151v-612h-198v1467h415q139 0 240.5 -28t167.5 -81t98 -128.5t32 -168.5q0 -78 -24.5 -145.5t-71.5 -121.5 t-114 -91.5t-152 -57.5q38 -22 66 -62zM611 1852q145 0 225.5 -70.5t80.5 -200.5h-142q0 38 -8.5 67t-27.5 49t-50.5 31t-77.5 11t-78 -11t-51.5 -31t-28 -49t-8.5 -67h-142q0 138 81.5 204.5t226.5 66.5z" />
<glyph unicode="&#x213;" horiz-adv-x="745" d="M316 829q49 106 121 166.5t175 60.5q33 0 63.5 -7.5t53.5 -22.5l-13 -136q-6 -26 -31 -26q-14 0 -42 6.5t-62 6.5q-49 0 -87.5 -14.5t-69 -42.5t-54.5 -69.5t-43 -95.5v-655h-184v1037h105q30 0 41 -11t15 -39zM430 1483q78 0 131.5 -22t87 -60t47.5 -87.5t14 -106.5 h-129q0 34 -7 63t-24.5 49.5t-46.5 32.5t-73 12t-73.5 -12t-47 -32.5t-24.5 -49.5t-7 -63h-129q0 56 14.5 106t47.5 88t86.5 60t132.5 22z" />
<glyph unicode="&#x214;" horiz-adv-x="1506" d="M754 158q91 0 162.5 30.5t121 86t76 132t26.5 168.5v892h197v-892q0 -127 -40.5 -235.5t-115.5 -187.5t-183.5 -124t-243.5 -45t-244 45t-184.5 124t-116 188t-40.5 235v892h198v-890q0 -92 26 -169t75.5 -132.5t122 -86.5t163.5 -31zM760 1862q33 0 53.5 -12t35.5 -33 l151 -234h-88q-20 0 -34 6.5t-28 21.5l-211 251h121zM397 1862q33 0 54.5 -12t38.5 -33l190 -234h-98q-20 0 -36.5 6.5t-32.5 21.5l-255 251h139z" />
<glyph unicode="&#x215;" horiz-adv-x="1141" d="M997 1037v-1037h-108q-39 0 -49 38l-15 112q-68 -75 -151.5 -120.5t-192.5 -45.5q-85 0 -150 28t-109 79t-66 124t-22 161v661h182v-661q0 -118 54 -182.5t165 -64.5q81 0 151 38.5t129 105.5v764h182zM574 1484q34 0 51 -11t30 -34l141 -248h-76q-22 0 -36.5 6t-26.5 23 l-204 264h121zM265 1484q34 0 50 -11.5t31 -33.5l185 -248h-88q-20 0 -34.5 6.5t-28.5 22.5l-248 264h133z" />
<glyph unicode="&#x216;" horiz-adv-x="1506" d="M754 158q91 0 162.5 30.5t121 86t76 132t26.5 168.5v892h197v-892q0 -127 -40.5 -235.5t-115.5 -187.5t-183.5 -124t-243.5 -45t-244 45t-184.5 124t-116 188t-40.5 235v892h198v-890q0 -92 26 -169t75.5 -132.5t122 -86.5t163.5 -31zM754 1852q145 0 225.5 -70.5 t80.5 -200.5h-142q0 38 -8.5 67t-27.5 49t-50.5 31t-77.5 11t-78 -11t-51.5 -31t-28 -49t-8.5 -67h-142q0 138 81.5 204.5t226.5 66.5z" />
</font>
</defs>
</svg>
