<?xml version="1.0" standalone="no"?>
<!DOCTYPE svg PUBLIC "-//W3C//DTD SVG 1.1//EN" "http://www.w3.org/Graphics/SVG/1.1/DTD/svg11.dtd" >
<svg xmlns="http://www.w3.org/2000/svg">
<metadata></metadata>
<defs>
<font id="aleoregular" horiz-adv-x="1544" >
<font-face units-per-em="2048" ascent="1649" descent="-399" />
<missing-glyph horiz-adv-x="440" />
<glyph horiz-adv-x="0" />
<glyph unicode="&#xd;" horiz-adv-x="268" />
<glyph horiz-adv-x="268" />
<glyph horiz-adv-x="268" />
<glyph unicode=" "  horiz-adv-x="440" />
<glyph unicode="&#x09;" horiz-adv-x="440" />
<glyph unicode="&#xa0;" horiz-adv-x="440" />
<glyph unicode="!" horiz-adv-x="397" d="M287 1466l-4 -585v-90q0 -33 -4 -91q-3 -44 -9 -90q-2 -16 -4 -48.5t-4 -49.5h-125q-1 14 -4.5 47.5t-5.5 50.5q-4 28 -8 92q-4 58 -4 89v90v585h172zM66 111q0 22 10 49q9 24 26 41q11 11 41 26q22 11 50 11q27 0 49 -11q26 -13 39 -26q17 -17 26 -41q8 -21 8 -49 q0 -29 -8 -50q-9 -24 -26 -41q-18 -18 -39 -26q-27 -10 -49 -10q-23 0 -50 10q-24 9 -41 26t-26 41q-10 27 -10 50z" />
<glyph unicode="&#x22;" horiz-adv-x="675" d="M248 1466v-297l-17 -157q-3 -28 -18 -51q-13 -19 -45 -19q-25 0 -41 19q-14 17 -21 51l-16 159v295h158zM590 1466v-299l-17 -157q-3 -29 -18 -52q-11 -16 -47 -16q-28 0 -41 16t-21 54l-16 157v297h160z" />
<glyph unicode="#" horiz-adv-x="1165" d="M803 434l-90 -438h-82q-23 0 -41 18q-17 17 -17 45v9q0 1 1 3.5t1 4.5l72 354h-252l-71 -364q-6 -37 -33 -54q-22 -14 -51 -14h-80l86 432h-150q-25 0 -37 12q-14 14 -14 41v13q0 2 2 6t2 6l8 57h209l66 336h-238l12 74q7 33 25 45t57 12h164l74 369q6 29 27 47t51 18h82 l-86 -434h254l86 434h82q22 0 41 -16q18 -15 18 -41q0 -2 -1 -6t-1 -6l-74 -363h217l-12 -76q-7 -33 -25 -45t-57 -12h-141l-68 -334h185q24 0 36 -12q15 -15 15 -41v-10q0 -2 -1 -6t-1 -6l-9 -58h-241zM414 565h254l65 332h-252z" />
<glyph unicode="$" horiz-adv-x="1054" d="M434 -12l-4 -4q-129 13 -225 59q-101 49 -174 125l55 86q4 8 20 16q18 9 29 9q15 0 43 -21q42 -31 60 -43q34 -22 86 -47q57 -28 118 -33l37 545q-58 16 -139 49q-73 29 -125 70q-53 42 -88 110t-35 166q0 73 31 146q32 75 84 127q48 48 137 90q73 34 188 41l9 147 q0 15 16 35q11 14 37 14h68l-15 -200q98 -11 184 -58q88 -48 140 -100l-43 -68q-18 -30 -47 -30q-12 0 -33 12q-8 4 -25.5 15t-25.5 16q-12 7 -37 18t-31 14q-39 19 -90 25l-33 -496q24 -8 72.5 -24.5t73.5 -24.5q75 -24 129 -67q54 -42 92 -105q35 -57 35 -156 q0 -97 -29 -174t-90 -141q-60 -63 -144 -100t-196 -43l-12 -181q0 -17 -15 -36q-12 -15 -35 -15h-67zM834 412h-3q0 55 -16 88t-53 63q-40 32 -76 47q-42 17 -96 37l-33 -512q64 6 119 31q50 23 86 59t53 82q19 52 19 105zM264 1092h-2q0 -46 19 -86q18 -38 47 -64 q39 -35 73 -49q6 -2 37.5 -16t50.5 -21l31 463q-45 -4 -114 -29q-49 -18 -80 -49q-32 -32 -47 -70q-15 -37 -15 -79z" />
<glyph unicode="%" horiz-adv-x="1566" d="M705 1114q0 -86 -25 -156q-20 -57 -72 -112q-46 -49 -104 -72q-61 -24 -123 -24q-71 0 -129 24q-56 23 -102 72q-45 49 -68 112q-25 70 -25 156t25 156q23 65 68 116q40 46 104 72q61 25 127 25q65 0 129 -25q62 -24 104 -72q42 -47 66 -116q25 -70 25 -156zM563 1114h-2 q0 57 -14 115q-10 42 -39 78q-26 32 -57 43q-40 14 -74 14q-30 0 -70 -14q-34 -12 -59 -43q-29 -36 -39 -78q-12 -49 -12 -115q0 -61 14 -115q9 -36 39 -73q26 -32 57 -43q37 -13 74 -13q33 0 70 13q34 12 59 43q30 37 39 73q14 54 14 115zM1217 1430v2q10 15 28 26 q13 8 39 8h131l-1071 -1437q-17 -17 -25 -21q-16 -8 -34 -8h-135zM1513 348h-4q0 -82 -26 -155q-22 -62 -70 -113q-45 -48 -104 -72t-123 -24q-70 0 -129 24q-58 24 -103 72q-43 46 -67 113q-25 70 -25 155q0 86 25 156q24 68 67 117q38 44 105 71q61 25 129 25 q63 0 127 -25q66 -26 106 -71q44 -50 68 -117t24 -156zM1368 348l-2 -4q0 59 -14 117q-9 39 -39 76q-27 33 -60 45q-35 12 -69 12q-40 0 -74 -12q-29 -10 -57 -45q-27 -33 -37 -76q-15 -62 -15 -115q0 -55 15 -113q9 -36 39 -73q25 -31 59 -43q37 -13 70 -13q36 0 73 13 q33 11 58 43q30 37 39 73q14 54 14 115z" />
<glyph unicode="&#x26;" horiz-adv-x="1433" d="M643 1483l-8 -4q77 0 147 -25q63 -22 117 -70q49 -43 76 -98t33 -119l-113 -22q-2 0 -5 -1t-5 -1q-9 0 -25 8q-9 5 -16 25q-6 22 -23 57q-12 24 -39 51q-24 24 -61 39q-40 16 -82 16q-55 0 -94 -16t-70 -47t-45 -68q-16 -43 -16 -86q0 -36 10 -69q10 -34 27 -66 q9 -16 45 -67q23 -32 65 -74l422 -428q35 62 61 143q27 84 33 152q0 15 13 28t28 13h111q0 -120 -37 -232q-40 -123 -102 -213l307 -311h-176q-32 0 -50 6q-12 4 -41 33l-147 147q-103 -95 -221 -147q-120 -53 -277 -53q-82 0 -159 26q-80 27 -142 80q-59 50 -98 127 q-37 73 -37 172q0 68 25 135q26 69 65 119q40 51 103 98q59 44 127 74q-57 74 -90 154q-31 76 -31 153q0 79 26 144q23 57 80 114q48 48 125 76q73 27 164 27zM229 401l2 2q0 -64 25 -116q24 -50 63 -86q36 -33 93 -54q50 -18 104 -18q115 0 205 43q93 44 160 111l-432 436 q-106 -56 -164 -139q-56 -80 -56 -179z" />
<glyph unicode="'" horiz-adv-x="335" d="M248 1466v-297l-17 -157q-3 -28 -18 -51q-13 -19 -45 -19q-25 0 -41 19q-14 17 -21 51l-16 159v295h158z" />
<glyph unicode="(" horiz-adv-x="491" d="M223 643h-2q0 -211 58 -426q55 -204 161 -393q9 -18 9 -19q0 -2 1 -7t1 -7q0 -10 -9 -24t-16 -17l-82 -49q-75 114 -131 233q-45 95 -86 234q-34 115 -49 233q-17 133 -17 244t17 244q15 118 49 233q41 139 86 234q56 119 131 233l82 -49q11 -6 18 -16t7 -25 q0 -21 -9 -35q-107 -183 -163 -393t-56 -428z" />
<glyph unicode=")" horiz-adv-x="491" d="M270 643q0 212 -57 426q-57 213 -162 393q-10 15 -10 35q0 11 8 23q7 11 17 16l81 51q78 -120 132 -233q46 -98 86 -232q34 -115 49 -233q16 -125 16 -244t-16 -244q-15 -118 -49 -233q-41 -139 -86 -234q-54 -113 -132 -233l-79 49q-12 6 -19 17q-8 12 -8 24q0 2 2 8 t2 8q0 1 8 17q108 193 162 393q55 204 55 426z" />
<glyph unicode="*" horiz-adv-x="753" d="M332 885l-4 200q0 13 4 37q3 18 8 33q-21 -29 -53 -45l-176 -102l-45 77l176 103q38 21 73 24q-9 0 -36 9q-20 7 -37 18l-176 104l45 76l176 -102q26 -13 57 -51q-9 18 -12 37q-2 12 -2 36v205h90v-203q0 -38 -14 -73q8 10 24 26q1 1 31 21l176 102l45 -78l-176 -102 q-13 -9 -35 -16q-27 -9 -33 -9q11 0 35 -8q22 -7 35 -16l176 -103l-45 -77l-176 102q-30 20 -33 23q-20 20 -24 26q16 -31 16 -74v-200h-90z" />
<glyph unicode="+" horiz-adv-x="1093" d="M621 1194v-436h415v-140h-415v-440h-150v440h-414v140h414v436h150z" />
<glyph unicode="," horiz-adv-x="425" d="M94 127l-2 -2q0 22 10 45q9 21 25 37t37 24q29 11 49 11q31 0 57 -13q24 -12 39 -30q16 -19 23 -47q8 -32 8 -56q0 -46 -12 -96q-11 -43 -37 -98q-22 -45 -62 -95q-42 -52 -84 -86l-30 31q-13 13 -13 29q0 13 13 26t28 31q7 9 33 43q17 22 29 53q15 38 20 66h-12 q-30 0 -49 8q-23 10 -37 27q-19 23 -25 39q-8 21 -8 53z" />
<glyph unicode="-" horiz-adv-x="698" d="M98 692h504v-155h-504v155z" />
<glyph unicode="." horiz-adv-x="432" d="M90 113v-2q0 22 10 49q8 22 27 41q15 15 41 28q18 9 49 9t49 -9q22 -11 39 -28q19 -19 27 -41q8 -21 8 -49q0 -29 -8 -50q-8 -22 -27 -41q-15 -15 -39 -24q-27 -10 -49 -10t-49 10t-41 24q-19 19 -27 41q-10 27 -10 52z" />
<glyph unicode="/" horiz-adv-x="860" d="M211 -20h-2q-11 -34 -41 -54q-24 -16 -57 -16h-78l616 1532q11 28 39 49q21 16 57 16h78z" />
<glyph unicode="0" horiz-adv-x="1206" d="M1137 733h-2q0 -201 -41 -334q-46 -150 -113 -233q-77 -96 -170 -137q-102 -45 -209 -45t-209 45q-93 41 -170 137q-65 81 -112 233q-41 133 -41 334t41 334q47 152 112 233q79 98 170 138q102 45 209 45t209 -45q91 -40 170 -138q67 -83 113 -233q43 -139 43 -334z M946 733v-2q0 163 -28 281q-28 119 -76 184q-52 71 -111 100q-64 31 -129 31q-67 0 -131 -31q-59 -29 -111 -100q-44 -60 -73 -182t-29 -281q0 -160 29 -282q30 -126 73 -185q50 -68 111 -98q64 -31 131 -31t131 31q59 29 111 100q45 62 74 183q28 118 28 282z" />
<glyph unicode="1" horiz-adv-x="952" d="M885 119q28 -6 28 -37v-82h-786v61v21q0 31 29 37l286 20v1000q0 61 2 92l-262 -223q-20 -17 -37 -17q-35 0 -49 23l-57 80l436 376h148v-1331q256 -19 262 -20z" />
<glyph unicode="2" horiz-adv-x="1087" d="M1028 127l-2 -127h-977v61q0 17 8 41q6 18 25 37l471 471q55 58 106 115q43 48 82 111q31 51 52 114q18 56 18 121q0 58 -20 113q-19 52 -56 82q-43 35 -84 47q-46 14 -102 14q-59 0 -103 -16q-51 -19 -84 -45q-37 -30 -61 -70t-35 -86q-7 -33 -24 -45q-18 -12 -45 -12 h-9q-2 0 -7 1t-7 1l-96 16q12 99 57 178q43 76 103 127q64 54 145 82q80 27 174 27q97 0 176 -27q77 -26 139 -82q61 -55 95 -127q32 -68 32 -172q0 -83 -24 -151q-26 -74 -66 -133q-44 -65 -98 -125q-55 -62 -117 -123l-387 -393q32 9 84 16q43 6 80 6h401q2 25 5 52.5 t5.5 44.5t2.5 20q3 15 15.5 26t27.5 11h100v-168v-33z" />
<glyph unicode="3" horiz-adv-x="1085" d="M565 1483h6q89 0 172 -25q73 -22 136 -78q59 -53 88 -118q32 -72 32 -152q0 -70 -18 -125q-17 -54 -51 -96q-31 -39 -82 -70q-47 -29 -107 -47q143 -38 217 -127q72 -87 72 -223q0 -99 -39 -182q-42 -88 -102 -138q-73 -60 -156 -88q-89 -30 -190 -30q-122 0 -199 28 q-83 30 -141 82q-56 50 -94 121q-40 76 -64 154l78 32q21 9 45 9q20 0 35 -9q16 -10 22 -28q0 -2 2 -4t2 -4t2 -5.5t2 -5.5q5 -12 17 -35.5t16 -31.5q20 -41 56 -70q37 -30 88 -53q55 -25 127 -25q74 0 135 25t98 65q40 43 57 90q21 58 21 97q0 52 -17 108q-15 50 -57 86 t-115 54q-82 20 -188 20v133q74 0 160 23q59 16 106 53q46 37 62 80q18 49 18 104q0 61 -18 111q-16 45 -58 78q-41 32 -82 45q-53 16 -102 16q-58 0 -102 -16q-51 -19 -84 -45q-39 -31 -62 -70q-27 -45 -37 -88q-6 -31 -24 -43t-43 -12h-10h-15l-94 16q13 103 55 178 q43 77 105 129q61 52 143 80q80 27 176 27z" />
<glyph unicode="4" horiz-adv-x="1196" d="M932 528h221v-104q0 -14 -10 -27q-9 -12 -29 -12h-182v-385h-162v385h-649q-20 0 -35 12q-14 11 -20 29l-17 94l713 946h170v-938zM770 1135q0 7 1 27t1 30q0 31 6 61l-532 -725h524v607z" />
<glyph unicode="5" horiz-adv-x="1038" d="M934 1389l-4 -5q0 -36 -25 -61t-82 -25h-463l-65 -385q122 25 211 25q116 0 203 -35q92 -37 147 -92q58 -58 90 -143q31 -82 31 -176q0 -123 -41 -209q-47 -99 -113 -162q-69 -66 -166 -103q-90 -34 -208 -34q-63 0 -125 12t-111 33q-48 20 -94 49q-43 27 -78 57l55 78 q22 29 49 29q21 0 48 -17q39 -25 61 -35q45 -22 86 -34q56 -17 119 -17q75 0 139 25q58 23 104 72q44 47 68 108q23 59 23 143q0 64 -19 123q-18 55 -61 95q-45 42 -101 61q-59 20 -141 20q-60 0 -115 -8q-41 -6 -123 -30l-114 34l119 684h696v-77z" />
<glyph unicode="6" horiz-adv-x="1099" d="M612 899l-2 -2q91 0 168 -29q75 -28 137 -84q56 -51 97 -137q32 -68 32 -184q0 -107 -36 -189q-40 -91 -103 -151q-69 -66 -160 -103q-88 -36 -204 -36t-201 36q-97 41 -152 99q-64 67 -98 157q-33 88 -33 207q0 97 43 207q40 102 138 234l370 501q10 14 39 29 q24 12 60 12h161l-508 -643q53 38 115 56q68 20 137 20zM233 451q0 -59 21 -127q18 -59 59 -103q33 -35 97 -63q53 -23 129 -23q69 0 133 25t102 63q41 41 66 99q24 55 24 124q0 74 -24 132q-25 62 -64 98q-43 40 -98 61t-125 21q-71 0 -135 -25q-56 -22 -101 -67 q-41 -41 -63 -99q-21 -55 -21 -116z" />
<glyph unicode="7" horiz-adv-x="1112" d="M63 1466h998v-82q0 -52 -23 -94l-608 -1224q-31 -66 -98 -66h-131l616 1210q27 50 60 88h-656q-11 -135 -16 -153q-6 -35 -41 -35h-101v356z" />
<glyph unicode="8" horiz-adv-x="1099" d="M553 -16l-4 -4q-114 0 -199 28q-91 30 -157 84q-62 51 -101 131q-35 71 -35 174q0 142 74 234q75 94 209 131q-112 42 -172 129q-59 86 -59 205q0 80 30 151q29 68 90 123q55 49 142 82q82 31 182 31q98 0 180 -31t139 -82q63 -56 91 -123q32 -75 32 -151 q0 -121 -59 -203q-65 -91 -174 -131q136 -38 209 -129t73 -234q0 -101 -36 -174q-37 -76 -101 -131q-59 -50 -155 -82q-85 -28 -199 -28zM549 127l-4 -4q69 0 131 20q48 16 94 58q40 37 61 86q23 54 23 112q0 71 -25 129q-23 53 -67 88q-45 36 -98 50q-52 14 -115 14 q-65 0 -117 -14q-53 -14 -98 -50q-46 -36 -68 -88q-24 -56 -24 -127q0 -65 20 -112q21 -50 62 -88q40 -37 98 -56q56 -18 127 -18zM545 827h-4q73 0 123 21q56 24 84 59q38 48 47 84q12 49 12 99q0 55 -16 94q-21 51 -50 80q-36 36 -82 53q-49 18 -114 18t-115 -18 q-49 -18 -84 -53q-31 -31 -51 -80q-16 -39 -16 -94q0 -33 16 -99q10 -40 45 -84q29 -37 82 -59q50 -21 123 -21z" />
<glyph unicode="9" horiz-adv-x="1069" d="M467 602q-79 0 -158 29q-74 27 -129 82q-59 59 -90 131q-35 81 -35 180q0 100 35 180q38 86 103 148q64 61 151 98t197 37q112 0 192 -35q89 -39 148 -98q56 -56 94 -150q33 -82 33 -194q0 -61 -13 -121q-16 -74 -32 -111q-13 -31 -54 -106q-29 -53 -71 -111l-359 -516 q-15 -22 -37 -33q-24 -12 -57 -12h-168l447 586q6 8 22 27t23 28q6 8 18 25.5t18 25.5q-49 -38 -127 -65q-73 -25 -151 -25zM831 1032v-4q0 72 -20 125t-61 94q-40 40 -93 60q-58 22 -116 22q-65 0 -123 -22q-53 -20 -96 -60q-42 -39 -62 -92q-22 -58 -22 -119t20 -123 q18 -55 57 -94q40 -40 93 -57q65 -21 120 -21q73 0 131 25t95 65q41 44 57 91q20 58 20 110z" />
<glyph unicode=":" horiz-adv-x="423" d="M86 113v-2q0 22 10 49q8 22 27 41q15 15 41 28q18 9 49 9t49 -9q22 -11 39 -28q19 -19 27 -41q8 -21 8 -49q0 -29 -8 -50q-8 -22 -27 -41q-15 -15 -39 -24q-27 -10 -49 -10t-49 10t-41 24q-19 19 -27 41q-10 27 -10 52zM86 881v-2q0 22 10 49q7 19 27 39q15 15 41 28 q22 11 49 11t49 -11t39 -28q20 -20 27 -39q8 -21 8 -49q0 -31 -8 -52q-7 -19 -27 -39q-18 -18 -39 -26t-49 -8t-49 8q-24 9 -41 26q-20 20 -27 39q-10 27 -10 54z" />
<glyph unicode=";" horiz-adv-x="421" d="M94 127l-4 -2q0 22 10 45q9 21 25 37q15 15 39 24q29 11 49 11q29 0 55 -13q24 -12 39 -30q19 -23 25 -47q8 -32 8 -56q0 -46 -12 -96q-9 -35 -39 -98q-22 -45 -62 -95q-42 -52 -84 -86l-28 31q-15 15 -15 29q0 11 15 26q1 1 26 31q8 9 33 43q21 28 31 53q15 38 20 66 h-12q-30 0 -49 8q-23 10 -37 27q-19 23 -25 39q-8 21 -8 53zM86 881v-2q0 28 8 49q7 19 27 39q17 17 39 28t49 11t49 -11q26 -13 41 -28q20 -20 27 -39q10 -27 10 -49q0 -25 -10 -52q-7 -19 -27 -39q-17 -17 -41 -26q-21 -8 -49 -8t-49 8t-39 26q-20 20 -27 39q-8 21 -8 54z " />
<glyph unicode="&#x3c;" horiz-adv-x="929" d="M61 727l795 410v-129q0 -15 -8 -31q-3 -5 -29 -23l-459 -233q-19 -12 -45 -19q-8 -2 -24.5 -7t-24.5 -7l49 -12q31 -8 45 -17l459 -233q25 -16 29 -25q8 -16 8 -30v-131l-795 411v76z" />
<glyph unicode="=" horiz-adv-x="1077" d="M98 588h881v-137h-881v137zM98 930h881v-137h-881v137z" />
<glyph unicode="&#x3e;" horiz-adv-x="931" d="M78 240v129q0 16 8 32q4 9 29 25l458 231q19 13 41 19q8 2 26.5 6.5t23.5 5.5q-9 2 -27 7.5t-21 6.5q-25 7 -43 19l-458 233q-25 16 -29 25q-8 16 -8 29v131l792 -412v-76z" />
<glyph unicode="?" horiz-adv-x="841" d="M45 1335l-8 4q27 27 69 54q53 34 87 47q67 26 98 33q53 12 112 12q85 0 150 -23q75 -27 121 -67q50 -44 80 -105q28 -57 28 -139q0 -84 -22 -135q-25 -57 -60 -98q-47 -55 -75 -74q-16 -11 -42 -31t-36 -27q-37 -27 -64 -57q-22 -24 -28 -61l-21 -156h-123l-12 170v10 q0 45 23 78q22 31 59 61q6 5 32 26.5t42 33.5q54 40 77 63q28 28 58 82q24 44 24 107q0 41 -18 78q-18 38 -47 61q-36 29 -70 39q-47 14 -86 14q-60 0 -106 -16q-45 -15 -74 -33q-25 -15 -49 -35q-17 -14 -33 -14q-27 0 -39 23zM238 115q0 28 8 49q7 18 28 39q13 13 39 26 t49 13q24 0 50 -13t39 -26q21 -21 28 -39q8 -21 8 -49q0 -31 -8 -52q-6 -16 -28 -38q-23 -23 -39 -29q-21 -8 -50 -8q-28 0 -49 8q-16 6 -39 29q-22 22 -28 38q-8 21 -8 52z" />
<glyph unicode="@" horiz-adv-x="1636" d="M1169 190l-6 -2q-82 0 -131 37q-51 39 -63 119q-60 -81 -129 -119q-63 -35 -150 -35q-58 0 -106 23q-50 24 -76 57q-30 37 -45 88q-17 56 -17 111q0 86 35 176q36 92 101 160q75 78 163 117q102 45 226 45q64 0 121 -13q63 -14 98 -28l-96 -371q-19 -81 -19 -127 q0 -34 10 -61t25 -39q12 -10 37 -17q21 -6 45 -6q52 0 94 29q47 32 78 80q38 58 55 127q21 86 21 164q0 139 -47 245q-49 111 -125 178q-78 69 -187 107q-101 35 -233 35q-141 0 -258 -51q-118 -51 -209 -146q-91 -94 -139 -217q-52 -132 -52 -274q0 -173 56 -306 q55 -131 151 -221q98 -91 221 -133q133 -45 275 -45q159 0 274 33q126 36 207 86q13 8 27 8q21 0 33 -24l24 -66q-114 -76 -248 -117q-139 -43 -317 -43q-168 0 -328 58q-149 54 -264 163q-112 106 -176 258t-64 349q0 112 27 217q23 91 80 192q50 89 123 162q69 69 160 125 q83 51 188 82t213 31q77 0 184 -21q88 -17 170 -59t148 -99q65 -57 116 -135q50 -77 78 -172q27 -92 27 -200q0 -110 -31 -205q-32 -99 -86 -164q-58 -71 -129 -107q-76 -39 -160 -39zM727 311v-4q44 0 64 8q33 13 63 37q27 22 55 72q22 40 41 111l78 301q-45 10 -86 10 q-74 0 -141 -31q-59 -28 -111 -86q-50 -56 -72 -119q-24 -68 -24 -139q0 -75 33 -117q34 -43 100 -43z" />
<glyph unicode="A" horiz-adv-x="1581" d="M1505 115q27 -7 27 -33v-82h-422v82q0 27 29 33l84 24l-115 295h-633l-115 -295l84 -24q27 -6 27 -33v-82h-420v82q0 26 27 33l82 24l532 1327h201l530 -1327zM530 578h523l-217 565q-25 57 -45 137q-25 -94 -41 -139z" />
<glyph unicode="B" horiz-adv-x="1290" d="M926 754q323 -64 323 -336q0 -190 -135 -301q-138 -117 -381 -117h-665v90q0 31 30 37l117 25v1167q-99 18 -117 24q-30 6 -30 37v90h616q391 0 487 -223q29 -71 29 -145q0 -79 -16 -123q-20 -56 -49 -92q-71 -89 -209 -133zM414 1311v-500h262q246 0 307 147 q21 58 21 103q0 128 -78 188q-80 62 -242 62h-270zM733 158l-2 -2q243 0 305 159q17 47 17 107q0 114 -78 180t-244 66h-317v-510h319z" />
<glyph unicode="C" horiz-adv-x="1300" d="M795 1483l-4 2q175 0 454 -105v-114v-230h-98q-39 0 -45 37q-2 6 -8 92q-2 23 -4 44.5t-3.5 33t-1.5 14.5q-456 146 -690 -100q-149 -161 -149 -424q0 -267 147 -426q139 -151 363 -151q126 0 194 24q109 41 180 107q19 16 33 16q21 0 33 -12l78 -86q-191 -221 -529 -221 q-316 0 -507 209q-193 211 -193 540q0 330 205 541q203 209 545 209z" />
<glyph unicode="D" horiz-adv-x="1521" d="M1470 733q0 -165 -53 -301q-51 -130 -147 -231q-198 -201 -522 -201h-678v86q0 33 32 39l115 22v1170q-95 17 -115 24q-32 6 -32 39v86h678q328 0 522 -200q200 -203 200 -533zM1266 733q0 138 -37 242q-40 111 -103 180q-137 152 -378 152h-330v-1147h330q239 0 378 151 q140 152 140 422z" />
<glyph unicode="E" horiz-adv-x="1202" d="M70 1466h1052v-354h-98q-37 0 -43 35q0 2 -1.5 20t-5.5 57t-7 81h-549v-488h540v-155h-540v-502h549q12 135 12 147q5 33 45 33h98v-340h-1052v86q0 33 30 39l117 22v1170q-99 18 -117 24q-30 6 -30 39v86z" />
<glyph unicode="F" horiz-adv-x="1196" d="M217 1466h940v-354h-100q-35 0 -41 35q0 2 -2.5 20t-6.5 56.5t-8 81.5h-581v-514h557v-160h-557v-484q7 -2 21.5 -4.5t41.5 -7.5t51 -10q33 -7 33 -39v-86h-495v86q0 33 30 39l117 22v1170q-99 18 -117 24q-30 6 -30 39v86h147z" />
<glyph unicode="G" horiz-adv-x="1400" d="M786 143q199 0 363 86v324h-227q-21 0 -33 12t-12 27v113h450v-564q-218 -157 -557 -157q-322 0 -522 206q-203 209 -203 543q0 340 201 541q206 209 549 209q234 0 518 -107v-340h-99q-38 0 -43 33q0 3 -2 24.5t-6.5 66.5t-7.5 95l-76 23q-129 33 -264 33 q-150 0 -250 -41q-98 -40 -170 -115q-145 -154 -145 -422q0 -276 149 -434q150 -156 387 -156z" />
<glyph unicode="H" horiz-adv-x="1615" d="M1524 1341l-119 -22v-1169q84 -15 123 -25q24 -6 24 -37v-88h-495v88q0 32 33 39l114 23v518h-790v-518q147 -30 147 -62v-88h-493v88q0 33 30 39l117 23v1169q-99 18 -123 24t-24 37v86h493v-86q0 -31 -20 -37q-23 -6 -125 -24v-506h790v506q-99 18 -123 24t-24 37v86 h495v-86q0 -33 -30 -39z" />
<glyph unicode="I" horiz-adv-x="624" d="M532 1341l-118 -22v-1169q92 -17 125 -25q24 -6 24 -37v-88h-493v88q0 33 28 39l119 23v1169q-99 18 -123 24t-24 37v86h493v-86q0 -33 -31 -39z" />
<glyph unicode="J" horiz-adv-x="905" d="M242 150v-3q284 0 284 355v815q-121 19 -137 24q-29 6 -29 39v86h512v-86q0 -33 -32 -39l-115 -22v-811q0 -376 -266 -488q-82 -36 -191 -36q-112 0 -213 28q9 130 23 144q12 12 33 12q22 0 49 -8q33 -10 82 -10z" />
<glyph unicode="K" horiz-adv-x="1454" d="M1372 121l-2 2q31 -6 31 -37v-82h-481v82q0 29 28 35q12 0 94 18l-424 488q-40 40 -63 45q-18 4 -51 4h-90v-524q10 -2 25.5 -5.5t41.5 -9t47 -10.5q33 -7 33 -37v-88h-493v88q0 31 30 37l117 25v1167q-99 18 -117 24q-30 6 -30 39v88h493v-88q0 -32 -33 -39 q-84 -17 -114 -24v-492h73q72 0 107 41l410 467q-29 5 -59.5 11t-31.5 6q-28 6 -28 37v81h463l4 -77q0 -32 -33 -39q-35 -12 -94 -25l-437 -493q-43 -49 -79 -66q44 -12 94 -74l465 -553q103 -22 104 -22z" />
<glyph unicode="L" horiz-adv-x="1167" d="M1098 319v-319h-49h-17h-815h-147v88q0 14 8.5 25t21.5 14l117 23v1169q-99 18 -117 22q-13 3 -21.5 14t-8.5 25v86h147h197h147v-86q0 -14 -9 -25t-22 -14q-12 -3 -62.5 -12.5t-53.5 -9.5v-1151h528q7 96 12 117q3 15 15.5 24.5t27.5 9.5h101z" />
<glyph unicode="M" horiz-adv-x="1953" d="M385 1178l2 2q6 -55 6 -99v-929q98 -16 139 -25q27 -6 27 -37v-90h-489v90q0 31 32 37l115 25v1167q-95 17 -115 24q-32 6 -32 37v90h295q29 0 41 -6q17 -9 26 -26l506 -906q21 -35 47 -106q14 41 47 109l496 903q8 16 28 26q12 6 41 6h295v-90q0 -31 -32 -37l-117 -24 v-1167q92 -17 117 -25q32 -6 32 -37v-90h-491v90q0 31 31 37q65 13 137 25v927q0 64 4 97l-504 -918q-24 -47 -70 -47h-28q-50 0 -74 47z" />
<glyph unicode="N" horiz-adv-x="1589" d="M1237 328v-4q-4 29 -4 102v889q-35 5 -65.5 10.5t-49 9.5t-20.5 4q-33 7 -33 37v90h168h174h149v-90q0 -31 -32 -37l-117 -24v-1317h-100q-42 0 -70 35l-850 1106q4 -35 4 -95v-897q63 -9 137 -24q29 -6 29 -37v-88h-487v88q0 31 30 37l117 24v1168q-99 18 -117 24 q-30 6 -30 39v88h249q27 0 39 -6q10 -5 31 -26z" />
<glyph unicode="O" d="M1493 733l-2 -4q0 -167 -51 -301q-52 -138 -148 -238q-94 -98 -227 -153q-139 -57 -295 -57t-295 57q-137 56 -229 153q-96 100 -148 238q-53 139 -53 303t53 303q52 138 148 238t229 155q136 56 295 56t295 -56q137 -56 229 -153q96 -100 148 -238q51 -134 51 -303z M1288 729h-2q0 137 -37 244q-40 114 -102 182q-68 74 -164 113q-95 39 -217 39q-118 0 -213 -39q-96 -39 -164 -113q-69 -75 -106 -182t-37 -244q0 -135 37 -242q36 -104 106 -180q69 -75 164 -114q100 -41 215 -41t215 41q95 39 164 114q67 73 104 180t37 242z" />
<glyph unicode="P" horiz-adv-x="1210" d="M864 1436v2q303 -99 303 -426q0 -211 -139 -332q-149 -131 -405 -131h-209v-399q23 -8 118 -25q29 -6 29 -39v-86h-491v86q0 33 30 39l117 22v1170q-99 18 -117 24q-30 6 -30 39v86h553q136 0 241 -30zM971 1014l-2 2q0 137 -86 217q-84 78 -260 78h-209v-602h209 q165 0 256 82q92 83 92 223z" />
<glyph unicode="Q" horiz-adv-x="1574" d="M1493 733l2 -6q0 -101 -22 -197q-22 -95 -62 -174q-35 -69 -96 -143q-49 -60 -131 -115l377 -405h-164q-46 0 -66 8q-23 9 -51 37l-258 282q-39 -12 -121 -28q-61 -12 -131 -12q-156 0 -295 57q-137 56 -229 153q-96 100 -148 238q-53 139 -53 303t53 303q52 138 148 238 t229 155q136 56 295 56t295 -56q137 -56 229 -153q96 -100 148 -238q51 -134 51 -303zM1290 727q0 137 -37 244q-36 104 -106 180q-70 77 -164 115q-95 39 -213 39q-122 0 -217 -39q-94 -38 -164 -115q-64 -69 -102 -180q-37 -107 -37 -244t37 -244q38 -111 102 -180 q69 -75 166 -115q93 -38 215 -38t215 38q94 38 164 115q67 73 104 180t37 244z" />
<glyph unicode="R" horiz-adv-x="1370" d="M1286 127h-2q31 -7 31 -37v-90h-37h-111h-65q-54 0 -78 43l-381 524q-16 21 -37 35q-18 12 -61 12h-131v-462q98 -21 114 -25q14 -3 23.5 -13.5t9.5 -23.5v-88h-147h-199h-147v88q0 30 30 37l119 25v1167q-101 20 -119 24q-30 7 -30 37v90h147h395q136 0 242 -28 q101 -27 168 -82q68 -56 98 -129q31 -76 31 -170q0 -73 -25 -143q-24 -66 -71 -123t-113 -93q-78 -43 -152 -59q39 -22 66 -61l317 -435q105 -17 115 -20zM600 758h-2q90 0 154 20q60 19 110 62q46 40 68 90q22 51 22 119q0 128 -86 196q-84 66 -256 66h-198v-553h188z" />
<glyph unicode="S" horiz-adv-x="1036" d="M770 776h-4q221 -99 221 -330q0 -202 -127 -329q-133 -133 -364 -133q-96 0 -201 18q-74 13 -164 39l-59 20v369h100q35 0 41 -35q4 -17 10 -100l6 -90q160 -58 250 -58q87 0 152 21q58 19 94 55q78 72 78 195q0 118 -111 180q-54 32 -110 49q-216 68 -258 86 q-58 25 -113 74q-109 97 -109 274q0 162 117 279q126 123 328 123q211 0 411 -82v-338h-98q-37 0 -43 35q0 1 -1.5 20.5t-5 64.5t-7.5 97q-140 39 -242 39q-133 0 -205 -66q-69 -63 -69 -163q0 -109 110 -170q52 -31 115 -52q178 -59 258 -92z" />
<glyph unicode="T" horiz-adv-x="1288" d="M1221 1466h32v-323h-100q-33 0 -39 20q-10 34 -20 135h-344v-1151q8 0 24 -4q97 -18 103 -20q20 -6 20 -37v-86h-496v86q0 35 35 41q10 2 47 10t66 13v1150h-346q-11 -110 -19 -137q-6 -20 -41 -20h-98v323h1106h70z" />
<glyph unicode="U" horiz-adv-x="1533" d="M1352 1466h147v-88q0 -32 -33 -39l-116 -22v-744q0 -251 -156 -421q-159 -170 -428 -170q-267 0 -426 170q-158 169 -158 421v744q-97 18 -116 24q-31 6 -31 39v86h514v-86q0 -32 -33 -39q-42 -8 -135 -22v-741q0 -193 102 -304q104 -116 285 -116t285 116 q102 114 102 301v744q-100 15 -135 22q-33 7 -33 39v86h168h197z" />
<glyph unicode="V" horiz-adv-x="1595" d="M1071 1466l485 -2v-88q0 -31 -28 -37l-103 -24l-538 -1319h-178l-537 1319q-87 18 -104 24q-31 6 -31 37v90h487v-90q0 -33 -41 -39q-13 -2 -48 -10t-58 -12l375 -932q24 -56 49 -160q26 113 47 162l371 932q-99 18 -117 24q-31 6 -31 39v86z" />
<glyph unicode="W" horiz-adv-x="2304" d="M2183 1466h86v-88q0 -32 -33 -39l-102 -22l-410 -1317h-180l-370 1118q-12 29 -21 74q-2 -6 -5 -18.5t-5 -18.5t-4 -19t-4 -18l-373 -1118h-180l-410 1319q-81 17 -102 24q-33 7 -33 37v88h500v-88q0 -30 -33 -37q-29 -6 -57.5 -12t-41.5 -9t-16 -3l270 -918 q24 -92 29 -127q15 78 31 127l346 1020q6 17 25 33t43 16h57q49 0 67 -49l345 -1020q23 -70 32 -122q2 10 5.5 32.5t5.5 32.5q9 45 12 57l272 918q-4 0 -114 22q-33 7 -33 39v86h401z" />
<glyph unicode="X" d="M1454 127v-2q29 -6 29 -39v-86h-539v86q0 33 31 39q11 0 63 12l54 10l-322 504q-7 -25 -18 -41l-310 -463q1 0 117 -22q31 -6 31 -39v-86h-529v86q0 32 33 39q2 0 15.5 2t50 8.5t69.5 11.5l406 607l-383 563q-117 18 -135 24q-31 6 -31 39v86h522v-86q0 -32 -33 -39 q-26 -5 -98 -18l305 -471q6 22 23 49l280 418q-12 2 -49 10.5t-65 13.5q-33 7 -33 37v88h528v-88q0 -30 -26 -37q-22 -6 -142 -24l-383 -555l404 -612q111 -17 135 -25z" />
<glyph unicode="Y" horiz-adv-x="1435" d="M905 1466h492v-90q0 -31 -25 -37q-7 -2 -21 -5t-39.5 -9t-45.5 -10l-449 -733v-435q50 -13 117 -24q31 -6 31 -37v-88h-148h-199h-147v88q0 30 33 37l114 24v435l-446 733q-80 20 -102 24q-29 6 -29 39v88h491v-88q0 -33 -30 -39q-110 -22 -117 -22l274 -467 q45 -84 60 -129q23 68 59 131l275 467q-9 0 -119 22q-29 6 -29 39v86z" />
<glyph unicode="Z" horiz-adv-x="1243" d="M1155 1327l-831 -1165h682q13 157 14 162q5 32 43 32h100v-194v-162h-1097v78q0 30 18 57l831 1172h-657q-3 -41 -6 -81.5t-4 -59t-2 -21.5q-6 -35 -45 -35h-99v197v159h1074v-73q0 -36 -21 -66z" />
<glyph unicode="[" horiz-adv-x="532" d="M115 -295l-2 1864h376v-74q0 -19 -14 -33q-12 -12 -37 -12h-172v-1626h172q25 0 37 -12q17 -17 17 -37v-70h-377z" />
<glyph unicode="\" horiz-adv-x="864" d="M43 1507h80q36 0 57 -16q25 -19 37 -49l617 -1532h-76q-33 0 -60 16q-32 19 -43 54z" />
<glyph unicode="]" horiz-adv-x="530" d="M43 -225l-2 2q0 19 16 35q12 12 37 12h172v1626h-172q-23 0 -37 14t-14 35v70h377v-1864h-377v70z" />
<glyph unicode="^" horiz-adv-x="964" d="M424 1466l115 2l366 -661h-131q-21 0 -31 10q-15 15 -20 25l-201 360q-19 38 -22 45q-14 33 -17 43q-13 -46 -37 -90l-198 -360q-6 -12 -19 -25q-8 -8 -32 -8h-140z" />
<glyph unicode="_" horiz-adv-x="1050" d="M928 -168v-123h-807v123h807z" />
<glyph unicode="`" horiz-adv-x="555" d="M248 1483q39 0 51 -8q17 -11 29 -35l153 -248h-104q-23 0 -35 6q-14 7 -27 23l-241 262h174z" />
<glyph unicode="a" horiz-adv-x="1050" d="M967 127v4q13 -3 21.5 -14t8.5 -25v-88h-133h-14h-66q-19 0 -43 8q-13 4 -20 33l-21 98q-23 -19 -82 -67q-40 -32 -81 -49q-52 -22 -91 -31q-41 -10 -110 -10q-58 0 -111 18q-62 21 -92 49q-37 34 -61 86q-23 50 -23 123q0 66 33 119q36 57 111 102q83 49 196 74 q123 27 299 27v80q0 122 -53 184q-54 63 -154 63q-65 0 -112 -18t-78 -37q-57 -34 -60 -37q-21 -16 -47 -16q-21 0 -32 8q-14 10 -21 25l-33 57q79 77 185 123q93 41 221 41q90 0 155 -29q68 -30 113 -78q46 -49 70 -123q22 -67 22 -159v-518q90 -19 103 -23zM684 254v213 q-133 0 -213 -14q-73 -13 -143 -43q-59 -25 -82 -62q-25 -39 -25 -78q0 -32 15 -69q13 -31 36 -49q24 -18 54 -27q33 -10 67 -10q41 0 86 10q37 8 76 27q29 14 68 45q20 16 61 57z" />
<glyph unicode="b" horiz-adv-x="1157" d="M1110 524h4v-4v-2q0 -129 -37 -227q-39 -103 -98 -168t-143 -103q-79 -36 -181 -36q-82 0 -196.5 14t-188.5 28l-73 15v16v150v1153q-8 1 -39.5 5.5t-58 8.5t-33.5 6q-13 3 -22 14t-9 25v88h162h6h178v-620q66 75 147 121q80 45 189 45q94 0 164 -33q73 -34 123 -102 q51 -70 77 -164q29 -106 29 -230zM844 229l2 4q38 51 59 123q21 79 21 156v16q0 103 -17 172q-17 71 -53 119q-38 51 -82 70q-47 20 -112 20q-94 0 -158 -41q-69 -44 -123 -116v-244v-258v-90q95 -28 205 -33h39h14q66 3 111 25q53 23 94 77z" />
<glyph unicode="c" horiz-adv-x="927" d="M885 145q-129 -159 -385 -159q-198 0 -324 141q-133 148 -133 393q0 237 125 383q132 150 364 150q116 0 308 -74v-270h-82q-29 0 -35 28q-2 7 -8 78l-6 68q-15 4 -29 7.5t-27 6.5t-18 4q-55 8 -115 8q-52 0 -112 -26q-54 -23 -97 -76q-78 -103 -78 -287q0 -183 82 -291 q80 -102 220 -102q127 0 227 86q16 16 41 16q22 0 33 -16z" />
<glyph unicode="d" horiz-adv-x="1155" d="M496 1057h-2q173 0 284 -123v426q-119 20 -137 24q-31 6 -31 37v90h348v-1359q97 -18 119 -25q29 -6 29 -37v-90h-254q-37 0 -49 39l-17 125q-145 -176 -348 -176q-181 0 -286 135q-107 141 -107 393q0 237 121 385q125 156 330 156zM498 135l2 -2q160 0 278 158v500 q-91 122 -239 122q-151 0 -228 -102q-78 -103 -78 -295q0 -293 152 -360q50 -21 113 -21z" />
<glyph unicode="e" horiz-adv-x="1007" d="M528 1053h-4q90 0 172 -31q80 -30 135 -88q63 -67 91 -146q32 -91 32 -196q0 -46 -8 -57q-11 -15 -37 -15h-688q0 -95 25 -172q21 -64 69 -119q44 -50 103 -73q64 -25 131 -25q73 0 119 14q35 11 86 35q35 17 61 33t41 16q23 0 35 -18l51 -68q-29 -37 -82 -69 q-66 -40 -100 -51q-68 -22 -111 -29q-62 -10 -112 -10q-111 0 -199 36t-158 109q-64 66 -102 174q-37 104 -37 238q0 107 35 200q38 100 96 164q62 68 154 109q88 39 202 39zM528 918l2 2q-133 0 -206 -76q-77 -80 -95 -213h564q0 59 -19 114q-22 63 -49 93q-35 38 -84 59 t-113 21z" />
<glyph unicode="f" horiz-adv-x="761" d="M608 1348h2q-209 0 -209 -236v-96h299v-131h-294v-735q82 -12 137 -23q30 -6 30 -39v-88h-507v88q0 33 30 39l127 23v731l-114 14q-50 12 -50 47v74h164v100q0 181 96 277q92 96 261 96q57 0 129 -21l-4 -92q0 -18 -19 -24q-12 -4 -47 -4h-31z" />
<glyph unicode="g" horiz-adv-x="1038" d="M473 1055l-4 -4q67 0 125 -15q55 -14 106 -45h283v-67q0 -34 -43 -43l-117 -17q33 -59 33 -147q0 -78 -29 -137q-32 -66 -79 -105q-56 -46 -123 -69q-68 -23 -156 -23q-73 0 -137 18q-28 -17 -49 -45q-17 -23 -17 -45q0 -38 29 -55q36 -22 80 -27q66 -8 112 -8 q41 0 127 -8q106 -10 127 -14q61 -12 113 -37q46 -22 80 -72q29 -42 29 -115q0 -72 -33 -131q-31 -55 -99 -110q-60 -48 -151 -78q-88 -29 -205 -29q-119 0 -201 23q-87 24 -141 61q-57 39 -84 88q-29 53 -29 103q0 75 50 131t135 86q-45 18 -70 55q-26 37 -26 92q0 13 8 45 q6 25 24 49t43 46q4 4 58 36q-77 44 -121 115q-43 70 -43 166q0 80 28 137q30 62 82 105q51 42 127 67q70 23 158 23zM793 -61h2q0 37 -21 61q-22 25 -59 37q-39 13 -84 18q-81 10 -103 11q-18 1 -53.5 2t-54.5 2q-11 1 -105 12q-58 -27 -96 -68q-37 -40 -37 -96 q0 -33 19 -65t55 -52q41 -23 92 -34q60 -13 131 -13q58 0 131 15q53 11 99 38q40 24 61 58q23 38 23 74zM471 504v-4q52 0 98 16q39 14 72 43q30 27 43 68q14 44 14 84q0 95 -59 151t-168 56t-168 -56q-57 -54 -57 -151q0 -44 16 -84q17 -43 43 -66q33 -29 72 -43 q41 -14 94 -14z" />
<glyph unicode="h" horiz-adv-x="1280" d="M401 897q150 156 332 156q167 0 258 -107q90 -107 90 -287v-509q92 -17 117 -25q31 -6 31 -39v-86h-330v659q0 248 -219 248q-149 0 -279 -145v-615l25 -4q73 -14 90 -18q33 -7 33 -39v-86h-479v86q0 33 32 39l115 22v1211q-117 18 -135 24q-33 7 -33 39v86h352v-610z " />
<glyph unicode="i" horiz-adv-x="591" d="M213 1272q-17 17 -29 41q-10 20 -10 49q0 31 10 51q14 28 29 43q17 17 41 29q20 10 49 10t49 -10q24 -12 41 -29q15 -15 29 -43q12 -24 12 -51q0 -25 -12 -49t-29 -41t-41 -29q-20 -10 -49 -10t-49 10q-24 12 -41 29zM510 127q13 -3 22 -14t9 -25v-88h-478v88q0 14 9 25 t22 14l119 23v739q-101 18 -119 22q-13 3 -22 14t-9 25v86h330v-886q99 -19 117 -23z" />
<glyph unicode="j" horiz-adv-x="528" d="M451 1413q10 -20 10 -51q0 -29 -10 -49q-12 -24 -29 -41t-41 -29q-20 -10 -49 -10t-49 10q-24 12 -41 29t-29 41q-10 20 -10 49q0 31 10 51q14 28 29 43q17 17 41 29q20 10 49 10t49 -10q24 -12 41 -29q15 -15 29 -43zM260 -352v2q-53 -23 -125 -23q-62 0 -127 21l8 98 q4 21 33 21h41q80 0 113 36q35 38 35 119v965q-2 1 -43.5 8t-75.5 14q-29 6 -29 39v88h148h180v-1114q0 -207 -158 -274z" />
<glyph unicode="k" horiz-adv-x="1183" d="M1098 127h-2q30 -6 30 -37v-90h-192q-40 0 -70 37l-340 426q-14 20 -30 26q-17 7 -48 7h-49v-346l115 -23q33 -7 33 -39v-88h-479v88q0 33 30 39l117 23v1210q-99 18 -117 24q-30 6 -30 37v88h147h184v-886h45q44 0 66 28l233 250q-4 0 -12 2t-12 2q-9 2 -19.5 3.5 t-13.5 2.5q-33 7 -33 39v86h254h168h12v-86q0 -30 -26 -37q-22 -5 -127 -24l-242 -258q-32 -40 -59 -56q41 -26 61 -63l287 -365l53 -8q52 -12 66 -12z" />
<glyph unicode="l" horiz-adv-x="593" d="M512 127q33 -7 33 -39v-88h-479v88q0 33 32 39l115 23v1210q-95 17 -115 24q-32 6 -32 37v88h331v-1357q88 -16 115 -25z" />
<glyph unicode="m" horiz-adv-x="1822" d="M387 893v-2q131 162 293 162q106 0 172 -60q64 -58 94 -157q44 110 135 163q93 54 181 54q86 0 159 -27q66 -24 111 -76q90 -103 90 -291v-512q103 -19 119 -24q31 -6 31 -37v-90h-330v661q0 126 -53 185q-57 63 -156 63q-95 0 -156 -61q-67 -67 -67 -185v-512 q4 -1 19 -4.5t41.5 -9t55.5 -10.5q31 -6 31 -37v-88h-330v661q0 246 -196 246q-127 0 -232 -135v-623l56 -10q55 -12 61 -12q31 -6 31 -39v-86h-477v86q0 33 28 39l119 22v740q-103 19 -119 24q-28 6 -28 39v86h147h107q37 0 49 -37z" />
<glyph unicode="n" horiz-adv-x="1280" d="M389 887v2q153 166 344 166q168 0 258 -109q88 -108 88 -284v-510q92 -17 117 -25q33 -7 33 -39v-88h-332v659q0 250 -217 250q-153 0 -283 -145v-614q3 0 119 -25q31 -6 31 -39v-86h-477v86q0 33 28 39l119 22v740q-103 19 -119 24q-28 6 -28 39v86h147h107q37 0 49 -37 z" />
<glyph unicode="o" horiz-adv-x="1081" d="M541 1053q114 0 204 -37q92 -38 158 -107q62 -65 98 -168q35 -100 35 -221t-35 -221q-36 -103 -98 -168q-65 -68 -158 -106q-90 -37 -204 -37q-115 0 -205 37q-93 38 -158 106q-60 63 -100 168q-33 87 -33 221t33 221q40 105 100 168q66 69 158 107q90 37 205 37z M541 127q158 0 229 102q76 109 76 289t-76 289q-71 102 -229 102q-79 0 -135 -24q-53 -23 -95 -78q-40 -52 -57 -123q-21 -86 -21 -168q0 -78 21 -164q17 -71 57 -123q36 -47 95 -73q67 -29 135 -29z" />
<glyph unicode="p" horiz-adv-x="1138" d="M350 877h2q148 180 348 180q182 0 287 -135q107 -144 107 -398q0 -233 -119 -383q-125 -155 -316 -155t-299 120v-307q4 0 56 -12q53 -12 59 -12q33 -7 33 -39v-88h-479v88q0 33 32 39l115 22v1090q-95 17 -115 24q-32 6 -32 39v86h147h111q37 0 49 -37zM360 250 q92 -123 238 -123q152 0 229 102q78 103 78 295q0 385 -266 385q-161 0 -279 -157v-502z" />
<glyph unicode="q" horiz-adv-x="1136" d="M780 154h-2q-141 -166 -338 -166q-181 0 -286 135q-107 144 -107 393v4q0 247 133 395q125 140 324 140q167 0 385 -43l74 -15v-1198q110 -17 131 -24q32 -6 32 -37v-88h-514v88q0 30 27 37q24 6 141 24v355zM500 133q160 0 278 158v590q-125 32 -243 32h-13 q-206 -6 -268 -223q-21 -79 -21 -121v-53q0 -383 267 -383z" />
<glyph unicode="r" horiz-adv-x="884" d="M389 825h2q114 232 316 232q80 0 141 -37l-23 -137q-7 -27 -26 -27q-16 0 -49 10q-37 11 -84 11q-180 0 -267 -218v-512q7 -2 22.5 -4.5t42.5 -7.5t52 -10q31 -6 31 -39v-86h-477v86q0 33 30 39l117 22v740q-99 18 -117 24q-30 6 -30 39v86h147h105q28 0 38 -10 q11 -11 17 -39z" />
<glyph unicode="s" horiz-adv-x="839" d="M475 1053h-2q105 0 270 -56v-71v-195h-79q-29 0 -35 29q0 2 -1.5 16t-5 48.5t-6.5 70.5q-100 23 -159 23h-2q-83 0 -142 -46q-55 -43 -55 -94q0 -53 25 -78q41 -47 118 -71q17 -5 62.5 -18.5t64.5 -20.5l99 -37q36 -13 86 -53q84 -66 84 -181q0 -149 -101 -237 q-110 -96 -274 -96q-171 0 -336 55v270h74q24 0 30 -24q0 -3 1.5 -16.5t5 -47.5t6.5 -67q81 -41 211 -41q99 0 159 51q54 48 54 104q0 58 -25 86q-32 36 -61 50q-47 23 -86 32q-151 49 -191 66q-45 20 -92 57q-86 71 -86 193q0 124 98 209q103 90 291 90z" />
<glyph unicode="t" horiz-adv-x="743" d="M444 -16q-119 0 -188 69q-66 66 -66 197v635h-124q-18 0 -29 8q-10 7 -10 31v71l170 23l41 321q0 16 12 25q11 8 29 8h92v-356h297v-133h-297v-623q0 -68 30 -98q31 -31 84 -31q24 0 52 8q15 4 36 17q4 2 12.5 8t12.5 8q16 8 20 8q14 0 25 -16l53 -86q-56 -49 -114 -70 q-68 -24 -138 -24z" />
<glyph unicode="u" horiz-adv-x="1241" d="M578 129v-2q152 0 280 143v615q-18 6 -117 24q-30 6 -30 39v88h147h182v-889q99 -18 117 -24q31 -6 31 -37v-88h-256q-37 0 -49 39l-15 110q-146 -165 -344 -165q-166 0 -258 108q-90 111 -90 285v512q-95 17 -115 24q-32 6 -32 39v86h331v-659q0 -121 54 -184 q55 -64 164 -64z" />
<glyph unicode="v" horiz-adv-x="1220" d="M1112 1036h72v-90q0 -31 -31 -37q-2 0 -100 -20l-363 -891h-166l-362 891q-20 7 -56 12l-22 4t-16 3t-7 1q-30 6 -30 39v88h465v-88q0 -33 -31 -39q-5 -2 -19 -4t-41 -6.5t-53 -9.5l219 -557q19 -49 37 -148q26 106 41 148l221 557q-7 2 -22 4.5t-42 7.5t-52 10 q-31 6 -31 39v86h389z" />
<glyph unicode="w" horiz-adv-x="1779" d="M1278 1036l463 -2v-88q0 -31 -31 -37q-3 0 -9.5 -1.5t-18 -4t-23.5 -4.5t-24 -4.5t-18.5 -4t-8.5 -1.5l-289 -889h-143q-29 0 -37 33l-230 704q-5 14 -14 49q-2 6 -5 22t-5 23q-2 -8 -4 -24.5t-4 -24.5t-6.5 -22.5t-6.5 -22.5l-233 -702q-11 -35 -41 -35h-139l-287 891 q-11 0 -35 6q-17 3 -33.5 7t-24 5.5t-10.5 1.5q-32 6 -32 39v86h463v-86q0 -33 -31 -39q-5 -2 -19 -4.5l-42 -7.5t-52 -10l164 -557q5 -23 11.5 -54t11 -52.5t6.5 -35.5q4 21 41 142l217 672q12 36 49 36h80q39 0 51 -36l215 -672q21 -78 37 -139q11 63 31 139l168 557 q-9 0 -119 22q-33 7 -33 39v86z" />
<glyph unicode="x" horiz-adv-x="1169" d="M971 145l4 -2q28 -6 90 -16q37 -6 37 -41v-88h-408v88q0 31 31 37q1 0 8 1.5t19.5 4t25.5 4.5l-200 309q-4 -18 -21 -53l-172 -254q9 0 25 -4q8 -2 16.5 -4t13 -3t6.5 -1q31 -6 31 -37v-88h-407v88q0 31 30 37q44 11 50 12q10 2 21.5 4t17.5 3t10 1l264 385l-248 361 q-24 5 -49.5 9.5t-40 6.5t-19.5 4q-28 6 -28 37v90h405v-90q0 -31 -32 -37q-1 0 -5 -1t-14 -3t-22 -4l182 -283q9 29 26 58l152 223q-6 1 -33 6l-22 4q-31 6 -31 39v88h406v-88q0 -33 -31 -39q-60 -12 -109 -20l-245 -348z" />
<glyph unicode="y" horiz-adv-x="1220" d="M1106 1036l74 2v-88q0 -31 -31 -37q-3 0 -10 -1.5t-20 -5t-25 -5.5q-48 -10 -52 -10l-514 -1196q-19 -45 -65 -45h-135l188 411l-364 832q-65 11 -93 20q-30 6 -30 37v88h465v-88q0 -31 -31 -37q-20 -7 -115 -24l232 -541q8 -19 26 -94q13 43 33 94l223 541 q-24 5 -47 9.5t-41 8t-24 4.5q-29 6 -29 39v86h385z" />
<glyph unicode="z" horiz-adv-x="944" d="M205 1036l667 2v-77q0 -37 -26 -70l-561 -748h460q3 36 6 68.5t5 48.5t2 19q6 24 30 24h72v-303h-790v76q0 30 24 65l565 752h-444q-2 -31 -5 -62t-4 -44.5t-1 -16.5q-7 -27 -33 -27h-72v293h105z" />
<glyph unicode="{" horiz-adv-x="567" d="M186 434l-2 -4q0 64 -37 107q-35 41 -102 41v110q67 0 102 41q37 43 37 107q0 36 -8 102q-4 36 -16 100q-1 6 -9 44t-10 57q-8 66 -8 106q0 62 23 129q21 61 63 103q43 43 105 67q59 23 147 23h55v-80q0 -21 -14 -31q-13 -10 -27 -10h-20q-80 0 -125 -51t-45 -140 q0 -36 8 -110q5 -42 16 -105q14 -76 17 -102q6 -50 6 -100q0 -43 -10 -72q-12 -35 -33 -59q-26 -30 -49 -45q-27 -18 -62 -27q30 -8 62 -29q23 -15 49 -45q19 -21 33 -57q12 -30 12 -72q0 -34 -8 -100q-3 -29 -17 -103q-12 -65 -16 -104q-8 -74 -8 -111q0 -91 47 -141 q46 -49 125 -49h20q14 0 27 -10q14 -10 14 -31v-82h-53q-83 0 -147 25q-62 24 -107 69t-65 103q-21 61 -21 129q0 38 8 104q3 26 17 102q17 95 18 101q8 66 8 100z" />
<glyph unicode="|" horiz-adv-x="366" d="M115 1569h139v-1921h-139v1921z" />
<glyph unicode="}" horiz-adv-x="567" d="M383 434l-2 4q0 -36 8 -102q3 -29 17 -103q18 -97 18 -100q8 -66 8 -104q0 -67 -22 -131q-21 -62 -62 -103q-39 -39 -106 -65q-64 -25 -148 -25h-53v82q0 19 14 29q11 8 27 8h20q75 0 125 53q47 50 47 139q0 37 -8 111q-4 39 -16 104q-14 79 -17 101q-8 66 -8 102 q0 38 13 70q17 41 32 59q26 30 49 45q27 18 62 27q-30 8 -62 29q-23 15 -49 45q-19 22 -32 59q-11 32 -11 72q0 52 6 102q3 25 17 102q12 66 16 103q8 74 8 110q0 91 -45 142t-125 51h-20q-14 0 -27 10q-14 10 -14 31v80h55q89 0 148 -23q57 -22 102 -67q47 -47 66 -103 q20 -59 20 -129q0 -40 -8 -106q-5 -39 -16 -101q-1 -7 -9 -44t-10 -56q-8 -66 -8 -102q0 -66 35 -107t106 -41v-110q-71 0 -106 -41t-35 -107z" />
<glyph unicode="~" horiz-adv-x="1124" d="M745 627q68 0 103 41q39 45 39 116h147q0 -70 -18 -125q-19 -59 -53 -98q-35 -40 -89 -65q-50 -23 -116 -23q-60 0 -107 16q-4 2 -102 37q-21 8 -92 37q-46 19 -80 19q-66 0 -105 -45t-39 -115h-147q0 65 20 127q18 57 54 98q35 41 86 64q48 22 119 22q59 0 106 -16 q4 -1 102 -37q30 -11 93 -37q39 -16 79 -16z" />
<glyph unicode="&#xa1;" horiz-adv-x="409" d="M123 -352l-4 555v88q0 3 6 90q4 56 8 90q2 18 5 52t5 50h125q1 -13 3.5 -34t4 -37t3.5 -31q4 -34 8 -90q6 -87 6 -90q0 -14 1 -43t1 -45v-555h-172zM74 926h-2q0 22 10 49t24 41q17 17 41 26q29 11 52 11q20 0 49 -11q21 -8 39 -26q15 -15 28 -41q11 -22 11 -49t-11 -49 q-13 -26 -28 -41t-39 -27q-20 -10 -49 -10q-32 0 -52 10q-22 11 -38 27q-19 19 -27 41q-8 21 -8 49z" />
<glyph unicode="&#xa2;" horiz-adv-x="942" d="M848 211l49 -64q-126 -153 -373 -159l-10 -176q0 -16 -14 -33t-37 -17h-66l15 236q-133 30 -224 129q-131 146 -131 393q0 241 127 383q112 130 301 148l13 182q0 19 14 37q13 16 37 16h67l-16 -237q106 -11 252 -72v-268h-82q-27 0 -33 28q-1 3 -2 18.5t-4 52t-6 73.5 q-17 4 -42 11t-34 9q-50 8 -59 8v-2l-53 -778v-2h45q34 0 75 14q32 11 72 35q9 6 47 37q19 16 39 16q21 0 33 -18zM244 520v4q0 -185 82 -293q39 -51 94 -75q5 21 55 749q-164 -39 -213 -221q-18 -74 -18 -164z" />
<glyph unicode="&#xa3;" horiz-adv-x="1189" d="M53 688l-2 -4q0 28 17 45q21 21 47 21h135v266q0 88 29 180q27 85 83 147q58 64 142 101t196 37q77 0 142 -19q53 -16 108 -57q50 -38 84 -80q36 -45 60 -100l-74 -45q-2 -1 -9 -5.5t-12 -5.5q-8 -2 -20 -2q-21 0 -29 4q-2 1 -22 21q-22 29 -41 51q-20 23 -47 43 q-20 15 -60 29q-34 12 -80 12q-62 0 -114 -22q-53 -22 -82 -62q-32 -43 -49 -96q-17 -52 -17 -127v-268h453v-74q0 -21 -14 -35t-39 -14h-400v-248q0 -81 -28 -133q-30 -56 -78 -101q33 7 57 9q20 2 62 2h692v-78q0 -11 -8 -27q-9 -18 -17 -26q-14 -14 -24 -19 q-16 -8 -33 -8h-987v119q55 18 69 26q32 19 56 43t39 62q16 40 16 82v297h-201v59z" />
<glyph unicode="&#xa4;" horiz-adv-x="1040" d="M156 688l-2 -4q0 58 18 111q22 65 45 98l-156 156l93 94l153 -156q46 32 99 49q52 17 114 17q61 0 111 -17q55 -19 96 -47l158 158l90 -94l-156 -156q31 -44 49 -98q19 -55 19 -111q0 -60 -17 -110q-20 -57 -47 -97l156 -153l-92 -95l-156 156q-47 -32 -98 -49 q-49 -16 -113 -16q-63 0 -110 16q-59 20 -95 45l-157 -156l-92 95l155 155q-32 46 -49 96q-16 47 -16 113zM289 684h-2q0 -40 20 -88q16 -39 49 -72q31 -31 74 -49q48 -20 90 -20t90 20q43 18 74 49q33 33 49 72q19 46 19 88q0 44 -19 90q-18 43 -49 74t-74 49 q-51 21 -90 21t-90 -21q-43 -18 -74 -49t-49 -74q-18 -44 -18 -90z" />
<glyph unicode="&#xa5;" horiz-adv-x="1171" d="M150 639l313 -2l-418 827h152q26 0 41 -12q13 -10 28 -33l283 -579q10 -30 24 -66q11 -28 17 -57q5 23 16 61q3 10 12 31.5t13 34.5l282 577q7 21 25 33t41 12h156l-420 -827h313v-102h-348v-109h348v-104h-348v-324h-182v324h-348v104h348v109h-348v102z" />
<glyph unicode="&#xa6;" horiz-adv-x="358" d="M111 1569h139v-811h-139v811zM111 463h139v-815h-139v815z" />
<glyph unicode="&#xa7;" horiz-adv-x="923" d="M778 1294l2 -4q-10 -20 -39 -20q-17 0 -32 10q-13 8 -50 25q-42 19 -65 26q-38 12 -92 12q-48 0 -88 -12t-70 -35t-41 -51q-12 -30 -12 -61q0 -36 24 -66q23 -29 64 -53q53 -31 92 -47t107 -45q43 -19 106 -51q47 -24 92 -66q44 -41 64 -82q24 -50 24 -110 q0 -86 -39 -148q-43 -68 -125 -104q53 -40 82 -88q33 -54 33 -123q0 -62 -27 -131q-24 -63 -75 -107q-52 -46 -123 -69q-83 -27 -166 -27q-117 0 -197 35q-92 40 -149 92l41 69q9 17 20 23q12 6 31 6q18 0 39 -14q4 -3 13 -9t18 -12.5t18 -11.5q33 -20 74 -31 q51 -14 106 -14q50 0 90 12q43 13 70 37q31 27 41 53q14 35 14 72q0 43 -26 80q-28 40 -66 61q-62 34 -96 47q-74 28 -111 44l-110 49q-53 23 -97 61q-42 36 -65 84q-27 56 -27 113q0 81 43 145q41 61 140 100q-54 41 -82 93q-33 61 -33 131q0 58 24 114q22 52 74 97 q46 40 115 65q70 25 158 25q97 0 184 -33q75 -28 141 -88zM221 739v-2q0 -51 37 -88q36 -36 90 -65q48 -26 123 -56q33 -13 131 -61q53 23 80 65q25 39 25 86q0 36 -15 66q-10 20 -43 53q-23 23 -61 41q-10 5 -35.5 18.5t-40.5 20.5q-7 3 -36 16.5t-46 20.5q-14 6 -43 19.5 t-43 19.5q-66 -29 -94 -68q-29 -40 -29 -86z" />
<glyph unicode="&#xa8;" horiz-adv-x="765" d="M315 1319q0 -25 -8 -41q-13 -26 -26 -37q-18 -15 -39 -24t-43 -9q-25 0 -43 9q-26 13 -37 24q-13 13 -25 37q-8 16 -8 41q0 26 8 45q9 21 25 37q11 11 37 24q22 11 43 11q19 0 45 -11q21 -9 39 -24q13 -11 24 -37q8 -19 8 -45zM684 1319h-4q0 -25 -8 -41q-12 -24 -25 -37 q-14 -14 -37 -24q-21 -9 -45 -9q-22 0 -43 9q-23 10 -37 24q-11 11 -24 37q-10 20 -10 41q0 22 10 45t24 37t37 24q26 11 45 11t45 -11q23 -10 37 -24q16 -16 25 -37q10 -23 10 -45z" />
<glyph unicode="&#xa9;" horiz-adv-x="1624" d="M1049 475h-5q1 1 15 8q4 2 12 2q10 0 14 -2q6 -3 13 -10l61 -65q-59 -68 -143 -105t-203 -37q-105 0 -182 35q-86 39 -142 98q-62 66 -92 150q-30 86 -30 188q0 111 34 189q37 86 99 147q57 57 149 94q87 35 187 35q114 0 188 -35q76 -36 135 -92l-45 -67l-12 -13 q-4 -4 -21 -4t-30 10q-15 12 -41 25q-36 18 -64 27q-37 12 -98 12q-70 0 -131 -25q-62 -26 -99 -65q-41 -44 -61 -103t-20 -139t20 -139q19 -57 61 -105q37 -42 91 -63q53 -20 118 -20q59 0 82 4q40 7 58 16q30 15 45 25zM59 733h-2q0 91 27 197q23 92 76 180q47 78 119 150 q63 64 151 116q90 54 176 76q106 27 201 27q91 0 197 -27q92 -23 180 -76q87 -52 151 -116q67 -68 117 -150q53 -88 76 -180q26 -102 26 -197q0 -96 -26 -198q-25 -97 -74 -179q-48 -80 -119 -151q-61 -61 -151 -115q-95 -57 -178 -78q-94 -24 -199 -24t-199 24 q-83 21 -178 78q-90 54 -151 115q-71 71 -119 151q-49 82 -74 179q-27 106 -27 198zM160 733l-2 -4q0 -98 22 -176q24 -85 66 -156q50 -85 98 -135q53 -56 131 -102q69 -41 156 -66q69 -20 172 -20q138 0 254 49t205 141q92 95 139 209q51 124 51 256q0 98 -22 176 q-26 92 -66 160q-47 79 -98 133q-60 63 -131 105q-65 39 -156 65q-86 25 -172 25q-134 0 -254 -54q-121 -54 -205 -141q-92 -95 -139 -209q-49 -119 -49 -256z" />
<glyph unicode="&#xaa;" horiz-adv-x="681" d="M590 860l-62 -4q-14 0 -26 8q-14 9 -19 25l-12 49q-14 -12 -47 -37q-18 -13 -49 -29q-29 -15 -56 -20q-20 -4 -65 -4q-47 0 -70 8q-35 12 -59 33q-27 24 -39 53q-12 30 -12 72q0 31 20 69q17 33 64 62q48 30 118 47q82 20 183 20v37q0 65 -29 94q-33 33 -88 33 q-36 0 -63 -10q-43 -16 -46 -18q-27 -18 -32 -21q-13 -8 -33 -8q-9 0 -25 8q-11 5 -16 16l-21 46q56 50 115 73t137 23q53 0 99 -19q41 -17 71 -47t45 -73q17 -49 17 -97v-389zM297 942h-2q46 0 90 21t76 53v108q-66 0 -121 -10q-46 -8 -80 -22q-30 -12 -43 -31 q-14 -21 -14 -41q0 -42 26 -62q21 -16 68 -16z" />
<glyph unicode="&#xab;" horiz-adv-x="786" d="M66 530v25l253 399l60 -28q15 -8 22 -21q7 -14 7 -24q0 -17 -11 -33l-164 -266q-13 -26 -26 -39q17 -14 29 -37l161 -268q5 -5 9 -17t4 -16q0 -33 -29 -45l-59 -29zM369 532l-4 25l256 397l59 -28q14 -7 20 -19q9 -18 9 -24q0 -19 -11 -35l-161 -266q-8 -16 -29 -37 q18 -14 29 -37l163 -268q4 -4 9 -19q2 -6 2 -16q0 -31 -29 -43l-59 -29z" />
<glyph unicode="&#xac;" horiz-adv-x="1069" d="M90 758h881v-434h-156v294h-725v140z" />
<glyph unicode="&#xad;" horiz-adv-x="698" d="M98 692h504v-155h-504v155z" />
<glyph unicode="&#xae;" horiz-adv-x="1624" d="M66 733h-5q0 83 29 197q25 98 74 180q47 78 119 150q64 64 151 116q89 53 178 76q106 27 199 27t199 -27q89 -23 178 -76q87 -52 151 -116q72 -72 119 -150q49 -82 74 -180q29 -114 29 -197q0 -84 -29 -198q-25 -97 -74 -179q-48 -80 -119 -151q-61 -61 -151 -115 q-96 -58 -176 -78q-94 -24 -201 -24q-103 0 -197 24q-87 22 -180 78q-90 54 -151 115q-66 66 -117 151q-53 88 -76 179q-24 95 -24 198zM164 733v-4q0 -105 20 -176q24 -85 66 -156q47 -79 100 -135q56 -59 129 -102q69 -41 156 -66q69 -20 172 -20q138 0 254 49 q120 51 207 141q89 92 137 209q53 128 53 256q0 91 -24 176q-28 99 -64 160q-44 74 -100 133q-60 63 -131 105q-67 40 -154 65q-86 25 -174 25q-132 0 -252 -54q-125 -56 -207 -141q-89 -92 -137 -209q-51 -124 -51 -256zM659 637l3 -363h-160v914h295q173 0 260 -66 q86 -65 86 -188q0 -96 -56 -164q-59 -71 -163 -94q21 -14 30 -25q5 -6 12.5 -19.5t10.5 -17.5l233 -340h-151q-32 0 -51 25l-205 309q-15 20 -21 23q-12 6 -41 6h-82zM662 754h114q56 0 96 12q45 13 66 29q19 14 33 49q12 30 12 69t-8 66q-8 28 -33 49q-22 19 -57 27 q-42 10 -88 10h-135v-311z" />
<glyph unicode="&#xaf;" horiz-adv-x="772" d="M94 1380h588v-118h-588v118z" />
<glyph unicode="&#xb0;" horiz-adv-x="808" d="M70 1155l-2 -2q0 62 26 129q22 56 70 104q50 50 106 72q64 25 131 25q70 0 134 -25q56 -22 106 -72q52 -52 72 -104q24 -62 24 -129q0 -65 -24 -127q-20 -52 -72 -104q-48 -48 -104 -70q-69 -27 -134 -27q-64 0 -133 27q-56 22 -104 70q-50 50 -72 106q-24 62 -24 127z M197 1151q0 -40 16 -80q13 -33 43 -63q33 -33 63 -45q37 -15 82 -15q41 0 78 15q35 14 66 45q30 30 43 63q14 35 14 80q0 47 -14 82q-15 37 -43 65t-66 43t-78 15q-44 0 -82 -15q-33 -13 -63 -43q-28 -28 -43 -65q-16 -40 -16 -82z" />
<glyph unicode="&#xb1;" horiz-adv-x="1116" d="M635 1231v-385h418v-139h-418v-377h-150v377h-415v139h415v385h150zM70 221h983v-139h-983v139z" />
<glyph unicode="&#xb2;" horiz-adv-x="667" d="M254 1028v2q65 14 94 14h158q6 50 6 56q7 20 25 20h57v-198h-524v45q0 31 22 53l227 225q123 123 123 215q0 51 -32 80t-76 29q-90 0 -121 -94q-17 -29 -45 -29h-16l-74 12q15 108 86 164q67 53 176 53t172 -57t63 -156q0 -103 -96 -205q-18 -20 -57 -59z" />
<glyph unicode="&#xb3;" horiz-adv-x="645" d="M332 1675l-8 8q48 0 94 -16q40 -14 74 -41q26 -20 45 -61q16 -33 16 -76q0 -132 -121 -178q68 -18 105 -58q34 -37 34 -104q0 -54 -22 -100q-20 -42 -55 -70q-39 -31 -82 -45q-50 -16 -97 -16q-57 0 -100 12q-42 12 -74 37q-31 24 -51 61q-24 43 -37 86l56 25q15 6 30 6 q27 0 39 -23q2 -3 7 -14t8 -18q8 -16 24 -29q25 -20 37 -25q19 -8 55 -8q40 0 56 8t41 29q17 14 24 35q8 24 8 43q0 32 -8 51q-9 22 -29 35q-26 17 -53 22q-35 6 -82 6v91q87 0 127 32q37 30 37 82q0 55 -29 78q-34 27 -79 27q-47 0 -78 -25q-30 -24 -41 -65q-6 -18 -17 -25 q-9 -6 -24 -6h-10h-9l-69 12q5 49 32 94q29 49 56 70q40 31 76 41q43 12 94 12z" />
<glyph unicode="&#xb4;" horiz-adv-x="552" d="M483 1483l-237 -264q-11 -14 -29 -23q-8 -4 -35 -4h-108l151 246q11 22 31 35q15 10 49 10h178z" />
<glyph unicode="&#xb5;" horiz-adv-x="1073" d="M291 1036v-676q0 -111 55 -172t162 -61q81 0 151 37q69 37 132 106v766h180v-1038h-107q-37 0 -49 39l-16 110q-63 -69 -140 -108q-69 -35 -161 -35q-71 0 -133 27q-58 25 -97 73q10 -71 11 -88q4 -58 4 -82v-286h-93q-36 0 -59 20q-20 17 -20 58v1310h180z" />
<glyph unicode="&#xb6;" horiz-adv-x="1390" d="M1343 1466v-155h-225v-1516h-160v1516h-284v-1516h-162v881q-94 0 -188 33q-87 30 -146 84q-65 59 -92 125q-33 81 -33 155q0 79 33 160q28 69 94 125q59 50 144 80q80 28 190 28h829z" />
<glyph unicode="&#xb7;" horiz-adv-x="489" d="M92 606q0 32 12 62q12 29 35 49q27 23 49 33q27 12 58 12t61 -12q27 -11 49 -33t33 -49q12 -30 12 -62q0 -30 -12 -57q-10 -22 -33 -49q-17 -20 -49 -33q-30 -12 -61 -12t-58 12q-29 13 -49 33q-24 24 -35 49q-12 27 -12 57z" />
<glyph unicode="&#xb8;" horiz-adv-x="540" d="M123 -254l4 -4q6 0 14 -4q1 -1 7.5 -3.5t11.5 -4.5q13 -6 28 -9q24 -4 37 -4q44 0 66 19q20 17 20 43q0 21 -12 33q-19 19 -31 24q-17 7 -51 14q-12 2 -38.5 6t-31.5 5l43 145h115l-24 -82q90 -18 133 -55t43 -90q0 -35 -17 -58q-23 -31 -47 -45q-35 -21 -69 -28 q-39 -8 -91 -8q-46 0 -79 8q-30 7 -72 24l18 58q5 16 23 16z" />
<glyph unicode="&#xb9;" horiz-adv-x="579" d="M111 1008h149v450l4 45l-108 -90q-11 -8 -29 -8q-24 0 -33 12l-39 58l228 196h110v-663h133v-86h-415v86z" />
<glyph unicode="&#xba;" horiz-adv-x="776" d="M389 1483q65 0 129 -23q58 -21 100 -63q40 -40 64 -99q23 -56 23 -131q0 -74 -23 -133t-64 -100q-47 -47 -100 -66q-56 -20 -129 -20q-75 0 -131 20q-53 19 -100 66q-41 41 -64 100q-24 62 -24 133q0 72 24 131q26 63 64 101q42 42 100 63t131 21zM389 954q85 0 127 54 q45 57 45 155q0 101 -45 158q-42 53 -127 53q-91 0 -133 -53q-43 -55 -43 -158q0 -100 43 -155q42 -54 133 -54z" />
<glyph unicode="&#xbb;" horiz-adv-x="790" d="M168 131l-62 31q-28 11 -28 43q0 15 12 33l162 268q10 20 27 37q-10 10 -27 37l-162 268q-12 18 -12 33q0 32 28 43l62 28l254 -399v-23zM725 555v-23l-254 -397l-61 29q-29 12 -29 41q0 17 12 35l162 268q10 20 27 37q-10 10 -27 37l-162 266q-12 18 -12 33q0 33 29 45 l61 28z" />
<glyph unicode="&#xbc;" horiz-adv-x="1413" d="M1262 274l112 -2v-67q0 -11 -6 -17q-8 -8 -22 -8h-84v-180h-111v180h-315q-13 0 -29 8q-12 6 -12 21l-9 57l349 479h127v-471zM94 807h152v450l4 43l-111 -90q-13 -10 -24 -10q-20 0 -33 17l-41 57l227 192h111v-659h133v-88h-418v88zM1151 520v-2v43q0 13 4 45 l-246 -334h242v248zM381 53h2q-20 -34 -43 -45q-20 -10 -53 -10h-78l840 1405q18 30 41 47q21 16 55 16h80z" />
<glyph unicode="&#xbd;" horiz-adv-x="1402" d="M1004 106v3q65 14 94 14h157q2 14 3.5 27.5t2.5 19.5t1 8q7 21 24 21h57v-199h-524v45q0 30 23 53l227 226q123 123 123 215q0 49 -33 79q-32 29 -78 29q-87 0 -118 -94q-17 -29 -45 -29h-17l-74 13q14 107 86 163q69 54 177 54t172 -58q63 -57 63 -155q0 -103 -96 -205 q-18 -20 -58 -60zM94 807h150v450l4 46l-109 -91q-11 -8 -33 -8q-16 0 -26 13l-39 57l225 196h111v-663h135v-86h-418v86zM334 55q-30 -55 -94 -55h-78l837 1405q38 63 99 63h78z" />
<glyph unicode="&#xbe;" horiz-adv-x="1458" d="M1307 274l110 -2v-67q0 -11 -6 -17q-8 -8 -22 -8h-82v-180h-113v180h-313q-13 0 -29 8q-12 6 -12 21l-11 57l351 479h127v-471zM326 1475l-9 6q51 0 95 -15q35 -12 71 -41q32 -26 49 -61t17 -78q0 -130 -123 -176q60 -16 102 -61q37 -40 37 -103q0 -57 -20 -98 q-22 -45 -58 -74q-35 -28 -81 -43q-43 -14 -95 -14q-59 0 -102 12q-42 12 -74 37q-34 27 -53 61q-25 45 -37 84l57 25q15 6 29 6q29 0 41 -24q2 -4 7.5 -13.5t8.5 -15.5q11 -22 25 -33q17 -13 37 -22q26 -11 53 -11q31 0 57 13q30 15 41 24q18 15 25 37q8 24 8 41 q0 30 -10 53q-11 25 -29 37q-24 16 -53 21q-46 8 -80 8v88q86 0 125 31q37 30 37 86q0 50 -31 75q-34 27 -78 27q-46 0 -77 -25q-30 -24 -41 -65q-6 -18 -17 -25q-12 -8 -24 -8h-9q-2 0 -5 2t-5 2l-67 12q6 58 28 95t58 65q39 31 77 41q62 17 93 17zM1188 526v-2v45 q0 13 4 45l-246 -335h242v247zM422 59q-19 -32 -41 -43q-24 -12 -53 -12h-78l837 1405q16 27 43 47q23 17 54 17h80z" />
<glyph unicode="&#xbf;" horiz-adv-x="847" d="M803 -217v2q-25 -25 -72 -55q-45 -29 -84 -45q-60 -25 -98 -33q-55 -12 -115 -12q-87 0 -149 22q-81 29 -121 64q-49 43 -78 102t-29 137q0 80 23 133q24 55 59 90q55 55 76 68q10 6 80 51q33 21 61 49q25 25 31 60l19 157h124l13 -172v-12q0 -47 -23 -76 q-37 -46 -57 -59q-59 -38 -78 -49q-20 -12 -74 -55q-35 -28 -59 -72q-23 -42 -23 -103q0 -42 17 -77q19 -40 47 -62q33 -26 69 -37q47 -14 87 -14q67 0 108 14q37 13 74 35q32 19 51 35q17 14 31 14q15 0 24 -6q13 -9 17 -16zM344 926q0 22 10 49q8 22 27 41q11 11 41 26 q22 11 49 11t49 -11q26 -13 39 -26q19 -19 27 -41q8 -21 8 -49t-8 -49q-8 -22 -27 -41q-20 -20 -39 -27q-27 -10 -49 -10t-49 10q-22 8 -41 27t-27 41q-10 27 -10 49z" />
<glyph unicode="&#xc0;" horiz-adv-x="1581" d="M1505 115q27 -7 27 -33v-82h-422v82q0 27 29 33l84 24l-115 295h-633l-115 -295l84 -24q27 -6 27 -33v-82h-420v82q0 26 27 33l82 24l532 1327h201l530 -1327zM530 578h523l-217 565q-25 57 -45 137q-25 -94 -41 -139zM627 1825q31 0 49 -6q15 -5 37 -27l217 -207h-144 q-24 0 -32 2q-14 3 -31 15l-301 223h205z" />
<glyph unicode="&#xc1;" horiz-adv-x="1581" d="M1505 115q27 -7 27 -33v-82h-422v82q0 27 29 33l84 24l-115 295h-633l-115 -295l84 -24q27 -6 27 -33v-82h-420v82q0 26 27 33l82 24l532 1327h201l530 -1327zM530 578h523l-217 565q-25 57 -45 137q-25 -94 -41 -139zM1139 1825l-299 -223q-3 -2 -33 -17q-8 -4 -33 -4 h-143l217 209q8 8 20 16q3 2 8.5 5.5t8.5 5.5q9 6 20 6q3 0 13 1t16 1h205z" />
<glyph unicode="&#xc2;" horiz-adv-x="1581" d="M1505 115q27 -7 27 -33v-82h-422v82q0 27 29 33l84 24l-115 295h-633l-115 -295l84 -24q27 -6 27 -33v-82h-420v82q0 26 27 33l82 24l532 1327h201l530 -1327zM530 578h523l-217 565q-25 57 -45 137q-25 -94 -41 -139zM1124 1583l-137 -2q-13 0 -29 4t-22 8l-133 99 q-2 2 -6 4t-6 4q-8 -8 -13 -8l-133 -97q-11 -7 -22 -10q-8 -2 -29 -2h-137l243 215h181z" />
<glyph unicode="&#xc3;" horiz-adv-x="1581" d="M1505 115q27 -7 27 -33v-82h-422v82q0 27 29 33l84 24l-115 295h-633l-115 -295l84 -24q27 -6 27 -33v-82h-420v82q0 26 27 33l82 24l532 1327h201l530 -1327zM530 578h523l-217 565q-25 57 -45 137q-25 -94 -41 -139zM913 1704v-4q37 0 56 22q20 23 20 60h101 q0 -41 -13 -82q-12 -37 -33 -64t-53 -43t-73 -16q-31 0 -66 14q-10 4 -64 31q-10 5 -28.5 15t-26.5 14q-24 12 -53 12q-35 0 -53 -21q-19 -22 -19 -57h-102q0 45 12 82q11 35 35 62q26 29 53 43q28 14 74 14q35 0 65 -12q20 -8 62 -29l57 -29q24 -12 49 -12z" />
<glyph unicode="&#xc4;" horiz-adv-x="1581" d="M1505 115q27 -7 27 -33v-82h-422v82q0 27 29 33l84 24l-115 295h-633l-115 -295l84 -24q27 -6 27 -33v-82h-420v82q0 26 27 33l82 24l532 1327h201l530 -1327zM530 578h523l-217 565q-25 57 -45 137q-25 -94 -41 -139zM686 1706l-2 -2q0 -23 -10 -43t-25 -35 q-14 -14 -37 -24q-21 -9 -43 -9q-23 0 -41 9q-24 12 -36 24q-13 13 -25 37q-8 16 -8 41q0 26 8 45q9 21 25 37q12 12 36 24q22 11 41 11t45 -11q23 -10 37 -24q16 -16 25 -37q10 -23 10 -43zM1118 1704v-2q0 -27 -8 -43q-10 -20 -25 -35q-14 -14 -36 -25q-20 -10 -41 -10 q-25 0 -45 10t-35 25t-25 35t-10 45q0 22 10 45q9 21 25 37q13 13 35 24q18 9 45 9q23 0 41 -9q24 -12 36 -24q16 -16 25 -37q8 -19 8 -45z" />
<glyph unicode="&#xc5;" horiz-adv-x="1581" d="M1505 115q27 -7 27 -33v-82h-422v82q0 27 29 33l84 24l-115 295h-633l-115 -295l84 -24q27 -6 27 -33v-82h-420v82q0 26 27 33l82 24l532 1327h201l530 -1327zM530 578h523l-217 565q-25 57 -45 137q-25 -94 -41 -139zM594 1700q0 37 16 74q12 28 41 57q25 25 62 37 q44 14 73 14q32 0 76 -14q35 -11 64 -37q26 -23 41 -57q16 -37 16 -74q0 -40 -16 -72q-17 -33 -41 -55q-29 -26 -64 -37q-37 -12 -76 -12q-36 0 -73 12t-62 37q-27 27 -41 55q-16 32 -16 72zM684 1700v-2q0 -42 29 -74q26 -29 75 -29q46 0 74 31q27 30 27 74t-27 74 q-25 28 -74 28q-50 0 -75 -28q-29 -32 -29 -74z" />
<glyph unicode="&#xc6;" horiz-adv-x="1988" d="M53 82h-2q0 26 27 33v2l82 22l631 1194q-4 0 -8.5 1t-11 2.5t-9.5 2.5l-17 4q-30 6 -30 37v88h1194v-354h-101q-37 0 -43 37q0 2 -1.5 19.5t-5.5 56t-7 80.5h-612l61 -488h543v-155h-522l61 -500h471q12 135 12 143q6 37 41 37h101v-344h-938v90q0 31 30 37q2 0 8 1 t18.5 3t23.5 4q14 2 29.5 6t19.5 4l-31 256h-569l-136 -262l84 -24q29 -6 29 -33v-82h-233h-82h-107v82zM571 545h478l-99 772q-29 -89 -55 -146z" />
<glyph unicode="&#xc7;" horiz-adv-x="1300" d="M795 1483q173 0 452 -105v-114v-228h-100q-35 0 -41 35q-4 18 -10 92q-6 79 -6 94q-457 146 -693 -102q-149 -161 -149 -422q0 -267 147 -426q139 -151 363 -151q124 0 192 24q114 43 183 107q19 16 34 16q17 0 29 -12l78 -86q-179 -209 -490 -221l-14 -58 q93 -18 133 -53q43 -37 43 -82q0 -49 -16 -70q-23 -31 -47 -45q-59 -36 -160 -36q-75 0 -150 32l17 56q6 18 24 18q7 0 15 -4q1 -1 7 -2.5t11 -3.5q30 -12 70 -12t61 18t21 39q0 24 -13 37q-14 14 -32 22q-35 15 -119 27l37 121q-268 24 -434 205q-193 211 -193 540 q0 330 205 541q203 209 545 209z" />
<glyph unicode="&#xc8;" horiz-adv-x="1200" d="M70 1466h1052v-354h-98q-39 0 -45 35q0 11 -12 158h-549v-488h540v-155h-540v-502h549q12 135 12 147q5 33 43 33h98v-340h-1050v86q0 33 28 39l119 22v1170q-103 19 -119 24q-28 6 -28 39v86zM518 1823q37 0 49 -4t37 -29l215 -207h-141q-27 0 -35 2q-6 1 -29 17 l-303 221h207z" />
<glyph unicode="&#xc9;" horiz-adv-x="1200" d="M70 1466h1052v-354h-98q-39 0 -45 35q0 11 -12 158h-549v-488h540v-155h-540v-502h549q12 135 12 147q5 33 43 33h98v-340h-1050v86q0 33 28 39l119 22v1170q-103 19 -119 24q-28 6 -28 39v86zM1032 1823l-303 -221q-15 -10 -29 -17q-8 -4 -36 -4h-140l215 209 q10 10 19 16q3 2 10 4.5t10 4.5q12 8 21 8h26h207z" />
<glyph unicode="&#xca;" horiz-adv-x="1200" d="M70 1466h1052v-354h-98q-39 0 -45 35q0 11 -12 158h-549v-488h540v-155h-540v-502h549q12 135 12 147q5 33 43 33h98v-340h-1050v86q0 33 28 39l119 22v1170q-103 19 -119 24q-28 6 -28 39v86zM1016 1581h-139q-9 0 -25 4q-21 5 -25 8l-133 99q-2 2 -6 4t-6 4 q-8 -8 -12 -8l-133 -99q-4 -3 -25 -8q-16 -4 -25 -4h-139l244 217h180z" />
<glyph unicode="&#xcb;" horiz-adv-x="1200" d="M70 1466h1052v-354h-98q-39 0 -45 35q0 11 -12 158h-549v-488h540v-155h-540v-502h549q12 135 12 147q5 33 43 33h98v-340h-1050v86q0 33 28 39l119 22v1170q-103 19 -119 24q-28 6 -28 39v86zM578 1704h-5q0 -29 -8 -45q-9 -18 -24 -33q-14 -14 -37 -24q-26 -11 -45 -11 t-41 11q-18 9 -33 24t-25 35t-10 43q0 22 10 45q9 21 25 37q13 13 35 24q18 9 43 9q24 0 45 -9q23 -10 37 -24t24 -37q9 -21 9 -45zM1012 1704v-4q0 -19 -11 -41q-13 -26 -24 -37q-15 -15 -35 -25q-16 -8 -45 -8q-25 0 -41 8q-24 12 -37 25q-11 11 -24 37q-9 18 -9 43 q0 24 9 45q10 23 24 37q11 11 37 24q22 11 41 11q23 0 45 -11t35 -24q14 -14 24 -37q11 -26 11 -43z" />
<glyph unicode="&#xcc;" horiz-adv-x="688" d="M594 1341l-115 -22v-1169q84 -15 123 -25q25 -6 25 -37v-88h-496v88q0 32 33 39l115 23v1169q-99 18 -123 24q-25 6 -25 37v86h496v-86q0 -32 -33 -39zM217 1825q31 0 49 -6q15 -5 37 -27l217 -207h-143q-25 0 -33 2q-14 3 -31 15l-301 223h205z" />
<glyph unicode="&#xcd;" horiz-adv-x="675" d="M532 1341l-118 -22v-1169q92 -17 125 -25q24 -6 24 -37v-88h-493v88q0 33 28 39l119 23v1169q-99 18 -123 24t-24 37v86h493v-86q0 -33 -31 -39zM668 1825l-303 -223q-15 -10 -29 -17q-8 -4 -37 -4h-139l215 209q12 12 18 16q3 2 10.5 5.5t10.5 5.5q9 6 20 6q4 0 12 1 t15 1h207z" />
<glyph unicode="&#xce;" horiz-adv-x="686" d="M557 1341l-115 -22v-1169q84 -15 123 -25q25 -6 25 -37v-88h-496v88q0 32 33 39l115 23v1169q-99 18 -123 24q-25 6 -25 37v86h496v-86q0 -32 -33 -39zM678 1583l-137 -2q-13 0 -29 4q-18 4 -23 8l-133 99q-2 2 -6 4t-6 4q-8 -8 -12 -8l-133 -97q-10 -7 -23 -10 q-8 -2 -29 -2h-137l244 215h180z" />
<glyph unicode="&#xcf;" horiz-adv-x="681" d="M557 1341l-119 -22v-1169q92 -17 125 -25q25 -6 25 -37v-88h-494v88q0 33 29 39l119 23v1169q-99 18 -123 24q-25 6 -25 37v86h494v-86q0 -33 -31 -39zM238 1706l-5 -2q0 -27 -8 -43q-11 -22 -24 -35q-14 -14 -37 -24q-21 -9 -45 -9q-23 0 -41 9q-22 11 -35 24t-25 37 q-10 20 -10 41q0 22 10 45q9 21 25 37q13 13 35 24t43 11q19 0 45 -11q23 -10 37 -24t24 -37q11 -26 11 -43zM670 1704v-2q0 -21 -11 -43t-24 -35q-15 -15 -35 -25t-43 -10t-43 10t-35 25q-13 13 -24 35t-11 45q0 19 11 45q10 23 24 37q13 13 35 24q18 9 43 9t43 -9 q22 -11 35 -24q14 -14 24 -37q11 -26 11 -45z" />
<glyph unicode="&#xd0;" horiz-adv-x="1521" d="M1417 1032q53 -136 53 -299t-53 -299q-52 -133 -147 -233q-89 -93 -230 -148q-136 -53 -295 -53h-528h-147v88q0 13 9 24.5t23 14.5l115 23v532h-201v117h201v520q-97 16 -115 20q-14 3 -23 14.5t-9 24.5v88h147h528q159 0 295 -53q143 -55 230 -147q94 -99 147 -234z M1229 492q37 104 37 241q0 138 -37 242q-38 107 -105 180q-69 76 -163 111q-108 41 -216 41h-329v-508h391v-119h-391v-520h329q113 0 216 39q92 35 163 112q66 72 105 181z" />
<glyph unicode="&#xd1;" horiz-adv-x="1587" d="M1237 328v-4q-4 29 -4 102v889q-35 5 -66 10.5t-50 9.5t-21 4q-31 6 -31 37v90h168h172h149v-90q0 -31 -30 -37l-119 -24v-1317h-98q-44 0 -72 35l-850 1106q4 -35 4 -95v-897q63 -9 137 -24q31 -6 31 -37v-88h-487v88q0 31 28 37l119 24v1168q-103 19 -119 24 q-28 6 -28 39v88h249q25 0 37 -6q10 -5 31 -26zM961 1700v-2q36 0 55 22q20 23 20 58h99q0 -46 -11 -80q-12 -39 -32 -64q-23 -29 -54 -45q-28 -14 -73 -14q-33 0 -68 14q-15 6 -61 29l-58 29q-28 14 -51 14q-33 0 -53 -23q-19 -22 -19 -57h-102q0 44 12 82q13 40 33 63 q26 29 53 43q30 15 74 15q31 0 68 -15q25 -10 61 -28q11 -5 29.5 -15t25.5 -14q24 -12 52 -12z" />
<glyph unicode="&#xd2;" d="M1493 733l-2 -4q0 -167 -51 -301q-52 -138 -148 -238q-94 -98 -227 -153q-139 -57 -295 -57t-295 57q-137 56 -229 153q-96 100 -148 238q-53 139 -53 303t53 303q52 138 148 238t229 155q136 56 295 56t295 -56q137 -56 229 -153q96 -100 148 -238q51 -134 51 -303z M1288 729h-2q0 137 -37 244q-40 114 -102 182q-68 74 -164 113q-95 39 -217 39q-118 0 -213 -39q-96 -39 -164 -113q-69 -75 -106 -182t-37 -244q0 -135 37 -242q36 -104 106 -180q69 -75 164 -114q100 -41 215 -41t215 41q95 39 164 114q67 73 104 180t37 242zM606 1823 q25 0 49 -8q18 -6 37 -25l215 -209h-141q-19 0 -35 4t-31 14l-301 224h207z" />
<glyph unicode="&#xd3;" d="M1493 733l-2 -4q0 -167 -51 -301q-52 -138 -148 -238q-94 -98 -227 -153q-139 -57 -295 -57t-295 57q-137 56 -229 153q-96 100 -148 238q-53 139 -53 303t53 303q52 138 148 238t229 155q136 56 295 56t295 -56q137 -56 229 -153q96 -100 148 -238q51 -134 51 -303z M1288 729h-2q0 137 -37 244q-40 114 -102 182q-68 74 -164 113q-95 39 -217 39q-118 0 -213 -39q-96 -39 -164 -113q-69 -75 -106 -182t-37 -244q0 -135 37 -242q36 -104 106 -180q69 -75 164 -114q100 -41 215 -41t215 41q95 39 164 114q67 73 104 180t37 242zM1118 1823 l-301 -224q-3 -2 -31 -16q-8 -4 -34 -4h-142l217 207q10 10 19 16l18 13q6 4 21 4q3 0 12 2t16 2h205z" />
<glyph unicode="&#xd4;" d="M1493 733l-2 -4q0 -167 -51 -301q-52 -138 -148 -238q-94 -98 -227 -153q-139 -57 -295 -57t-295 57q-137 56 -229 153q-96 100 -148 238q-53 139 -53 303t53 303q52 138 148 238t229 155q136 56 295 56t295 -56q137 -56 229 -153q96 -100 148 -238q51 -134 51 -303z M1288 729h-2q0 137 -37 244q-40 114 -102 182q-68 74 -164 113q-95 39 -217 39q-118 0 -213 -39q-96 -39 -164 -113q-69 -75 -106 -182t-37 -244q0 -135 37 -242q36 -104 106 -180q69 -75 164 -114q100 -41 215 -41t215 41q95 39 164 114q67 73 104 180t37 242zM1102 1581 l-137 -2q-19 0 -27 2q-16 4 -25 10l-131 97q-2 2 -6 5t-6 5q-8 -8 -12 -8l-135 -97q-10 -7 -23 -10q-8 -2 -27 -2h-139l246 213h180z" />
<glyph unicode="&#xd5;" d="M1493 733l-2 -4q0 -167 -51 -301q-52 -138 -148 -238q-94 -98 -227 -153q-139 -57 -295 -57t-295 57q-137 56 -229 153q-96 100 -148 238q-53 139 -53 303t53 303q52 138 148 238t229 155q136 56 295 56t295 -56q137 -56 229 -153q96 -100 148 -238q51 -134 51 -303z M1288 729h-2q0 137 -37 244q-40 114 -102 182q-68 74 -164 113q-95 39 -217 39q-118 0 -213 -39q-96 -39 -164 -113q-69 -75 -106 -182t-37 -244q0 -135 37 -242q36 -104 106 -180q69 -75 164 -114q100 -41 215 -41t215 41q95 39 164 114q67 73 104 180t37 242zM893 1700v-2 q34 0 53 22q21 24 21 58h102q0 -42 -12 -80q-12 -37 -33 -64q-24 -30 -53 -45q-28 -14 -74 -14q-33 0 -68 14q-25 10 -63 29q-11 5 -29.5 15t-25.5 14q-28 14 -52 14q-33 0 -53 -23t-20 -57h-103q0 41 13 82q12 38 34 63q23 27 56 43q30 15 71 15q31 0 68 -15q25 -10 61 -28 q10 -5 29 -15t27 -14q24 -12 51 -12z" />
<glyph unicode="&#xd6;" d="M1493 733l-2 -4q0 -167 -51 -301q-52 -138 -148 -238q-94 -98 -227 -153q-139 -57 -295 -57t-295 57q-137 56 -229 153q-96 100 -148 238q-53 139 -53 303t53 303q52 138 148 238t229 155q136 56 295 56t295 -56q137 -56 229 -153q96 -100 148 -238q51 -134 51 -303z M1288 729h-2q0 137 -37 244q-40 114 -102 182q-68 74 -164 113q-95 39 -217 39q-118 0 -213 -39q-96 -39 -164 -113q-69 -75 -106 -182t-37 -244q0 -135 37 -242q36 -104 106 -180q69 -75 164 -114q100 -41 215 -41t215 41q95 39 164 114q67 73 104 180t37 242zM664 1704 l-2 -4q0 -19 -11 -41q-13 -26 -24 -37q-16 -16 -37 -25q-19 -8 -43 -8q-25 0 -41 8q-20 10 -35 25q-13 13 -25 37q-8 16 -8 43q0 26 8 45q9 21 25 37q11 11 37 24q22 11 41 11t45 -11q23 -10 37 -24t24 -37q9 -21 9 -43zM1098 1700q0 -29 -8 -45t-25 -33q-13 -13 -37 -25 q-20 -10 -43 -10t-43 10q-24 12 -37 25t-24 35q-9 18 -9 43q0 24 9 45q10 23 24 37q11 11 37 24q18 9 43 9t43 -9q26 -13 37 -24q16 -16 25 -37q8 -19 8 -45z" />
<glyph unicode="&#xd7;" horiz-adv-x="989" d="M946 1038l-352 -352l362 -362l-96 -99l-364 365l-365 -365l-98 99l364 364l-352 352l98 99l353 -355l352 353z" />
<glyph unicode="&#xd8;" d="M1493 733h-2q0 -164 -53 -303q-52 -136 -148 -237q-95 -100 -227 -154q-134 -55 -295 -55q-108 0 -207 24q-97 23 -178 74l-102 -139q-26 -33 -52 -43q-37 -15 -59 -15h-80l197 267q-119 101 -181 249q-61 146 -61 330q0 164 53 303q52 138 148 238q97 102 227 155 q136 56 295 56q120 0 221 -29q97 -28 187 -86l86 115q18 27 36 39t50 12h102l-176 -240q106 -99 162 -243q57 -145 57 -318zM246 733q0 -134 39 -246t108 -184l676 922q-61 43 -137 65q-74 21 -166 21q-113 0 -213 -41q-96 -39 -164 -113q-69 -75 -106 -182t-37 -242z M1286 733v-4q0 134 -33 234q-34 105 -94 176l-672 -914q110 -69 279 -69q120 0 215 39q98 40 164 112q66 71 104 182q37 107 37 244z" />
<glyph unicode="&#xd9;" horiz-adv-x="1533" d="M1352 1466h145v-88q0 -33 -31 -39l-118 -22v-744q0 -251 -156 -421q-159 -170 -426 -170q-269 0 -428 170q-158 169 -158 421v744q-92 17 -114 24q-33 7 -33 39v86h514v-86q0 -33 -31 -39q-36 -7 -137 -22v-741q0 -193 102 -304q104 -116 285 -116q183 0 287 116 q102 114 102 301v744q-100 15 -135 22q-33 7 -33 39v86h168h197zM600 1823q37 0 49 -4t37 -29l215 -207h-141q-27 0 -35 2q-6 1 -29 17l-303 221h207z" />
<glyph unicode="&#xda;" horiz-adv-x="1533" d="M1352 1466h145v-88q0 -33 -31 -39l-118 -22v-744q0 -251 -156 -421q-159 -170 -426 -170q-269 0 -428 170q-158 169 -158 421v744q-92 17 -114 24q-33 7 -33 39v86h514v-86q0 -33 -31 -39q-36 -7 -137 -22v-741q0 -193 102 -304q104 -116 285 -116q183 0 287 116 q102 114 102 301v744q-100 15 -135 22q-33 7 -33 39v86h168h197zM1114 1823l-303 -221q-15 -10 -29 -17q-8 -4 -37 -4h-139l215 209q10 10 19 16q3 2 10 4.5t10 4.5q12 8 21 8h26h207z" />
<glyph unicode="&#xdb;" horiz-adv-x="1533" d="M1352 1466h145v-88q0 -33 -31 -39l-118 -22v-744q0 -251 -156 -421q-159 -170 -426 -170q-269 0 -428 170q-158 169 -158 421v744q-92 17 -114 24q-33 7 -33 39v86h514v-86q0 -33 -31 -39q-36 -7 -137 -22v-741q0 -193 102 -304q104 -116 285 -116q183 0 287 116 q102 114 102 301v744q-100 15 -135 22q-33 7 -33 39v86h168h197zM1098 1581h-140q-8 0 -24 4q-21 5 -25 8l-133 99q-2 2 -6 4t-6 4q-8 -8 -12 -8l-134 -99q-5 -3 -24 -8q-16 -4 -25 -4h-139l244 217h180z" />
<glyph unicode="&#xdc;" horiz-adv-x="1533" d="M1352 1466h145v-88q0 -33 -31 -39l-118 -22v-744q0 -251 -156 -421q-159 -170 -426 -170q-269 0 -428 170q-158 169 -158 421v744q-92 17 -114 24q-33 7 -33 39v86h514v-86q0 -33 -31 -39q-36 -7 -137 -22v-741q0 -193 102 -304q104 -116 285 -116q183 0 287 116 q102 114 102 301v744q-100 15 -135 22q-33 7 -33 39v86h168h197zM659 1704h-4q0 -29 -8 -45q-9 -18 -24 -33q-14 -14 -37 -24q-26 -11 -45 -11t-41 11q-18 9 -33 24t-25 35t-10 43q0 22 10 45q9 21 25 37q13 13 35 24q18 9 43 9q24 0 45 -9q23 -10 37 -24t24 -37 q8 -19 8 -45zM1094 1704v-4q0 -19 -11 -41q-13 -26 -24 -37q-15 -15 -35 -25q-16 -8 -45 -8q-25 0 -41 8q-24 12 -37 25q-11 11 -24 37q-9 18 -9 43q0 24 9 45q10 23 24 37q11 11 37 24q22 11 41 11q23 0 45 -11t35 -24q14 -14 24 -37q11 -26 11 -43z" />
<glyph unicode="&#xdd;" horiz-adv-x="1433" d="M905 1466h492v-90q0 -31 -25 -37q-7 -2 -21 -5t-39.5 -9t-45.5 -10l-449 -733v-435q50 -13 117 -24q31 -6 31 -37v-88h-148h-199h-147v88q0 30 33 37l114 24v435l-446 733q-80 20 -102 24q-29 6 -29 39v88h491v-88q0 -33 -30 -39q-110 -22 -117 -22l274 -467 q45 -84 60 -129q23 68 59 131l275 467q-9 0 -119 22q-29 6 -29 39v86zM1067 1823l-301 -221q-9 -6 -31 -17q-8 -4 -35 -4h-141l215 207q6 6 21 16q3 2 9 5.5t9 5.5q9 6 21 6q4 0 12 1t14 1h207z" />
<glyph unicode="&#xde;" horiz-adv-x="1136" d="M307 279v-279h-198v1466h198v-270h234q135 0 243 -31q101 -29 170 -92q72 -65 103 -143q33 -82 33 -189q0 -108 -35 -188q-36 -82 -105 -145t-172 -97q-97 -32 -233 -32h-238zM307 436h234q85 0 147 23q72 27 111 63q43 40 67 96q23 53 23 125q0 140 -86 220 q-83 77 -262 77h-234v-604z" />
<glyph unicode="&#xdf;" horiz-adv-x="1110" d="M596 1489l-10 -10q110 0 184 -29q81 -32 127 -78q50 -50 74 -106q24 -55 24 -107q0 -65 -20 -106q-19 -38 -53 -78q-27 -31 -72 -60q-41 -26 -72 -51q-34 -27 -53 -49q-20 -23 -20 -57q0 -45 26 -68q34 -30 68 -49q50 -28 90 -47q49 -24 90 -59q40 -34 68 -89 q26 -51 26 -131q0 -84 -29 -143q-33 -67 -77 -106t-121 -66q-65 -23 -150 -23q-108 0 -182 35q-82 39 -141 92l41 70q9 17 20 23q12 6 29 6q19 0 41 -15q5 -4 21 -14t26 -16q28 -18 67 -31q44 -14 91 -14q38 0 82 14q32 10 59 37q28 28 39 55q12 30 12 72q0 54 -29 90 q-33 41 -69 61q-79 44 -94 50q-55 23 -95 51q-38 26 -69 71q-29 42 -29 111q0 55 23 94q30 50 57 74q58 50 74 61q27 18 73 58q34 30 58 67q22 34 22 86q0 33 -12 68q-13 36 -41 59q-35 28 -74 43q-44 17 -110 17q-72 0 -127 -21q-56 -21 -97 -65q-40 -43 -61 -107 q-22 -68 -22 -151v-1008h-183v1016q0 112 35 192q43 98 102 152q64 59 158 94q93 35 205 35z" />
<glyph unicode="&#xe0;" horiz-adv-x="1044" d="M94 893v-2q172 166 332 166q162 0 227 -29q62 -27 113 -82q94 -108 94 -282v-517q29 -5 55 -10t41 -8t19 -4q18 -3 18 -35v-88h-213q-57 0 -63 43l-21 96q-175 -155 -299 -155q-123 0 -176 18q-62 21 -92 49q-84 72 -84 172q0 103 33 156q37 60 108 102q176 101 496 101 v80q0 247 -205 247q-115 0 -194 -55t-99 -55q-40 0 -90 92zM217 268q0 -157 168 -157t295 139v215q-463 0 -463 -197zM387 1483q31 0 51 -13q19 -13 29 -32l154 -248h-105q-23 0 -35 6q-15 8 -26 21l-242 266h174z" />
<glyph unicode="&#xe1;" horiz-adv-x="1044" d="M94 893v-2q172 166 332 166q162 0 227 -29q62 -27 113 -82q94 -108 94 -282v-517q29 -5 55 -10t41 -8t19 -4q18 -3 18 -35v-88h-213q-57 0 -63 43l-21 96q-175 -155 -299 -155q-123 0 -176 18q-62 21 -92 49q-84 72 -84 172q0 103 33 156q37 60 108 102q176 101 496 101 v80q0 247 -205 247q-115 0 -194 -55t-99 -55q-40 0 -90 92zM217 268q0 -157 168 -157t295 139v215q-463 0 -463 -197zM786 1483l-237 -266q-9 -11 -29 -21q-16 -8 -35 -8h-108l151 250q8 17 31 32q19 13 49 13h178z" />
<glyph unicode="&#xe2;" horiz-adv-x="1042" d="M94 893v-2q172 166 332 166q162 0 227 -29q62 -27 113 -82q94 -108 94 -282v-517q29 -5 55 -10t41 -8t19 -4q18 -3 18 -35v-88h-213q-57 0 -63 43l-21 96q-175 -155 -299 -155q-123 0 -176 18q-62 21 -92 49q-84 72 -84 172q0 103 33 156q37 60 108 102q176 101 496 101 v80q0 247 -205 247q-115 0 -194 -55t-99 -55q-40 0 -90 92zM217 268q0 -157 168 -157t295 139v215q-463 0 -463 -197zM803 1196l-123 -2q-20 0 -41 14l-131 129l-16 19l-17 -19l-133 -129q-2 -2 -8.5 -4t-9.5 -4q-8 -4 -23 -4h-125l227 270h170z" />
<glyph unicode="&#xe3;" horiz-adv-x="1044" d="M94 893v-2q172 166 332 166q162 0 227 -29q62 -27 113 -82q94 -108 94 -282v-517q29 -5 55 -10t41 -8t19 -4q18 -3 18 -35v-88h-213q-57 0 -63 43l-21 96q-175 -155 -299 -155q-123 0 -176 18q-62 21 -92 49q-84 72 -84 172q0 103 33 156q37 60 108 102q176 101 496 101 v80q0 247 -205 247q-115 0 -194 -55t-99 -55q-40 0 -90 92zM217 268q0 -157 168 -157t295 139v215q-463 0 -463 -197zM602 1356v-4q40 0 57 20q21 24 21 68h111q0 -44 -13 -88q-11 -38 -37 -70q-22 -28 -57 -43q-32 -14 -76 -14q-39 0 -67 14q-34 17 -58 33 q-11 7 -31.5 19.5t-21.5 13.5q-22 14 -47 14q-76 0 -76 -90h-114q0 43 14 90q10 34 39 70q25 31 57 45q37 16 74 16q33 0 65 -16q42 -21 60 -33q10 -7 28 -17.5t23 -13.5q22 -14 49 -14z" />
<glyph unicode="&#xe4;" horiz-adv-x="1042" d="M94 893v-2q172 166 332 166q162 0 227 -29q62 -27 113 -82q94 -108 94 -282v-517q29 -5 55 -10t41 -8t19 -4q18 -3 18 -35v-88h-213q-57 0 -63 43l-21 96q-175 -155 -299 -155q-123 0 -176 18q-62 21 -92 49q-84 72 -84 172q0 103 33 156q37 60 108 102q176 101 496 101 v80q0 247 -205 247q-115 0 -194 -55t-99 -55q-40 0 -90 92zM217 268q0 -157 168 -157t295 139v215q-463 0 -463 -197zM420 1319h-2q0 -29 -8 -45q-12 -24 -25 -35q-20 -17 -39 -25q-23 -10 -43 -10q-25 0 -45 10t-35 25q-13 13 -24 35t-11 45q0 19 11 45q10 23 24 37 q13 13 35 24q18 9 45 9q24 0 45 -9q17 -7 37 -24q14 -12 25 -37q10 -23 10 -45zM786 1319h-2q0 -25 -10 -45q-11 -22 -24 -35q-16 -16 -37 -25q-23 -10 -43 -10t-43 10q-21 9 -37 25q-15 15 -25 35t-10 45q0 22 10 45q9 21 25 37q14 14 37 24q21 9 45 9t45 -9q23 -10 37 -24 t24 -37q8 -19 8 -45z" />
<glyph unicode="&#xe5;" horiz-adv-x="1042" d="M94 893v-2q172 166 332 166q162 0 227 -29q62 -27 113 -82q94 -108 94 -282v-517q29 -5 55 -10t41 -8t19 -4q18 -3 18 -35v-88h-213q-57 0 -63 43l-21 96q-175 -155 -299 -155q-123 0 -176 18q-62 21 -92 49q-84 72 -84 172q0 103 33 156q37 60 108 102q176 101 496 101 v80q0 247 -205 247q-115 0 -194 -55t-99 -55q-40 0 -90 92zM217 268q0 -157 168 -157t295 139v215q-463 0 -463 -197zM285 1343l-2 -2q0 45 16 78q18 38 45 62q31 28 66 39q50 16 77 16q34 0 78 -14q29 -9 66 -39q28 -22 47 -62q16 -33 16 -78q0 -44 -16 -77 q-17 -36 -47 -60q-37 -30 -66 -39q-38 -12 -78 -12q-33 0 -77 14q-35 11 -66 39q-25 22 -43 60q-16 33 -16 75zM385 1341q0 -41 29 -73q26 -29 73 -29q48 0 74 29q29 32 29 73q0 44 -29 76q-26 29 -74 29q-47 0 -73 -29q-29 -32 -29 -76z" />
<glyph unicode="&#xe6;" horiz-adv-x="1591" d="M1147 1053l-4 -4q74 0 155 -33q66 -27 125 -96q54 -63 84 -152q29 -86 29 -203q0 -37 -8 -57q-6 -16 -33 -16h-643q6 -99 29 -162q26 -72 63 -115q39 -45 92 -68q56 -24 121 -24q64 0 117 16q51 15 80 33q32 19 51 35q17 14 37 14q18 0 24 -4q9 -6 15 -12l47 -62 q-30 -38 -78 -71q-55 -38 -94 -52q-54 -20 -105 -28q-49 -8 -108 -8q-121 0 -217 57q-99 59 -156 178q-30 -68 -70 -108q-46 -46 -98 -74q-54 -29 -115 -41t-122 -12q-62 0 -127 20t-103 53q-42 36 -65 90q-23 53 -23 127q0 59 35 121q33 58 108 109q70 47 197 78 q105 26 297 32v54q0 121 -51 184q-54 66 -154 66q-56 0 -110 -21q-49 -19 -82 -39q-32 -19 -58 -39q-27 -20 -47 -20q-17 0 -30 10q-19 14 -23 22l-33 60q82 80 178 125q86 41 209 41t197 -53q72 -52 108 -146q53 88 146 143q88 52 213 52zM680 492q-124 -6 -215 -25 q-98 -21 -143 -45q-58 -31 -80 -66q-25 -39 -25 -82q0 -84 51 -129q47 -41 133 -41q59 0 111 19q49 18 88 57q38 38 59 94q21 55 21 132v86zM1135 913h-5q-63 0 -110 -20q-44 -19 -84 -62q-30 -33 -55 -98q-24 -62 -29 -129h520q0 64 -16 123q-15 54 -45 98q-25 36 -76 64 q-44 24 -100 24z" />
<glyph unicode="&#xe7;" horiz-adv-x="925" d="M836 213l51 -70q-114 -137 -334 -155l-18 -62q93 -18 133 -53q43 -37 43 -82q0 -47 -17 -70q-23 -31 -47 -45q-59 -36 -160 -36q-72 0 -147 32l16 56q6 18 25 18q2 0 14 -4q1 0 7.5 -2t11.5 -4q30 -12 69 -12q41 0 62 18q20 17 20 39q0 27 -10 37q-13 13 -31 22 q-38 15 -123 27l37 125q-155 17 -260 135q-133 148 -133 393q0 236 127 381q131 152 363 152q118 0 307 -76v-268h-82q-29 0 -35 28q-2 7 -8 78q-4 45 -4 68q-12 3 -28.5 7t-27 6.5t-18.5 4.5q-41 8 -119 8q-52 0 -112 -26q-54 -23 -97 -76q-78 -103 -78 -287 q0 -183 82 -291q80 -102 220 -102q127 0 227 86q16 16 41 16q22 0 33 -16z" />
<glyph unicode="&#xe8;" horiz-adv-x="1003" d="M528 1053h-4q90 0 172 -31q80 -30 135 -88q63 -67 91 -146q32 -91 32 -196q0 -44 -10 -57q-11 -15 -35 -15h-690q0 -89 27 -172q22 -68 67 -119q44 -50 103 -73q64 -25 133 -25q73 0 119 14q35 11 86 35q27 13 59 33q26 16 43 16q21 0 33 -18l53 -68q-29 -37 -82 -69 q-64 -39 -102 -51q-68 -22 -111 -29q-62 -10 -112 -10q-111 0 -199 36q-85 35 -156 109q-64 66 -102 174q-37 104 -37 238q0 112 33 200q36 96 98 164q64 70 152 109t204 39zM528 918v2q-133 0 -206 -76q-77 -80 -95 -213h564q0 64 -17 114q-21 60 -51 93q-35 38 -84 59 t-111 21zM426 1483q39 0 51 -8q20 -13 31 -35l151 -248h-102q-25 0 -37 6q-13 6 -26 23l-240 262h172z" />
<glyph unicode="&#xe9;" horiz-adv-x="1003" d="M528 1053h-4q90 0 172 -31q80 -30 135 -88q63 -67 91 -146q32 -91 32 -196q0 -44 -10 -57q-11 -15 -35 -15h-690q0 -89 27 -172q22 -68 67 -119q44 -50 103 -73q64 -25 133 -25q73 0 119 14q35 11 86 35q27 13 59 33q26 16 43 16q21 0 33 -18l53 -68q-29 -37 -82 -69 q-64 -39 -102 -51q-68 -22 -111 -29q-62 -10 -112 -10q-111 0 -199 36q-85 35 -156 109q-64 66 -102 174q-37 104 -37 238q0 112 33 200q36 96 98 164q64 70 152 109t204 39zM528 918v2q-133 0 -206 -76q-77 -80 -95 -213h564q0 64 -17 114q-21 60 -51 93q-35 38 -84 59 t-111 21zM827 1483l-239 -264q-13 -16 -27 -23q-8 -4 -37 -4h-106l151 246q12 24 29 35q15 10 49 10h180z" />
<glyph unicode="&#xea;" horiz-adv-x="1001" d="M526 1053h-2q90 0 172 -31q80 -30 135 -88q60 -63 89 -146q32 -91 32 -196q0 -44 -10 -57q-11 -15 -33 -15h-692q0 -83 29 -172q23 -72 65 -119q44 -50 103 -73q64 -25 135 -25q73 0 119 14q30 9 84 35q27 13 59 33q26 16 43 16q23 0 35 -18l51 -68q-31 -40 -80 -69 q-64 -39 -102 -51q-68 -22 -111 -29q-62 -10 -115 -10q-108 0 -196 36q-85 35 -156 109q-64 66 -102 174q-37 104 -37 238q0 112 33 200q38 100 96 164q62 68 154 109q88 39 202 39zM528 918v2q-136 0 -209 -76q-76 -79 -94 -213h566q0 64 -17 114q-19 56 -53 93 q-37 40 -82 59q-49 21 -111 21zM840 1196h-121q-20 0 -41 14l-131 129l-19 17l-16 -17l-131 -129q-4 -4 -16 -10q-8 -4 -25 -4h-127l229 270h170z" />
<glyph unicode="&#xeb;" horiz-adv-x="1001" d="M526 1053h-2q90 0 172 -31q80 -30 135 -88q60 -63 89 -146q32 -91 32 -196q0 -44 -10 -57q-11 -15 -33 -15h-692q0 -83 29 -172q23 -72 65 -119q44 -50 103 -73q64 -25 135 -25q73 0 119 14q30 9 84 35q27 13 59 33q26 16 43 16q23 0 35 -18l51 -68q-31 -40 -80 -69 q-64 -39 -102 -51q-68 -22 -111 -29q-62 -10 -115 -10q-108 0 -196 36q-85 35 -156 109q-64 66 -102 174q-37 104 -37 238q0 112 33 200q38 100 96 164q62 68 154 109q88 39 202 39zM528 918v2q-136 0 -209 -76q-76 -79 -94 -213h566q0 64 -17 114q-19 56 -53 93 q-37 40 -82 59q-49 21 -111 21zM459 1319q0 -21 -10 -41q-12 -25 -27 -37q-20 -17 -37 -24q-21 -9 -45 -9q-23 0 -41 9q-26 13 -37 24t-24 37q-9 18 -9 41q0 24 9 45q10 23 24 37q11 11 37 24q22 11 41 11t45 -11q21 -9 39 -24q17 -14 27 -37q8 -19 8 -45zM825 1319h-2 q0 -25 -8 -41q-13 -26 -24 -37q-14 -14 -37 -24q-21 -9 -45 -9t-45 9q-23 10 -37 24q-13 13 -25 37q-8 16 -8 41q0 26 8 45q9 21 25 37q14 14 37 24q26 11 45 11t45 -11q23 -10 37 -24t24 -37t10 -45z" />
<glyph unicode="&#xec;" horiz-adv-x="595" d="M340 1192q-23 0 -35 6.5t-26 22.5l-240 262h174q33 0 49 -10t31 -35l153 -246h-106zM516 127q13 -3 22 -14t9 -25v-88h-477v88q0 14 8.5 25t21.5 14l117 23v739q-99 18 -117 22q-13 3 -21.5 14t-8.5 25v86h147h180v-886q101 -19 119 -23z" />
<glyph unicode="&#xed;" horiz-adv-x="624" d="M369 1221q-26 -29 -64 -29h-108l151 246q15 24 32.5 34.5t49.5 10.5h176zM512 127q13 -3 22 -14t9 -25v-88h-477v88q0 14 8.5 25t21.5 14l117 23v739q-99 18 -117 22q-13 3 -21.5 14t-8.5 25v86h147h180v-886q101 -19 119 -23z" />
<glyph unicode="&#xee;" horiz-adv-x="651" d="M182 1212q-16 -16 -41 -16h-125l228 270h170l229 -270h-123q-17 0 -41 16q-24 24 -73 72.5t-74 73.5q-24 -24 -74.5 -72.5t-75.5 -73.5zM532 127q13 -3 22 -14t9 -25v-88h-477v88q0 14 9 25t22 14l116 23v739q-98 18 -116 22q-13 3 -22 14t-9 25v86h147h181v-886 q100 -19 118 -23z" />
<glyph unicode="&#xef;" horiz-adv-x="657" d="M623 1364q10 -23 10 -45q0 -21 -10 -41q-12 -24 -25 -37q-14 -14 -37 -24q-21 -9 -45 -9t-45 9q-23 10 -37 24q-11 11 -24 37q-9 18 -9 41q0 24 9 45q10 23 24 37t37 24q26 11 45 11t45 -11q23 -10 37 -24q16 -16 25 -37zM147 1206q-19 0 -41 11q-24 12 -36 24 q-15 15 -25 35q-8 16 -8 43q0 26 8 45q9 21 25 37q12 12 36 24q18 9 41 9q25 0 46 -9q15 -6 36 -24q17 -14 27 -37t10 -45q0 -23 -10 -43q-11 -21 -27 -35q-21 -18 -36 -24q-26 -11 -46 -11zM537 127q13 -3 21.5 -14t8.5 -25v-88h-477v88q0 14 9 25t22 14l117 23v739 q-99 18 -117 22q-13 3 -22 14t-9 25v86h148h180v-886q101 -19 119 -23z" />
<glyph unicode="&#xf0;" horiz-adv-x="1067" d="M391 1090l2 4q-4 4 -8 12t-4 12q0 23 25 39l106 74q-77 30 -98 37q-52 18 -111 30q-21 7 -33 19t-12 37q0 18 6 30l21 62q118 -22 190 -45q87 -28 176 -82l170 127l35 -60q8 -16 8 -24q0 -24 -20 -39l-101 -68q65 -52 113 -112q44 -54 86 -144q36 -76 55 -176 q21 -110 21 -205q0 -143 -31 -264q-28 -111 -96 -198q-63 -82 -158 -127q-90 -43 -215 -43q-102 0 -186 34q-87 35 -152 97q-64 61 -102 153q-37 90 -37 205q0 90 33 184q31 88 90 150q63 66 145 102q89 39 191 39q97 0 192 -45q89 -42 158 -133q-17 135 -80 236 q-61 98 -156 163l-188 -139zM524 131l-4 -2q72 0 131 27q58 27 103 84q36 47 63 141q24 86 27 197q-13 32 -43 86q-22 39 -64 73q-49 39 -90 54q-44 16 -115 16q-74 0 -135 -25q-53 -22 -94 -69q-42 -49 -59 -107q-19 -65 -19 -131q0 -85 23 -147q26 -70 63 -107 q48 -48 97 -69t116 -21z" />
<glyph unicode="&#xf1;" horiz-adv-x="1273" d="M385 887v2q153 166 344 166q168 0 258 -109q90 -111 90 -284v-510q88 -16 115 -25q33 -7 33 -39v-88h-332v659q0 250 -217 250q-151 0 -281 -145v-614q1 0 117 -25q33 -7 33 -39v-86h-479v86q0 33 30 39l117 22v740q-99 18 -117 24q-30 6 -30 39v86h147h109q37 0 49 -37z M756 1358l-2 -2q40 0 57 20q23 27 23 66h110q0 -46 -12 -86q-11 -38 -37 -70q-24 -30 -59 -45q-32 -14 -74 -14q-38 0 -66 14q-38 19 -59 33q-27 18 -51 33q-26 16 -49 16q-76 0 -76 -90h-113q0 49 12 90q11 38 37 70q23 29 60 45q32 14 73 14q40 0 68 -14q30 -15 57 -33 q10 -7 29.5 -18.5t24.5 -14.5q22 -14 47 -14z" />
<glyph unicode="&#xf2;" horiz-adv-x="1077" d="M539 1053q116 0 206 -37q88 -36 156 -107q62 -65 98 -168q33 -95 33 -221t-33 -221q-36 -103 -98 -168q-66 -69 -156 -106t-206 -37q-117 0 -207 37t-156 106q-57 60 -98 168q-37 98 -37 221t37 221q41 108 98 168q68 71 156 107q90 37 207 37zM539 127q158 0 229 102 q76 109 76 289t-76 289q-71 102 -229 102q-81 0 -136 -24t-96 -78q-40 -52 -57 -123q-17 -69 -17 -168q0 -95 17 -164q17 -71 57 -123q35 -47 96 -73q67 -29 136 -29zM438 1483q34 0 49 -10q23 -15 33 -35l152 -246h-105q-27 0 -35 4q-16 8 -28 23l-238 264h172z" />
<glyph unicode="&#xf3;" horiz-adv-x="1077" d="M541 1053q114 0 204 -37q88 -36 156 -107q62 -65 98 -168q35 -100 35 -221t-35 -221q-36 -103 -98 -168q-66 -69 -156 -106t-204 -37q-117 0 -207 37q-93 38 -158 106q-57 60 -98 168q-35 92 -35 221t35 221q41 108 98 168q66 69 158 107q90 37 207 37zM541 127 q158 0 229 102q74 106 74 289t-74 289q-71 102 -229 102q-79 0 -135 -24t-97 -78q-40 -52 -57 -123q-19 -78 -19 -168q0 -86 19 -164q17 -71 57 -123q35 -46 97 -73q67 -29 135 -29zM840 1483l-240 -266q-10 -12 -27 -21q-12 -6 -36 -6h-107l152 248q10 20 28 32 q19 13 49 13h181z" />
<glyph unicode="&#xf4;" horiz-adv-x="1077" d="M539 1053q116 0 206 -37q88 -36 156 -107q62 -65 98 -168q33 -95 33 -221t-33 -221q-36 -103 -98 -168q-66 -69 -156 -106t-206 -37q-117 0 -207 37t-156 106q-57 60 -98 168q-37 98 -37 221t37 221q41 108 98 168q68 71 156 107q90 37 207 37zM539 127q158 0 229 102 q76 109 76 289t-76 289q-71 102 -229 102q-81 0 -136 -24t-96 -78q-40 -52 -57 -123q-17 -69 -17 -168q0 -95 17 -164q17 -71 57 -123q35 -47 96 -73q67 -29 136 -29zM852 1196h-121q-23 0 -41 12l-131 131l-18 17l-17 -17l-131 -131l-16 -8q-8 -4 -25 -4h-127l230 270h170z " />
<glyph unicode="&#xf5;" horiz-adv-x="1077" d="M539 1053q116 0 206 -37q88 -36 156 -107q62 -65 98 -168q33 -95 33 -221t-33 -221q-36 -103 -98 -168q-66 -69 -156 -106t-206 -37q-117 0 -207 37t-156 106q-57 60 -98 168q-37 98 -37 221t37 221q41 108 98 168q68 71 156 107q90 37 207 37zM539 127q158 0 229 102 q76 109 76 289t-76 289q-71 102 -229 102q-81 0 -136 -24t-96 -78q-40 -52 -57 -123q-17 -69 -17 -168q0 -95 17 -164q17 -71 57 -123q35 -47 96 -73q67 -29 136 -29zM653 1356l-2 -4q39 0 58 22q22 26 22 68h111q0 -46 -13 -90q-11 -37 -36 -68q-21 -26 -60 -43 q-37 -16 -74 -16q-33 0 -65 16q-38 19 -59 33q-12 8 -52 33q-22 14 -49 14q-76 0 -76 -90h-112q0 47 12 88q11 38 37 70q24 30 59 45q37 16 74 16q36 0 68 -16q42 -21 57 -31q10 -7 28.5 -17t24.5 -14q26 -16 47 -16z" />
<glyph unicode="&#xf6;" horiz-adv-x="1077" d="M539 1053q116 0 206 -37q88 -36 156 -107q62 -65 98 -168q33 -95 33 -221t-33 -221q-36 -103 -98 -168q-66 -69 -156 -106t-206 -37q-117 0 -207 37t-156 106q-57 60 -98 168q-37 98 -37 221t37 221q41 108 98 168q68 71 156 107q90 37 207 37zM539 127q158 0 229 102 q76 109 76 289t-76 289q-71 102 -229 102q-81 0 -136 -24t-96 -78q-40 -52 -57 -123q-17 -69 -17 -168q0 -95 17 -164q17 -71 57 -123q35 -47 96 -73q67 -29 136 -29zM471 1319q0 -23 -10 -43q-11 -21 -27 -35q-20 -17 -37 -24q-26 -11 -45 -11t-41 11q-26 13 -37 24 q-13 13 -24 35q-8 16 -8 43q0 26 8 45q10 23 24 37q11 11 37 24q18 9 41 9q24 0 45 -9t39 -24q17 -14 27 -37q8 -19 8 -45zM838 1319h-2q0 -25 -9 -43q-11 -22 -24 -35q-14 -14 -37 -24q-26 -11 -45 -11t-45 11q-23 10 -37 24q-15 15 -25 35q-8 16 -8 43q0 26 8 45 q9 21 25 37q14 14 37 24q21 9 45 9t45 -9q23 -10 37 -24t24 -37q11 -26 11 -45z" />
<glyph unicode="&#xf7;" horiz-adv-x="1062" d="M39 758h981v-140h-981v140zM401 1051v-2q0 25 9 49t26 41t39 28q18 9 53 9q32 0 50 -9q20 -10 38 -28q13 -13 27 -41q12 -24 12 -49q0 -26 -12 -50q-14 -28 -27 -41q-16 -16 -38 -24q-27 -10 -50 -10q-24 0 -51 10q-24 9 -39 24q-20 20 -28 41q-9 24 -9 52zM401 319h-2 q0 21 11 50q10 27 24 41q11 11 41 26q20 10 51 10q29 0 49 -10q26 -13 39 -26q17 -17 29 -41q10 -20 10 -50q0 -29 -10 -49q-12 -24 -29 -41q-18 -18 -39 -26q-27 -10 -49 -10q-24 0 -51 10q-21 8 -39 26q-17 17 -26 41t-9 49z" />
<glyph unicode="&#xf8;" horiz-adv-x="1101" d="M909 905v-2q67 -73 99 -166q32 -92 32 -221t-32 -221q-35 -101 -99 -168q-67 -70 -157 -107q-88 -36 -207 -36q-77 0 -144 18q-62 16 -122 49l-58 -76q-23 -29 -53 -41t-59 -12h-68l147 201q-63 66 -102 168q-37 98 -37 229q0 127 35 219q40 105 100 168q71 74 156 109 q90 37 205 37q72 0 151 -21q80 -21 127 -53l70 92q17 26 37 39q18 12 49 12h90zM229 516q0 -167 60 -264l446 604q-75 57 -188 57q-73 0 -137 -28q-58 -25 -101 -78q-41 -50 -59 -125q-21 -86 -21 -166zM547 121l2 -2q74 0 135 28q55 25 98 78q42 51 60 125q20 82 20 166 q0 159 -53 254l-444 -600q73 -49 182 -49z" />
<glyph unicode="&#xf9;" horiz-adv-x="1239" d="M575 129l3 -2q150 0 278 143v615q-20 7 -115 24q-32 6 -32 39v88h147h184v-889q95 -17 115 -24q33 -7 33 -37v-88h-258q-37 0 -49 39l-13 110q-146 -165 -344 -165q-168 0 -260 108q-88 108 -88 285v512q-99 18 -117 24q-30 6 -30 39v86h329v-659q0 -119 56 -184 q55 -64 161 -64zM514 1483q32 0 51 -13t29 -32l154 -248h-105q-23 0 -35 6q-15 8 -26 21l-242 266h174z" />
<glyph unicode="&#xfa;" horiz-adv-x="1236" d="M575 129l3 -2q150 0 278 143v615q-20 7 -115 24q-32 6 -32 39v88h147h184v-889q95 -17 115 -24q33 -7 33 -37v-88h-258q-37 0 -49 39l-13 110q-146 -165 -344 -165q-168 0 -260 108q-88 108 -88 285v512q-99 18 -117 24q-30 6 -30 39v86h329v-659q0 -119 56 -184 q55 -64 161 -64zM913 1483l-237 -266q-9 -11 -29 -21q-16 -8 -35 -8h-108l151 250q9 17 31 32q19 13 49 13h178z" />
<glyph unicode="&#xfb;" horiz-adv-x="1236" d="M575 129l3 -2q150 0 278 143v615q-20 7 -115 24q-32 6 -32 39v88h147h184v-889q95 -17 115 -24q33 -7 33 -37v-88h-258q-37 0 -49 39l-13 110q-146 -165 -344 -165q-168 0 -260 108q-88 108 -88 285v512q-99 18 -117 24q-30 6 -30 39v86h329v-659q0 -119 56 -184 q55 -64 161 -64zM930 1196l-123 -2q-20 0 -41 14l-131 129l-17 19l-16 -19l-133 -129q-2 -2 -8.5 -4t-9.5 -4q-8 -4 -23 -4h-125l227 270h170z" />
<glyph unicode="&#xfc;" horiz-adv-x="1236" d="M575 129l3 -2q150 0 278 143v615q-20 7 -115 24q-32 6 -32 39v88h147h184v-889q95 -17 115 -24q33 -7 33 -37v-88h-258q-37 0 -49 39l-13 110q-146 -165 -344 -165q-168 0 -260 108q-88 108 -88 285v512q-99 18 -117 24q-30 6 -30 39v86h329v-659q0 -119 56 -184 q55 -64 161 -64zM547 1319h-2q0 -29 -8 -45q-12 -24 -25 -35q-20 -17 -39 -25q-23 -10 -43 -10q-25 0 -45 10t-35 25q-13 13 -24 35t-11 45q0 19 11 45q10 23 24 37q13 13 35 24q18 9 45 9q24 0 45 -9q17 -7 37 -24q14 -12 25 -37q10 -23 10 -45zM913 1319h-2q0 -25 -10 -45 q-11 -22 -24 -35q-16 -16 -37 -25q-23 -10 -43 -10t-43 10q-21 9 -37 25q-15 15 -25 35t-10 45q0 22 10 45q9 21 25 37q14 14 37 24q21 9 45 9t45 -9q23 -10 37 -24t24 -37q8 -19 8 -45z" />
<glyph unicode="&#xfd;" horiz-adv-x="1216" d="M1106 1036l74 2v-88q0 -30 -33 -37q-3 0 -9.5 -1.5t-19 -5t-24.5 -5.5q-48 -10 -54 -10l-514 -1196q-19 -45 -63 -45h-135l188 411l-364 832q-69 11 -95 20q-28 6 -28 37v88h463v-88q0 -31 -29 -37q-20 -7 -115 -24l230 -541q13 -30 28 -94q18 61 31 94l223 541 q-24 5 -46.5 9.5t-40.5 8t-23 4.5q-29 6 -29 39v86h385zM918 1485l-240 -264q-13 -16 -27 -23q-12 -6 -37 -6h-106l151 248q12 24 29 35q15 10 49 10h181z" />
<glyph unicode="&#xfe;" horiz-adv-x="1071" d="M111 -352v1857h184v-620q69 79 147 121q86 47 193 47q85 0 160 -35q76 -36 123 -100q53 -72 79 -168q27 -99 27 -226q0 -117 -29 -213q-27 -88 -90 -172q-51 -68 -139 -114q-78 -41 -188 -41q-99 0 -164 36q-67 37 -119 101v-473h-184zM573 905v2q-91 0 -155 -41 q-69 -44 -123 -116v-502q51 -70 111 -96q62 -27 133 -27q144 0 223 104q78 103 78 295q0 86 -21 172q-18 75 -51 119q-37 50 -84 70t-111 20z" />
<glyph unicode="&#xff;" horiz-adv-x="1216" d="M1106 1036l74 2v-88q0 -30 -33 -37q-3 0 -9.5 -1.5t-19 -5t-24.5 -5.5q-48 -10 -54 -10l-514 -1196q-19 -45 -63 -45h-135l188 411l-364 832q-69 11 -95 20q-28 6 -28 37v88h463v-88q0 -31 -29 -37q-20 -7 -115 -24l230 -541q13 -30 28 -94q18 61 31 94l223 541 q-24 5 -46.5 9.5t-40.5 8t-23 4.5q-29 6 -29 39v86h385zM549 1321q0 -27 -8 -43q-12 -25 -27 -37q-18 -15 -39 -24t-43 -9q-25 0 -43 9q-26 13 -37 24t-24 37q-9 18 -9 43q0 24 9 45q10 23 24 37q11 11 37 24q22 11 43 11q19 0 45 -11q21 -9 39 -24q14 -12 25 -37 q8 -19 8 -45zM918 1321h-5q0 -27 -8 -43q-13 -26 -24 -37q-14 -14 -37 -24q-21 -9 -45 -9q-22 0 -43 9q-23 10 -37 24q-13 13 -25 37q-10 20 -10 43q0 22 10 45q9 21 25 37q14 14 37 24q26 11 45 11t45 -11q23 -10 37 -24t24 -37q11 -26 11 -45z" />
<glyph unicode="&#x104;" horiz-adv-x="1581" d="M1526 -229l26 -66q-32 -25 -77 -39q-46 -14 -99 -14q-92 0 -143 39q-53 41 -53 108q0 58 41 111q41 52 102 90h-106h-107v82q0 14 10 24q6 6 19 9l84 24l-88 230l-27 65h-633l-55 -143l-60 -152l84 -24q13 -3 19 -9q12 -12 12 -26v-80h-110h-107h-16h-82h-56h-51v80 q0 16 10 26q6 6 15 9l82 24l532 1327h201l532 -1327l82 -24q9 -3 15 -9q10 -10 10 -26v-80h-53h-37q-6 -4 -41 -29q-25 -17 -41 -34q-11 -11 -27 -43q-10 -20 -10 -54q0 -37 25 -59q26 -23 65 -23q21 0 41 4q12 2 25 9l16 8q4 4 12 4q9 0 13 -4q6 -6 6 -8zM530 582l523 -4 l-19 47l-198 518q-23 54 -45 139l-9 -36t-12 -42q-15 -47 -22 -61l-181 -465l-10 -31z" />
<glyph unicode="&#x105;" horiz-adv-x="1050" d="M784 -61l2 4q-11 -11 -28 -45q-13 -26 -13 -52q0 -37 25 -59q26 -23 70 -23q22 0 37 3q17 3 26 8q18 9 19 10q4 4 10 4q8 0 12 -4q6 -6 6 -10l29 -66q-35 -28 -78 -41q-46 -14 -102 -14q-91 0 -142 39t-51 108q0 35 10 60t31 53q16 22 47 49q31 28 60 45h2q-7 0 -15 4 q-13 4 -20 33l-21 98q-23 -19 -82 -67q-40 -32 -81 -49q-52 -22 -91 -31q-41 -10 -110 -10q-58 0 -111 18q-62 21 -92 49q-37 34 -61 86q-23 50 -23 123q0 66 33 119q36 57 111 102q83 49 196 74q123 27 299 27v80q0 122 -53 184q-54 63 -154 63q-65 0 -112 -18t-78 -37 q-57 -34 -60 -37q-21 -16 -47 -16q-21 0 -32 8q-17 13 -23 25l-33 57q78 75 187 123q93 41 221 41q88 0 153 -29q68 -30 113 -78q46 -49 70 -123q24 -73 24 -159v-518q90 -19 103 -23q30 -7 30 -37v-88h-133q-2 -1 -17.5 -11t-23.5 -16q-11 -8 -39 -36zM688 254l-4 213 q-133 0 -213 -14q-73 -13 -143 -43q-56 -24 -80 -62q-25 -39 -25 -78q0 -32 15 -69q13 -31 36 -49q24 -18 54 -27q33 -10 65 -10q43 0 88 10q37 8 76 27q29 14 68 45q30 24 63 57z" />
<glyph unicode="&#x106;" horiz-adv-x="1300" d="M795 1483l-4 2q175 0 454 -105v-114v-230h-98q-39 0 -45 37q-2 6 -8 92q-2 23 -4 44.5t-3.5 33t-1.5 14.5q-456 146 -690 -100q-149 -161 -149 -424q0 -267 147 -426q139 -151 363 -151q126 0 194 24q109 41 180 107q19 16 33 16q21 0 33 -12l78 -86q-191 -221 -529 -221 q-316 0 -507 209q-193 211 -193 540q0 330 205 541q203 209 545 209zM1126 1827l-301 -223q-12 -8 -30 -17q-8 -4 -35 -4h-142l218 207q12 12 18 16l18 13q6 4 21 4q3 0 13 2t16 2h204z" />
<glyph unicode="&#x107;" horiz-adv-x="919" d="M885 145q-129 -159 -385 -159q-200 0 -326 141q-133 148 -133 393q0 235 127 383q132 150 362 150q116 0 308 -74v-270h-82q-29 0 -35 28q-2 7 -8 78q-4 45 -4 68q-15 4 -30 7.5t-28 6.5t-18 4q-55 8 -115 8q-52 0 -112 -26q-51 -22 -95 -76q-80 -106 -80 -287 q0 -183 82 -291q79 -102 219 -102q130 0 230 86q16 16 39 16q22 0 33 -16zM827 1483l-237 -264q-11 -14 -29 -23q-8 -4 -35 -4h-108l151 246q11 22 31 35q15 10 49 10h178z" />
<glyph unicode="&#x118;" horiz-adv-x="1200" d="M1110 -229l33 -66q-35 -28 -78 -41q-46 -14 -100 -14q-91 0 -142 39q-53 41 -53 108q0 60 41 113q42 55 100 90h-694h-147v86q0 13 9 24.5t23 14.5l115 22v1170q-97 18 -115 22q-14 3 -23 13.5t-9 23.5v90h147h905v-45v-118v-191h-100q-15 0 -27.5 10t-15.5 25 q0 3 -2 26.5t-6 63.5t-6 68h-549v-488h540v-155h-540v-502h551q2 29 5 64t5 57.5t2 25.5q7 33 41 33h100v-180v-160h-92q-36 -24 -43 -29q-17 -12 -39 -34q-13 -13 -28 -43q-11 -22 -11 -54q0 -37 25 -59q26 -23 67 -23q19 0 39 4q15 3 27 9l16 8q4 4 13 4q8 0 12 -4t4 -8z " />
<glyph unicode="&#x119;" horiz-adv-x="1007" d="M731 -217q8 0 12 -4q7 -7 7 -8l28 -70q-27 -22 -78 -37q-53 -16 -98 -16q-90 0 -143 41t-53 106q0 54 34 103q35 50 88 86q-104 0 -196 39q-87 37 -152 108q-67 73 -102 172q-35 98 -35 234q0 111 35 204q38 100 94 162q61 67 156 109q93 41 200 41q85 0 172 -33 q82 -31 136 -88q62 -65 90 -146q32 -91 32 -196q0 -47 -8 -58q-9 -12 -37 -12h-688q0 -95 25 -172q22 -68 69 -121q44 -50 103 -73q64 -25 131 -25q73 0 119 14q35 11 86 35q22 10 61 35q22 14 41 14q23 0 35 -18l51 -66q-45 -56 -127 -98q-72 -37 -160 -49q-16 -11 -38 -29 q-24 -20 -37 -33q-9 -9 -27 -45q-12 -24 -12 -49q0 -38 24 -59q26 -23 70 -23q17 0 37 4q13 3 26 9q3 2 10 4t9 4q4 4 10 4zM532 918v2q-133 0 -206 -76q-77 -80 -95 -213h564q0 64 -17 114q-21 60 -51 93q-35 38 -84 59t-111 21z" />
<glyph unicode="&#x131;" horiz-adv-x="591" d="M512 127q13 -3 22 -14t9 -25v-88h-477v88q0 14 8.5 25t21.5 14l117 23v739q-99 18 -117 22q-13 3 -21.5 14t-8.5 25v86h147h180v-886q101 -19 119 -23z" />
<glyph unicode="&#x141;" horiz-adv-x="1185" d="M1118 319v-321h-1028v88q0 31 31 37l117 24v418l-193 -98v137q0 26 27 39l166 90v582q-99 18 -117 24q-31 6 -31 39v88h148h198h148v-88q0 -33 -31 -39q-92 -16 -117 -22v-494l393 201v-131q0 -33 -26 -45l-367 -193v-487h531q5 99 10 117q5 34 43 34h98z" />
<glyph unicode="&#x142;" horiz-adv-x="636" d="M410 922l184 79v-104q0 -32 -29 -45l-155 -70v-630q95 -17 118 -25q31 -6 31 -37v-90h-477v90q0 31 31 37q8 2 63 12l53 13v563l-180 -78v108q0 27 25 39l155 70v506q-4 1 -43 7t-73 13q-31 6 -31 39v88h147h181v-585z" />
<glyph unicode="&#x143;" horiz-adv-x="1587" d="M1237 328v-4q-4 29 -4 102v889q-35 5 -66 10.5t-50 9.5t-21 4q-31 6 -31 37v90h168h172h149v-90q0 -31 -30 -37l-119 -24v-1317h-98q-44 0 -72 35l-850 1106q4 -35 4 -95v-897q63 -9 137 -24q31 -6 31 -37v-88h-487v88q0 31 28 37l119 24v1168q-103 19 -119 24 q-28 6 -28 39v88h249q25 0 37 -6q10 -5 31 -26zM1188 1823l-303 -224q-9 -6 -29 -16q-8 -4 -37 -4h-139l215 207q12 12 18 16q3 2 10.5 6.5t10.5 6.5q6 4 20 4q4 0 12 2t15 2h207z" />
<glyph unicode="&#x144;" horiz-adv-x="1273" d="M385 887v2q153 166 344 166q168 0 258 -109q90 -111 90 -284v-510q88 -16 115 -25q33 -7 33 -39v-88h-332v659q0 250 -217 250q-151 0 -281 -145v-614q1 0 117 -25q33 -7 33 -39v-86h-479v86q0 33 30 39l117 22v740q-99 18 -117 24q-30 6 -30 39v86h147h109q37 0 49 -37z M944 1485l-239 -264q-13 -16 -27 -23q-12 -6 -35 -6h-108l151 248q11 22 31 35q15 10 49 10h178z" />
<glyph unicode="&#x152;" horiz-adv-x="2170" d="M1933 1307l-547 -4v-488h541v-156h-541v-499h551q3 36 6.5 74t5 53t1.5 18q6 35 41 35h100v-342h-881v246q-86 -123 -215 -191q-132 -69 -286 -69q-156 0 -275 55q-120 55 -205 154t-135 237q-45 125 -45 303t45 303q50 140 135 238q182 209 471 209q165 0 295 -68 q126 -66 215 -194v245h881v-159v-193h-100q-35 0 -41 35q0 2 -2.5 20t-6.5 56.5t-8 81.5zM1155 487h-2q33 119 33 242t-33 242q-31 111 -92 184q-62 74 -148 115q-87 41 -192 41q-106 0 -193 -41q-84 -40 -147 -115q-60 -72 -96 -184q-35 -110 -35 -242t35 -242 q36 -112 96 -184q63 -75 147 -115q87 -41 193 -41q105 0 192 41q86 41 148 115q64 77 94 184z" />
<glyph unicode="&#x153;" horiz-adv-x="1716" d="M1270 1053l-2 4q76 0 157 -33q66 -27 123 -94q54 -63 84 -152q31 -91 31 -205q0 -35 -8 -55q-6 -14 -33 -14h-643q7 -101 29 -164q27 -76 61 -115q40 -45 94 -69q49 -21 119 -21q64 0 111 15q44 14 77 34q8 5 27.5 16t28.5 17q26 16 43 16q21 0 33 -18l53 -68 q-27 -34 -78 -69q-49 -34 -96 -51q-59 -22 -105 -29q-62 -10 -106 -10q-121 0 -221 59q-99 59 -154 180q-55 -117 -154 -178q-98 -61 -237 -61q-105 0 -189 37q-77 34 -143 106q-65 71 -94 168q-33 109 -33 221q0 110 33 219q29 97 94 168q68 74 147 109q84 37 193 37 q129 0 229 -62q94 -59 152 -174q49 106 145 172q94 64 232 64zM516 131q147 0 213 102q70 109 70 287q0 90 -19 168q-20 82 -51 123q-44 58 -90 78q-55 24 -123 24q-72 0 -127 -24q-46 -20 -90 -78q-31 -41 -51 -123q-19 -78 -19 -168q0 -180 72 -287q68 -102 215 -102z M1262 922h-2q-64 0 -113 -21q-42 -18 -82 -61q-33 -36 -57 -99q-24 -62 -29 -129h520q0 64 -16 123q-15 55 -45 99q-25 36 -74 63q-45 25 -102 25z" />
<glyph unicode="&#x15a;" horiz-adv-x="1036" d="M770 776h-4q221 -99 221 -330q0 -202 -127 -329q-133 -133 -364 -133q-96 0 -201 18q-74 13 -164 39l-59 20v369h100q35 0 41 -35q4 -17 10 -100l6 -90q160 -58 250 -58q87 0 152 21q58 19 94 55q78 72 78 195q0 118 -111 180q-54 32 -110 49q-216 68 -258 86 q-58 25 -113 74q-109 97 -109 274q0 162 117 279q126 123 328 123q211 0 411 -82v-338h-98q-37 0 -43 35q0 1 -1.5 20.5t-5 64.5t-7.5 97q-140 39 -242 39q-133 0 -205 -66q-69 -63 -69 -163q0 -109 110 -170q52 -31 115 -52q178 -59 258 -92zM909 1825l-299 -223 q-6 -4 -32 -17q-8 -4 -33 -4h-144l217 209q6 6 21 16q3 2 8 5.5t8 5.5q9 6 21 6q4 0 13 1t16 1h204z" />
<glyph unicode="&#x15b;" horiz-adv-x="835" d="M471 1053h-2q105 0 270 -56v-71v-195h-80q-28 0 -34 29q0 2 -1.5 16t-5 48.5t-6.5 70.5q-100 23 -159 23h-2q-83 0 -142 -46q-55 -43 -55 -94q0 -53 25 -78q41 -47 118 -71q17 -5 62.5 -18.5t64.5 -20.5l99 -37q36 -13 86 -53q84 -66 84 -181q0 -149 -101 -237 q-110 -96 -274 -96q-171 0 -336 55v270h74q24 0 30 -24q0 -3 1.5 -16.5t5 -47.5t6.5 -67q81 -41 211 -41q99 0 159 51q54 48 54 104q0 58 -25 86q-32 36 -61 50q-47 23 -86 32q-151 49 -191 66q-45 20 -92 57q-86 71 -86 193q0 124 98 209q103 90 291 90zM772 1483 l-240 -266q-11 -13 -26 -21q-16 -8 -35 -8h-109l152 250q8 17 31 32q19 13 49 13h178z" />
<glyph unicode="&#x160;" horiz-adv-x="1036" d="M770 776h-4q221 -99 221 -330q0 -202 -127 -329q-133 -133 -364 -133q-96 0 -201 18q-74 13 -164 39l-59 20v369h100q35 0 41 -35q4 -17 10 -100l6 -90q160 -58 250 -58q87 0 152 21q58 19 94 55q78 72 78 195q0 118 -111 180q-54 32 -110 49q-216 68 -258 86 q-58 25 -113 74q-109 97 -109 274q0 162 117 279q126 123 328 123q211 0 411 -82v-338h-98q-37 0 -43 35q0 1 -1.5 20.5t-5 64.5t-7.5 97q-140 39 -242 39q-133 0 -205 -66q-69 -63 -69 -163q0 -109 110 -170q52 -31 115 -52q178 -59 258 -92zM659 1583h-178l-243 215h139 q8 0 24 -4q21 -5 25 -8l133 -96q1 0 2 -1.5l2 -3t2 -2.5l4 -4q0 1 3 2q1 1 1.5 1t1.5 1l7 7l133 96q6 4 22 8t29 4h137z" />
<glyph unicode="&#x161;" horiz-adv-x="837" d="M471 1053h-2q105 0 270 -56v-71v-195h-80q-28 0 -34 29q0 2 -1.5 16t-5 48.5t-6.5 70.5q-100 23 -159 23h-2q-83 0 -142 -46q-55 -43 -55 -94q0 -53 25 -78q41 -47 118 -71q17 -5 62.5 -18.5t64.5 -20.5l99 -37q36 -13 86 -53q84 -66 84 -181q0 -149 -101 -237 q-110 -96 -274 -96q-171 0 -336 55v270h74q24 0 30 -24q0 -3 1.5 -16.5t5 -47.5t6.5 -67q81 -41 211 -41q99 0 159 51q54 48 54 104q0 58 -25 86q-32 36 -61 50q-47 23 -86 32q-151 49 -191 66q-45 20 -92 57q-86 71 -86 193q0 124 98 209q103 90 291 90zM143 1466l127 -2 q13 0 25 -6l16 -8l131 -127q11 -8 17 -20l8 8q2 4 8 10l131 129q2 2 5 3.5t8 3.5t8 3q12 6 22 6h121l-227 -270h-170z" />
<glyph unicode="&#x178;" horiz-adv-x="1433" d="M905 1466h492v-90q0 -31 -25 -37q-7 -2 -21 -5t-39.5 -9t-45.5 -10l-449 -733v-435q50 -13 117 -24q31 -6 31 -37v-88h-148h-199h-147v88q0 30 33 37l114 24v435l-446 733q-80 20 -102 24q-29 6 -29 39v88h491v-88q0 -33 -30 -39q-110 -22 -117 -22l274 -467 q45 -84 60 -129q23 68 59 131l275 467q-9 0 -119 22q-29 6 -29 39v86zM614 1704l-4 -2q0 -27 -8 -43q-11 -22 -24 -35q-16 -16 -37 -25q-23 -10 -45 -10q-21 0 -41 10t-35 25t-25 35t-10 45q0 22 10 45q9 21 25 37q13 13 35 24q18 9 43 9q24 0 45 -9q23 -10 37 -24t24 -37 t10 -45zM1047 1702v-2q0 -21 -11 -43t-24 -35q-15 -15 -35 -25q-16 -8 -43 -8t-43 8q-20 10 -35 25q-13 13 -25 37q-10 20 -10 41q0 22 10 45q9 21 25 37q13 13 35 24t43 11t43 -11t35 -24q14 -14 24 -37q11 -26 11 -43z" />
<glyph unicode="&#x179;" horiz-adv-x="1243" d="M1153 1327l-829 -1165h680q12 146 16 162q3 18 12.5 25t28.5 7h100v-194v-162h-1098v78q0 28 19 57l831 1172h-655q-13 -157 -14 -162q-6 -35 -43 -35h-99v197v159h1074v-73q0 -33 -23 -66zM991 1825l-303 -223q-15 -10 -29 -17q-8 -4 -36 -4h-140l215 209q10 10 19 16 q3 2 10 5.5t10 5.5q9 6 21 6q4 0 12 1t14 1h207z" />
<glyph unicode="&#x17a;" horiz-adv-x="935" d="M201 1036l667 2v-77q0 -37 -26 -70l-561 -748h460q3 36 6 68.5t5 48.5t2 19q6 24 30 24h72v-303h-790v76q0 30 24 65l565 752h-444q-2 -31 -5 -62t-4 -44.5t-1 -16.5q-7 -27 -33 -27h-72v293h105zM791 1485l-240 -264q-13 -16 -27 -23q-12 -6 -37 -6h-106l151 248 q12 24 29 35q15 10 49 10h181z" />
<glyph unicode="&#x17b;" horiz-adv-x="1243" d="M1153 1327l-829 -1165h680q12 146 16 162q3 18 12.5 25t28.5 7h100v-194v-162h-1098v78q0 28 19 57l831 1172h-655q-13 -157 -14 -162q-6 -35 -43 -35h-99v197v159h1074v-73q0 -33 -23 -66zM766 1729q0 -24 -12 -48t-27 -39q-17 -17 -39 -28q-20 -10 -49 -10t-49 10 q-22 11 -39 28q-20 20 -27 39q-8 21 -8 48q0 28 8 49q8 22 27 41q13 13 39 26q20 10 49 10t49 -10q26 -13 39 -26t27 -41q12 -24 12 -49z" />
<glyph unicode="&#x17c;" horiz-adv-x="937" d="M201 1036l667 2v-77q0 -37 -26 -70l-561 -748h460q3 36 6 68.5t5 48.5t2 19q6 24 30 24h72v-303h-790v76q0 30 24 65l565 752h-444q-2 -31 -5 -62t-4 -44.5t-1 -16.5q-7 -27 -33 -27h-72v293h105zM623 1372l-2 -2q0 -27 -11 -49t-28 -39t-41 -29q-20 -10 -49 -10 q-30 0 -50 10q-24 12 -41 29q-13 13 -26 39q-10 20 -10 49q0 31 10 51q17 34 26 43q17 17 41 29q20 10 50 10q29 0 49 -10q24 -12 41 -29q13 -13 28 -43q13 -26 13 -49z" />
<glyph unicode="&#x17d;" horiz-adv-x="1243" d="M1153 1327l-829 -1165h680q12 146 16 162q3 18 12.5 25t28.5 7h100v-194v-162h-1098v78q0 28 19 57l831 1172h-655q-13 -157 -14 -162q-6 -35 -43 -35h-99v197v159h1074v-73q0 -33 -23 -66zM729 1583h-176l-246 215h139q11 0 27 -4q18 -4 23 -8l135 -96q1 0 1.5 -1.5 l1 -3t1.5 -2.5t3 -2q3 -1 3 -2q0 1 3 2q1 1 1.5 1t1.5 1t1.5 2.5l1 3t1.5 1.5l135 96q5 4 23 8q16 4 27 4h139z" />
<glyph unicode="&#x17e;" horiz-adv-x="935" d="M199 1036l667 2v-77q0 -37 -26 -70l-561 -748h462q3 36 6 68.5t5 48.5t2 19q6 24 28 24h74v-303h-793v76q0 26 27 65l563 752h-444q-2 -31 -5 -62t-4 -44.5t-1 -16.5q-7 -27 -31 -27h-74v293h105zM176 1468l127 -2q17 0 25 -4l16 -8l131 -129q13 -10 17 -18l8 8l8 8 l131 129l20 10q12 6 23 6h121l-228 -270h-169z" />
<glyph unicode="&#x192;" horiz-adv-x="987" d="M594 786l-94 -749q-24 -208 -148 -303q-125 -96 -342 -96v96q0 57 62 57q37 0 88 14q41 11 73 43q35 35 56 78q24 50 30 115l91 737l-158 17q-17 0 -31 14q-12 12 -12 33v76h219l23 172q24 201 143 299t344 98v-98q0 -25 -16 -41q-13 -13 -45 -13q-40 0 -91 -14 q-41 -11 -73 -43q-31 -31 -54 -78t-32 -115l-23 -167h330v-132h-340z" />
<glyph unicode="&#x2c6;" horiz-adv-x="770" d="M698 1196h-120q-20 0 -41 14l-131 129l-19 17l-16 -17l-133 -129q-3 -3 -17 -10q-8 -4 -24 -4h-125l227 270h172z" />
<glyph unicode="&#x2da;" horiz-adv-x="579" d="M86 1348v-5q0 45 16 78q18 38 45 62q36 32 64 41q37 12 78 12q43 0 80 -12q23 -7 65 -41q25 -20 45 -62q17 -35 17 -78q0 -40 -17 -75q-19 -39 -45 -60q-34 -27 -65 -37q-44 -14 -78 -14t-78 14q-35 11 -66 39q-28 25 -45 60q-16 33 -16 78zM188 1343q0 -43 27 -73 q26 -29 76 -29q48 0 74 29q28 31 28 73q0 43 -28 74q-26 29 -74 29q-50 0 -76 -29q-27 -30 -27 -74z" />
<glyph unicode="&#x2dc;" horiz-adv-x="768" d="M496 1356v-2q38 0 57 22q20 23 20 66h111q0 -48 -12 -88q-10 -35 -37 -68q-25 -31 -57 -45q-37 -16 -76 -16q-36 0 -68 16q-30 15 -57 33q-11 7 -31.5 19.5t-21.5 13.5q-26 16 -48 16q-75 0 -75 -90h-115q0 41 14 88q10 34 39 70q24 30 58 45q32 14 73 14q38 0 66 -14 q50 -25 59 -31q27 -18 51 -33q26 -16 50 -16z" />
<glyph unicode="&#x2000;" horiz-adv-x="941" />
<glyph unicode="&#x2001;" horiz-adv-x="1882" />
<glyph unicode="&#x2002;" horiz-adv-x="941" />
<glyph unicode="&#x2003;" horiz-adv-x="1882" />
<glyph unicode="&#x2004;" horiz-adv-x="627" />
<glyph unicode="&#x2005;" horiz-adv-x="470" />
<glyph unicode="&#x2006;" horiz-adv-x="313" />
<glyph unicode="&#x2007;" horiz-adv-x="313" />
<glyph unicode="&#x2008;" horiz-adv-x="235" />
<glyph unicode="&#x2009;" horiz-adv-x="376" />
<glyph unicode="&#x200a;" horiz-adv-x="104" />
<glyph unicode="&#x2010;" horiz-adv-x="698" d="M98 692h504v-155h-504v155z" />
<glyph unicode="&#x2011;" horiz-adv-x="698" d="M98 692h504v-155h-504v155z" />
<glyph unicode="&#x2012;" horiz-adv-x="698" d="M98 692h504v-155h-504v155z" />
<glyph unicode="&#x2013;" horiz-adv-x="1011" d="M98 672h820v-135h-820v135z" />
<glyph unicode="&#x2014;" horiz-adv-x="1554" d="M98 672h1360v-135h-1360v135z" />
<glyph unicode="&#x2018;" horiz-adv-x="389" d="M139 1036h-2q-32 52 -43 99q-12 49 -12 98q0 93 45 176q46 84 127 156l57 -35q2 -2 7 -5t6 -5q2 -4 2 -13q0 -13 -11 -24q-10 -10 -32 -45q-22 -36 -27 -45q-11 -22 -18 -54q-9 -41 -9 -57q0 -32 9 -70q9 -37 32 -73q9 -18 9 -23q0 -22 -29 -35z" />
<glyph unicode="&#x2019;" horiz-adv-x="389" d="M254 1544q35 -58 45 -98q12 -50 12 -98q0 -94 -45 -177q-45 -82 -127 -155l-57 35l-10 10q-2 4 -2 12q0 17 8 25q13 13 33 45q22 36 28 47q14 28 19 51q6 27 6 59q0 35 -8 68q-9 36 -33 74q-8 16 -8 20q0 25 28 37z" />
<glyph unicode="&#x201a;" horiz-adv-x="403" d="M264 246v2q32 -53 43 -98q12 -50 12 -99q0 -95 -45 -178q-46 -84 -127 -156l-57 37q-6 6 -8 10q-4 8 -4 13q0 14 10 24q11 11 31 43q15 24 28 50q17 35 21 51q6 27 6 59q0 24 -10 66q-8 34 -33 73q-6 12 -6 23q0 23 27 35z" />
<glyph unicode="&#x201c;" horiz-adv-x="700" d="M139 1036h-2q-32 52 -43 99q-12 49 -12 98q0 93 45 176q46 84 127 156l57 -35q2 -2 7 -5t6 -5q2 -4 2 -13q0 -13 -11 -24q-10 -10 -32 -45q-22 -36 -27 -45q-11 -22 -18 -54q-9 -41 -9 -57q0 -32 9 -70q9 -37 32 -73q9 -18 9 -23q0 -22 -29 -35zM449 1036l-3 -2 q-32 52 -43 99q-14 58 -14 98q0 92 47 178q44 80 129 156l56 -37l10 -10q4 -8 4 -13q0 -14 -10 -24q-11 -11 -31 -43q-28 -44 -29 -47q-15 -30 -20 -52q-6 -27 -6 -59q0 -26 10 -68q8 -34 33 -73q6 -12 6 -25q0 -21 -27 -33z" />
<glyph unicode="&#x201d;" horiz-adv-x="700" d="M254 1544q35 -58 45 -98q12 -50 12 -98q0 -94 -45 -177q-45 -82 -127 -155l-57 35l-10 10q-2 4 -2 12q0 17 8 25q13 13 33 45q22 36 28 47q14 28 19 51q6 27 6 59q0 35 -8 68q-9 36 -33 74q-8 16 -8 20q0 25 28 37zM565 1544v2q35 -58 45 -98q13 -54 13 -98 q0 -96 -45 -179q-45 -82 -127 -155l-58 37l-10 10q-2 4 -2 12q0 17 8 25q16 16 33 43q22 36 29 49q12 24 18 51t6 60q0 32 -8 65q-9 36 -33 74q-8 16 -8 22q0 22 29 35z" />
<glyph unicode="&#x201e;" horiz-adv-x="714" d="M264 246v2q32 -53 43 -98q12 -50 12 -99q0 -95 -45 -178q-46 -84 -127 -156l-57 37q-6 6 -8 10q-4 8 -4 13q0 14 10 24q11 11 31 43q15 24 28 50q17 35 21 51q6 27 6 59q0 24 -10 66q-8 34 -33 73q-6 12 -6 23q0 23 27 35zM575 248v2q32 -53 43 -98q13 -54 13 -99 q0 -97 -45 -180q-43 -80 -127 -154l-58 35q-3 3 -8 13q-4 8 -4 12q0 14 10 24q14 14 31 41q20 32 29 50q15 30 20 53q6 27 6 57q0 26 -10 68q-8 34 -33 73q-6 12 -6 23q0 23 27 35z" />
<glyph unicode="&#x2020;" horiz-adv-x="1038" d="M47 940l-2 -2q0 31 21 55q22 25 65 25q49 0 74 -4q14 -2 41.5 -5t40.5 -5q14 -2 40.5 -5.5t41.5 -5.5q61 -8 82 -10l-25 500q44 24 94 24q56 0 94 -24l-22 -500q24 2 50 5.5t60.5 9t51.5 8.5q96 14 155 14q45 0 64 -25q20 -27 20 -55v-61h-401v-426l22 -797 q-36 -23 -94 -23q-52 0 -94 23l25 797v426h-404v61z" />
<glyph unicode="&#x2021;" horiz-adv-x="1056" d="M59 940l-2 -6q0 31 23 57q22 25 65 25q49 0 74 -4q13 -2 39.5 -4t40.5 -4t41 -6.5t41 -6.5q30 -4 82 -8l-25 500q40 22 94 22q63 0 97 -22l-23 -500q37 3 162 21q110 16 154 16q46 0 65 -25q21 -28 21 -57v-61h-402v-615h402v-61q0 -30 -21 -58q-18 -24 -65 -24 q-44 0 -154 16q-125 18 -162 21l23 -500q-39 -25 -97 -25q-49 0 -94 25l25 500q-41 -3 -164 -21q-82 -12 -152 -12q-44 0 -65 24q-23 26 -23 56v61h404v615h-404v61z" />
<glyph unicode="&#x2022;" horiz-adv-x="913" d="M78 610l-2 -4q0 80 30 148t82 123q46 48 119 81q74 33 148 33q73 0 147 -33q76 -34 123 -81q51 -51 82 -121q33 -74 33 -148q0 -73 -33 -147q-33 -75 -82 -121q-53 -50 -121 -80q-70 -31 -147 -31q-78 0 -148 31t-121 82q-45 45 -79 121q-31 70 -31 147z" />
<glyph unicode="&#x2026;" horiz-adv-x="1484" d="M90 113v-2q0 22 10 49q8 22 27 41q15 15 41 28q18 9 49 9t49 -9q22 -11 39 -28q19 -19 27 -41q8 -21 8 -49q0 -29 -8 -50q-8 -22 -27 -41q-15 -15 -39 -24q-27 -10 -49 -10t-49 10t-41 24q-19 19 -27 41q-10 27 -10 52zM1145 111q0 22 10 49q10 26 25 41q11 11 41 26 q22 11 49 11t49 -11q30 -15 41 -26q14 -14 24 -41q11 -29 11 -49q0 -21 -11 -50q-10 -27 -24 -41q-17 -17 -41 -26q-27 -10 -49 -10t-49 10q-24 9 -41 26q-15 15 -25 41q-10 27 -10 50zM618 111q0 25 9 49q8 21 26 39q13 13 39 26t49 13q24 0 50 -13q28 -14 40 -26 q20 -20 27 -39q10 -27 10 -49q0 -25 -10 -52q-7 -19 -27 -39q-21 -21 -40 -28q-21 -8 -50 -8q-28 0 -49 8q-18 7 -39 28q-18 18 -26 39q-9 24 -9 52z" />
<glyph unicode="&#x202f;" horiz-adv-x="376" />
<glyph unicode="&#x2030;" horiz-adv-x="2320" d="M705 1114q0 -86 -25 -156q-20 -57 -72 -112q-46 -49 -104 -72q-61 -24 -123 -24q-71 0 -129 24q-56 23 -102 72q-45 49 -68 112q-25 70 -25 156t25 156q23 65 68 116q40 46 104 72q61 25 127 25q65 0 129 -25q62 -24 104 -72q42 -47 66 -116q25 -70 25 -156zM563 1114h-2 q0 57 -14 115q-10 42 -39 78q-26 32 -57 43q-40 14 -74 14q-30 0 -70 -14q-34 -12 -59 -43q-29 -36 -39 -78q-12 -49 -12 -115q0 -61 14 -115q9 -36 39 -73q26 -32 57 -43q37 -13 74 -13q33 0 70 13q34 12 59 43q30 37 39 73q14 54 14 115zM1221 1438v-2q7 9 24 22 q11 8 39 8h131l-1071 -1437q-17 -17 -25 -21q-16 -8 -34 -8h-135zM1516 344h-5q0 -72 -28 -151q-23 -65 -70 -115q-43 -46 -102 -70t-123 -24q-70 0 -129 24q-61 25 -103 70t-67 115t-25 151q0 88 25 158q24 67 67 116q40 45 105 72q61 25 127 25q65 0 129 -25 q62 -24 104 -72q48 -55 70 -116q25 -70 25 -158zM1368 344q0 49 -16 115q-11 46 -37 78q-22 28 -60 41q-40 14 -71 14q-32 0 -72 -14q-36 -13 -59 -41q-26 -32 -37 -78q-12 -50 -12 -115q0 -66 12 -113q9 -35 41 -75q23 -29 57 -41q37 -13 72 -13q34 0 71 13q35 12 58 41 q31 39 41 77q12 46 12 111zM2261 344q0 -74 -29 -156q-22 -62 -69 -112q-46 -49 -105 -72q-62 -24 -125 -24q-69 0 -127 24q-56 23 -102 72q-49 52 -70 112q-24 67 -24 156q0 88 24 156q22 61 70 116q41 47 102 72t129 25q65 0 129 -25q60 -24 103 -72q47 -53 69 -116 q25 -70 25 -156zM2118 344l-2 -4q0 55 -15 117q-9 38 -39 75q-28 35 -59 46q-35 12 -70 12q-39 0 -73 -12q-29 -10 -58 -46q-27 -34 -37 -75q-14 -58 -14 -115q0 -59 14 -113q9 -36 39 -73q25 -31 60 -43q37 -13 69 -13q37 0 74 13q31 11 57 43q30 37 39 73q15 58 15 115z " />
<glyph unicode="&#x2039;" horiz-adv-x="483" d="M66 530v25l253 399l60 -28q15 -8 22 -21q7 -14 7 -24q0 -17 -11 -33l-164 -266q-13 -26 -26 -39q17 -14 29 -37l161 -268q5 -5 9 -17t4 -16q0 -33 -29 -45l-59 -29z" />
<glyph unicode="&#x203a;" horiz-adv-x="487" d="M422 553v-21l-254 -399l-62 29q-28 11 -28 43q0 15 12 33l162 268q10 20 27 37q-10 10 -27 37l-162 268q-12 18 -12 33q0 32 28 43l62 28z" />
<glyph unicode="&#x2044;" horiz-adv-x="1091" d="M209 53h4q-16 -26 -45 -41q-24 -12 -51 -12h-78l838 1405q16 26 41 45q21 16 57 16h78z" />
<glyph unicode="&#x205f;" horiz-adv-x="470" />
<glyph unicode="&#x20ac;" horiz-adv-x="1234" d="M61 922l144 -9q17 124 69 234q54 115 119 180q71 71 168 111q100 41 205 41q125 0 233 -54q94 -47 168 -139l-61 -69q-2 -3 -16 -17q-6 -6 -21 -6q-19 0 -37 18q-29 29 -49 45q-26 21 -82 41q-58 21 -127 21q-150 0 -246 -102q-102 -108 -131 -299h559v-58q0 -16 -14 -33 q-13 -16 -37 -16h-520v-39v-43v-31v-30h479v-58q0 -12 -16 -32q-12 -15 -37 -15h-418q31 -215 127 -317q99 -105 250 -105q56 0 96 11q47 13 72 28q33 20 53 37q28 24 39 35q7 6 17.5 14.5t13.5 12.5q12 12 24 12q5 0 13 -4l16 -8l76 -74q-72 -103 -178 -162t-252 -59 q-119 0 -215 41q-98 42 -164 114q-72 79 -115 185q-43 107 -61 241h-144v105h136v30v33v41q0 7 1 21t1 20h-138v107z" />
<glyph unicode="&#x2212;" horiz-adv-x="1071" d="M94 758h881v-140h-881v140z" />
<glyph unicode="&#x25fc;" horiz-adv-x="1034" d="M0 1034h1034v-1034h-1034v1034z" />
</font>
</defs>
</svg>
