<?xml version="1.0" standalone="no"?>
<!DOCTYPE svg PUBLIC "-//W3C//DTD SVG 1.1//EN" "http://www.w3.org/Graphics/SVG/1.1/DTD/svg11.dtd" >
<svg xmlns="http://www.w3.org/2000/svg">
<metadata></metadata>
<defs>
<font id="aleobold" horiz-adv-x="1560" >
<font-face units-per-em="2048" ascent="1649" descent="-399" />
<missing-glyph horiz-adv-x="473" />
<glyph horiz-adv-x="0" />
<glyph unicode="&#xd;" horiz-adv-x="153" />
<glyph horiz-adv-x="153" />
<glyph horiz-adv-x="153" />
<glyph unicode=" "  horiz-adv-x="473" />
<glyph unicode="&#x09;" horiz-adv-x="473" />
<glyph unicode="&#xa0;" horiz-adv-x="473" />
<glyph unicode="!" horiz-adv-x="380" d="M313 1481v-586q0 -84 -10 -182q-9 -90 -24 -191h-170q-18 123 -25 191q-10 98 -10 182v586h239zM37 139q0 39 10 62q13 29 33 49q19 19 51 33q27 12 62 12q32 0 59 -12q29 -13 49 -33t33 -49q12 -27 12 -62q0 -34 -12 -61q-11 -25 -33 -47q-20 -20 -49 -33 q-27 -12 -59 -12q-35 0 -62 12q-32 14 -51 33q-22 22 -33 47q-10 23 -10 61z" />
<glyph unicode="&#x22;" horiz-adv-x="692" d="M268 1481v-295l-22 -160q-5 -41 -27 -70q-17 -22 -63 -22q-39 0 -58 22q-22 25 -28 70l-21 160v295h219zM645 1481v-295l-22 -160q-5 -41 -27 -70q-16 -22 -64 -22q-38 0 -57 22q-23 27 -29 70l-20 160v295h219z" />
<glyph unicode="#" horiz-adv-x="1187" d="M846 418l-80 -418h-115q-31 0 -53 25q-23 26 -23 59v10q0 2 1.5 5t1.5 5l61 314h-211l-59 -326q-10 -53 -41 -72q-33 -20 -74 -20h-111l78 418h-119q-30 0 -49 16q-18 15 -18 51q0 23 2 35l14 80h195l53 283h-219l18 104q6 40 33 60q24 18 80 18h113l65 330q10 44 37 63 q33 23 70 23h114l-78 -416h209l78 416h115q36 0 57 -21q23 -23 23 -51q0 -3 -1 -8.5t-1 -7.5l-62 -328h207l-18 -107q-5 -36 -33 -57q-24 -18 -80 -18h-102l-52 -283h144q32 0 51 -16q16 -13 16 -54q0 -20 -2 -32l-12 -80h-223zM455 600h209l53 283h-209z" />
<glyph unicode="$" horiz-adv-x="1095" d="M430 -8q-124 16 -225 63q-104 49 -178 123l77 115q11 18 27 26q18 9 37 9q23 0 47 -15q6 -4 26 -17.5t33 -21.5q42 -26 74 -41q51 -25 98 -32l41 458q-57 16 -145 50q-78 30 -127 71q-59 49 -92 117q-35 72 -35 172q0 78 31 154q30 73 90 133q53 53 147 94q89 39 201 45 l10 127q3 27 21 45q21 21 49 21h92l-16 -203q105 -17 186 -62q75 -41 137 -100l-61 -92q-17 -24 -29 -31q-17 -10 -35 -10q-14 0 -37 10q-7 3 -22.5 11t-24.5 12q-12 7 -61 28q-33 14 -72 23l-35 -422q32 -9 146 -51q69 -25 129 -70q57 -42 94 -106t37 -162q0 -87 -33 -178 q-30 -83 -92 -148q-61 -64 -149 -104q-81 -37 -205 -47l-13 -150q-4 -29 -20 -45q-20 -20 -49 -20h-92zM823 424q0 40 -12 70q-15 30 -39 51q-30 27 -59 39q-58 25 -74 30l-35 -417q109 15 164 73t55 154zM328 1094q0 -38 12 -68q11 -27 37 -53q24 -24 57 -41q42 -22 72 -33 l31 379q-46 -5 -95 -23q-40 -18 -65 -43q-30 -30 -39 -53q-10 -25 -10 -65z" />
<glyph unicode="%" horiz-adv-x="1589" d="M721 1122q0 -78 -29 -151q-24 -59 -76 -115q-47 -50 -108 -74q-62 -24 -131 -24q-73 0 -135 24t-109 74q-50 53 -72 115q-24 67 -24 151q0 86 24 156q23 66 72 119q45 48 109 73t135 25q73 0 137 -25t109 -73q48 -51 71 -119q27 -79 27 -156zM524 1122q0 58 -12 99 q-12 39 -31 65q-16 21 -47 35q-22 10 -57 10t-58 -10q-28 -13 -45 -35q-22 -29 -30 -65q-11 -37 -11 -99t11 -96q12 -37 30 -61q20 -27 45 -35q24 -8 58 -8q33 0 57 8q28 9 47 35q24 31 33 61q10 31 10 96zM1212 1442q9 11 31 26q19 13 51 13h185l-1102 -1444 q-11 -14 -31 -27q-15 -10 -45 -10h-188zM1556 348q0 -81 -28 -151q-24 -59 -76 -115q-47 -50 -109 -74q-67 -26 -131 -26q-68 0 -135 26q-61 24 -108 74q-50 53 -72 115q-27 76 -27 151q0 77 27 156q23 66 72 119q46 49 108 73q64 25 135 25q74 0 138 -25q62 -24 108 -73 q49 -53 72 -119q26 -76 26 -156zM1360 348q0 67 -10 101q-9 31 -33 63q-16 21 -47 35q-27 12 -58 12q-30 0 -57 -12q-28 -13 -45 -35q-20 -27 -31 -63q-10 -34 -10 -101q0 -62 10 -96t31 -62q19 -25 45 -34q33 -11 57 -11q25 0 58 11q29 10 47 34q24 32 33 62q10 34 10 96z " />
<glyph unicode="&#x26;" horiz-adv-x="1466" d="M649 1497q89 0 160 -27q76 -29 123 -73q48 -46 80 -107q25 -49 32 -123l-159 -32q-1 0 -3 -1t-3 -1h-7q-19 0 -32 10q-12 7 -21 28q-10 29 -24 52q-18 28 -35 43t-47 28q-25 11 -64 11q-43 0 -78 -15q-28 -12 -57 -41q-23 -23 -35 -57t-12 -70q0 -32 6 -59q7 -32 21 -57 q27 -49 36 -60q28 -35 58 -65l393 -408q33 62 55 135q18 60 25 146q3 20 16 37q13 16 37 16h160q0 -124 -41 -258q-38 -124 -107 -227l310 -322h-248q-25 0 -35 2q-18 4 -27 8q-18 9 -26 15q-20 15 -27 24l-102 105q-98 -79 -217 -125q-116 -45 -262 -45q-91 0 -168 28 q-80 29 -146 86q-65 56 -104 133t-39 177q0 67 22 131q21 60 62 114q42 55 96 97q52 41 121 73q-56 78 -80 150q-25 77 -25 145q0 80 27 148q26 65 82 118q54 51 133 82t176 31zM293 428q0 -54 18 -100q18 -47 54 -78q33 -29 77 -47q41 -17 97 -17q89 0 163 27q67 25 136 80 l-389 399q-80 -51 -119 -121q-37 -67 -37 -143z" />
<glyph unicode="'" horiz-adv-x="315" d="M268 1481v-295l-22 -160q-5 -41 -27 -70q-17 -22 -63 -22q-39 0 -58 22q-22 25 -28 70l-21 160v295h219z" />
<glyph unicode="(" horiz-adv-x="495" d="M256 643q0 -219 51 -416q53 -203 148 -383q4 -8 8 -24t4 -21q0 -16 -12 -32q-8 -11 -25 -21l-111 -70q-83 127 -131 234q-50 111 -86 237q-33 116 -49 244q-16 131 -16 252q0 119 16 250q16 128 49 244q36 126 86 237q48 107 131 234l111 -68q18 -11 25 -20 q12 -16 12 -33q0 -13 -14 -45q-91 -171 -146 -385q-51 -197 -51 -414z" />
<glyph unicode=")" horiz-adv-x="495" d="M240 643q0 213 -52 414q-56 218 -145 385q-14 32 -14 45q0 17 12 33q7 9 25 20l110 68q83 -127 131 -234q50 -111 86 -237q33 -116 49 -244q17 -139 17 -250q0 -113 -17 -252q-16 -128 -49 -244q-36 -126 -86 -237q-48 -107 -131 -234l-110 70q-17 10 -25 21 q-12 16 -12 32q0 5 4 21q2 8 10 24q90 169 145 383q52 201 52 416z" />
<glyph unicode="*" horiz-adv-x="741" d="M311 856v188q0 29 2 41q3 20 9 37q-10 -12 -27 -26q-8 -6 -33 -23l-162 -94l-59 102l162 95q17 11 37 18q24 8 36 10q-24 4 -36 10q-34 17 -37 19l-162 96l57 103l164 -97q4 -3 11 -7t12.5 -7.5t9.5 -7.5q21 -16 29 -27q-10 29 -11 37q-2 12 -2 41v188h119v-188 q0 -29 -2 -41q-4 -26 -8 -37q14 17 26 27q4 4 9.5 7.5t12.5 7.5t11 7l162 95l61 -103l-163 -94q-20 -13 -37 -19q-23 -8 -37 -10q30 -5 74 -28l161 -95l-57 -102l-164 94q-26 17 -33 23q-20 16 -28 26q12 -34 12 -78v-188h-119z" />
<glyph unicode="+" horiz-adv-x="1083" d="M643 1200v-418h397v-188h-397v-422h-205v422h-397v188h397v418h205z" />
<glyph unicode="," horiz-adv-x="405" d="M53 156q0 33 10 53q16 32 29 45q15 15 47 29q22 10 62 10t67 -12t47 -39t29 -56q10 -33 10 -65q0 -53 -14 -105q-8 -30 -45 -106q-27 -55 -70 -107q-44 -54 -96 -94l-45 41q-18 15 -18 37q0 9 6 18q10 15 14 19q7 7 27 31q3 4 10.5 12t13.5 15t10 14q25 40 29 49 q17 38 21 59q-35 0 -58 10q-30 13 -47 33t-29 47q-10 22 -10 62z" />
<glyph unicode="-" horiz-adv-x="647" d="M57 725h533v-213h-533v213z" />
<glyph unicode="." horiz-adv-x="415" d="M53 139q0 33 13 62q14 31 32 49q20 20 49 33q27 12 62 12q34 0 61 -12q29 -13 49 -33t33 -49t13 -62q0 -32 -13 -61q-11 -25 -33 -47q-20 -20 -49 -33q-27 -12 -59 -12q-34 0 -61 12q-34 15 -52 33q-20 20 -32 47q-13 29 -13 61z" />
<glyph unicode="/" horiz-adv-x="892" d="M270 -4q-10 -27 -22 -41q-13 -16 -33 -29q-13 -8 -39 -16q-28 -8 -41 -8h-106l598 1532q17 41 51 65q33 23 80 23h106z" />
<glyph unicode="0" horiz-adv-x="1167" d="M1126 741q0 -205 -41 -338q-47 -151 -114 -235q-74 -92 -174 -139q-96 -45 -215 -45t-215 45q-94 44 -170 139q-74 92 -115 235t-41 338q0 193 41 336q42 145 115 236q76 95 170 139q96 45 215 45t215 -45q100 -47 174 -139q67 -83 114 -236q41 -133 41 -336zM864 741 q0 171 -22 267q-25 108 -64 168q-42 64 -90 86q-52 24 -106 24q-56 0 -105 -24t-90 -86q-35 -53 -61 -168q-25 -109 -25 -267q0 -157 25 -266q26 -115 61 -168q43 -65 90 -88q54 -26 105 -26q49 0 106 26q48 22 90 86q39 58 64 170q22 96 22 266z" />
<glyph unicode="1" horiz-adv-x="989" d="M915 170q41 -9 41 -51v-119h-401h-16h-402v119q0 42 41 51q51 7 258 23v860q0 32 4 106l-213 -178q-13 -13 -26 -16q-16 -4 -29 -4q-24 0 -37 8q-14 7 -24 20l-80 109l450 385h209v-1293q187 -14 225 -20z" />
<glyph unicode="2" horiz-adv-x="1110" d="M1073 221v-221h-22h-60h-956v84q0 23 10 53q13 29 35 51l448 451q12 13 34.5 36t39 40t29.5 33q47 57 74 104q35 60 47 104q14 49 14 111q0 56 -14 94q-14 37 -45 68q-30 30 -68 41q-47 14 -88 14q-91 0 -150 -47q-58 -46 -82 -123q-12 -39 -34 -55q-22 -19 -58 -19 q-8 0 -32 4l-134 23q15 105 60 188q45 82 108 134q61 52 152 81q86 27 184 27q101 0 189 -31q78 -27 143 -86q57 -52 94 -133q35 -78 35 -172q0 -78 -25 -151q-24 -71 -63 -133q-44 -71 -94 -123q-37 -39 -115 -121l-334 -342q29 9 97 22q70 9 90 9h327q6 80 9 92 q9 37 47 37h108v-144z" />
<glyph unicode="3" horiz-adv-x="1091" d="M580 1497q104 0 184 -29q83 -30 141 -82q63 -57 90 -120q31 -73 31 -152q0 -64 -16 -123q-14 -52 -45 -94q-30 -41 -74 -68q-49 -31 -100 -47q139 -46 200 -127q66 -87 66 -217q0 -107 -41 -194q-40 -86 -111 -144q-70 -58 -162 -88q-85 -28 -194 -28q-113 0 -195 24 q-75 22 -145 78q-58 46 -103 123q-42 72 -73 168l110 45q27 12 58 12q28 0 49 -12t33 -33q13 -28 39 -70q18 -29 53 -61q32 -29 71 -45t99 -16q67 0 114 20q51 22 80 55q34 40 47 76q17 49 17 82q0 54 -12 98q-13 48 -46 74q-40 32 -104 49t-178 17v180q87 0 153 16 q51 12 99 47q36 29 51 70q12 32 12 90q0 106 -57 160q-56 53 -156 53q-93 0 -149 -47q-61 -51 -84 -123q-11 -36 -33 -55t-57 -19q-9 0 -33 4l-135 25q14 100 61 186q44 81 109 134q66 54 151 81t185 27z" />
<glyph unicode="4" horiz-adv-x="1196" d="M975 557h186v-145q0 -18 -14 -35t-37 -17h-135v-360h-221v360h-625q-25 0 -45 17q-19 16 -25 41l-26 127l702 938h240v-926zM754 1042q0 47 2 72q0 2 2 32t4 46l-459 -635h451v485z" />
<glyph unicode="5" horiz-adv-x="1054" d="M967 1372q0 -51 -35 -86t-113 -35h-409l-54 -309q102 21 185 21q114 0 204 -35q87 -34 150 -97t92 -143t29 -178q0 -122 -41 -215q-44 -101 -115 -166q-76 -70 -174 -106q-106 -39 -219 -39q-76 0 -133 14q-62 15 -117 39q-51 22 -102 55q-34 22 -82 66l78 108 q24 35 65 35q25 0 51 -16q55 -34 60 -37q43 -22 82 -35q50 -16 110 -16q73 0 123 20q49 20 90 64q34 36 53 96q17 52 17 123q0 121 -70 188q-71 68 -207 68q-111 0 -215 -39l-157 45l123 719h731v-109z" />
<glyph unicode="6" horiz-adv-x="1107" d="M635 926q79 0 164 -29q74 -25 139 -84q61 -55 98 -137q37 -81 37 -195q0 -99 -39 -194q-36 -88 -106 -158q-64 -64 -166 -106q-95 -39 -213 -39q-122 0 -213 36q-88 35 -160 107q-61 61 -102 164q-37 93 -37 213q0 105 43 215q39 100 133 227l352 475q18 24 53 41 q40 19 82 19h226l-439 -539q-4 -5 -14 -16t-14 -17l-25 -30q49 23 92 34q54 13 109 13zM281 465q0 -69 16 -113q18 -51 51 -86q35 -38 82 -55q58 -21 113 -21q63 0 112 21q48 19 86 57q37 37 58 86q20 47 20 109q0 60 -20 115q-17 47 -56 86q-34 34 -86 53q-49 18 -110 18 q-62 0 -109 -20q-45 -19 -84 -58q-37 -37 -55 -86t-18 -106z" />
<glyph unicode="7" horiz-adv-x="1101" d="M41 1481h1024v-109q0 -47 -10 -80q-4 -12 -13 -30.5t-10 -20.5l-559 -1155q-17 -35 -49 -61q-31 -25 -86 -25h-184l573 1130q40 76 80 121h-596q-11 -127 -12 -129q-9 -37 -49 -37h-109v220v2v2v172z" />
<glyph unicode="8" horiz-adv-x="1097" d="M549 -16q-115 0 -209 30q-93 29 -164 88q-65 54 -104 136q-37 78 -37 178q0 132 63 221q64 91 201 135q-106 46 -162 129q-53 79 -53 199q0 82 35 157q33 70 94 125q59 53 147 84t189 31q100 0 188 -31q90 -32 148 -84q61 -55 94 -125q35 -75 35 -157q0 -116 -56 -199 q-57 -85 -159 -129q136 -44 200 -135t64 -221q0 -100 -37 -178q-39 -82 -104 -136q-71 -59 -164 -88q-94 -30 -209 -30zM549 180q61 0 110 19q44 17 78 51q34 29 49 74q17 49 17 96q0 122 -68 184q-70 64 -186 64q-117 0 -187 -64q-67 -61 -67 -184q0 -50 16 -96 q13 -38 49 -74q34 -34 78 -51q49 -19 111 -19zM549 864q53 0 104 21q41 17 68 51q27 33 35 74q12 44 12 86q0 36 -14 80q-12 37 -39 67q-25 28 -68 47q-38 17 -98 17q-58 0 -96 -17q-46 -21 -70 -47q-27 -30 -39 -67q-12 -38 -12 -80q0 -50 10 -86q12 -42 37 -74 q28 -35 67 -51q51 -21 103 -21z" />
<glyph unicode="9" horiz-adv-x="1071" d="M446 590q-75 0 -151 28t-131 80q-58 55 -92 133q-35 81 -35 185t37 188q41 94 102 152q67 64 160 102q95 39 207 39q120 0 205 -35q86 -35 153 -102q62 -62 98 -154q35 -90 35 -196q0 -70 -12 -131q-13 -66 -33 -119q-16 -43 -53 -111q-20 -37 -68 -108l-340 -484 q-18 -24 -51 -41q-31 -16 -80 -16h-231l461 573q8 9 32 43q5 7 14.5 20.5t14.5 20.5q-52 -34 -113 -49q-61 -18 -129 -18zM791 1034q0 62 -17 109q-15 42 -53 80q-33 33 -80 51q-41 16 -102 16q-59 0 -105 -18q-48 -19 -78 -53q-33 -37 -49 -80q-16 -41 -16 -103 q0 -125 63 -188q66 -66 183 -66q50 0 108 21q42 15 80 53q31 31 49 78q17 44 17 100z" />
<glyph unicode=":" horiz-adv-x="407" d="M53 139q0 33 13 62q14 31 32 49q20 20 49 33q27 12 62 12q34 0 61 -12q29 -13 49 -33t33 -49t13 -62q0 -32 -13 -61q-11 -25 -33 -47q-20 -20 -49 -33q-27 -12 -61 -12q-35 0 -62 12q-29 13 -49 33t-32 47q-13 29 -13 61zM53 868q0 33 13 62q14 31 32 49q20 20 49 33 q27 12 62 12q34 0 61 -12q29 -13 49 -33t33 -49t13 -60q0 -32 -13 -61t-33 -49t-49 -33q-22 -10 -61 -10t-62 10q-29 13 -49 33q-18 18 -32 49q-13 29 -13 59z" />
<glyph unicode=";" horiz-adv-x="399" d="M53 156q0 33 10 53q14 28 31 45q16 16 45 29q22 10 62 10t67 -12t47 -39t29 -56q10 -33 10 -65q0 -53 -14 -105q-8 -30 -45 -106q-27 -55 -70 -107q-44 -54 -96 -94l-43 41q-20 17 -20 37q0 9 6 18q10 15 14 19q19 19 29 31q25 31 32 41q25 40 29 49q17 38 21 59 q-35 0 -58 10q-30 13 -47 33t-29 47q-10 22 -10 62zM45 868q0 35 12 62q13 29 33 49t49 33q27 12 62 12q34 0 61 -12q29 -13 49 -33t33 -49q12 -27 12 -62q0 -32 -12 -59q-13 -29 -33 -49t-49 -33q-22 -10 -61 -10t-62 10q-29 13 -49 33t-33 49q-12 27 -12 59z" />
<glyph unicode="&#x3c;" horiz-adv-x="901" d="M41 741l811 422v-178q0 -26 -8 -39q-7 -14 -35 -28l-371 -191q-7 -3 -51 -20q-34 -13 -55 -17q26 -5 55 -16q36 -13 51 -21l371 -190q26 -13 35 -31q8 -16 8 -37v-180l-811 424v102z" />
<glyph unicode="=" horiz-adv-x="1024" d="M59 602h908v-188h-908v188zM59 963h908v-189h-908v189z" />
<glyph unicode="&#x3e;" horiz-adv-x="903" d="M49 215v180q0 17 10 37q9 18 35 31l371 190q56 25 104 37q-21 4 -55 17q-36 14 -49 20l-371 191q-28 14 -35 28q-10 20 -10 37v180l811 -422v-102z" />
<glyph unicode="?" horiz-adv-x="858" d="M33 1348q39 34 76 57q55 34 90 49q41 17 104 31q56 12 123 12q88 0 162 -24q73 -24 125 -70q56 -50 82 -111q28 -67 28 -145q0 -70 -24 -133q-20 -56 -56 -101q-30 -37 -75 -71q-12 -9 -37.5 -28.5t-38.5 -29.5q-32 -23 -62 -53q-25 -28 -30 -59l-25 -150h-172l-18 166 v10v9q0 41 22 77q24 40 55 64q28 24 74 55q12 8 24 18.5t26.5 24t21.5 19.5q42 42 57 71q23 44 23 99q0 27 -15 65q-11 27 -36 49q-23 20 -60 33q-34 12 -76 12q-51 0 -98 -14q-32 -9 -67 -29q-36 -20 -48 -28q-19 -13 -36 -13q-38 0 -54 31zM225 139q0 31 13 60 q14 31 32 49q24 24 49 35q27 12 62 12q34 0 61 -12q31 -14 50 -33q18 -18 32 -49q13 -29 13 -62q0 -32 -13 -61q-14 -31 -32 -49q-16 -16 -50 -31q-27 -12 -61 -12q-35 0 -62 12q-32 14 -49 31q-18 18 -32 49q-13 29 -13 61z" />
<glyph unicode="@" horiz-adv-x="1630" d="M1163 188q-72 0 -125 33q-54 34 -75 107q-67 -80 -127 -107q-70 -31 -146 -31q-58 0 -112 23q-51 22 -80 61q-38 51 -49 93q-15 56 -15 118q0 55 15 117t45 117q29 54 73 104q38 43 105 84q60 37 135 58q77 22 166 22q79 0 135 -12q36 -8 109 -37l-99 -379 q-16 -69 -16 -108q0 -26 8 -54q9 -21 20 -32q10 -10 31 -17q12 -4 39 -4q44 0 82 27q45 32 68 75q26 48 45 119q18 67 18 148q0 132 -43 233q-45 106 -115 170q-75 69 -178 103t-225 34q-129 0 -250 -51q-113 -48 -201 -139q-80 -82 -131 -207q-47 -114 -47 -258 q0 -172 51 -297q52 -127 144 -213q91 -85 215 -129q116 -41 266 -41q88 0 148 8q71 10 124 23q49 13 107 35q28 11 82 41q18 10 37 10q30 0 41 -33l35 -92q-106 -69 -248 -113q-139 -43 -326 -43t-342 58q-160 60 -274 168q-117 111 -181 266q-65 157 -65 352q0 100 29 213 q24 94 81 193q53 92 125 167q63 66 164 129q83 52 195 84q109 31 221 31q144 0 278 -49q132 -48 236 -139q104 -90 166 -221q61 -128 61 -293q0 -106 -32 -207q-29 -91 -91 -166q-59 -71 -137 -111q-80 -41 -170 -41zM739 352q30 0 54 8q32 11 53 29q22 19 45 57 q21 35 33 86l75 289q-35 6 -67 6q-66 0 -119 -26q-52 -25 -96 -76q-39 -45 -64 -109q-24 -62 -24 -124q0 -64 28 -103q27 -37 82 -37z" />
<glyph unicode="A" horiz-adv-x="1662" d="M1585 158q39 -14 39 -54v-104h-72h-159h-35h-19h-215v104q0 36 41 54q1 1 6.5 2.5t15 5.5t19.5 8l-8 23l-74 200h-589l-76 -211l-6 -12q10 -4 19.5 -8t15 -5.5t6.5 -2.5q41 -18 41 -54v-104h-213h-21h-33h-162h-71v104q0 36 41 54q35 14 112 47l500 1276h283l502 -1276 q77 -33 112 -47zM774 1051l-168 -459h449l-170 461q-4 10 -13 34.5t-14 40.5q-4 12 -29 99q-25 -89 -28 -99q-4 -14 -8.5 -27.5t-10 -27.5t-8.5 -22z" />
<glyph unicode="B" horiz-adv-x="1320" d="M989 766q305 -68 305 -330q0 -96 -37 -174q-39 -83 -104 -139q-63 -54 -168 -90q-98 -33 -229 -33h-559h-156v121q0 51 51 63l4 1q4 1 8 1q3 0 13.5 3t17.5 4q6 1 15.5 2.5t23.5 3.5t23 4v1075q-9 2 -23 4t-23.5 3.5t-15.5 2.5q-7 1 -17.5 3.5t-13.5 2.5q-4 0 -8 1l-4 1 q-51 12 -51 64v121h156h510q142 0 247 -27t170 -80q67 -52 97 -125q30 -74 30 -162q0 -54 -14 -100q-12 -40 -49 -90q-30 -38 -82 -74q-45 -31 -117 -57zM471 1268v-428h221q142 0 213 51q72 51 72 164t-66 164q-64 49 -204 49h-236zM1008 354q14 38 14 88q0 43 -16 86 q-17 41 -48 66q-34 27 -84 41q-49 14 -124 14h-279v-434h281q76 0 129 18q49 17 82 50q34 34 45 71z" />
<glyph unicode="C" horiz-adv-x="1304" d="M1135 1014q-39 0 -48 37q-6 26 -18 163q-164 48 -283 48q-109 0 -192 -35q-88 -37 -150 -105q-61 -67 -98 -164q-37 -98 -37 -219q0 -123 37 -221q39 -104 94 -164q57 -62 144 -102q77 -35 176 -35q56 0 102 6q41 5 84 19q34 11 72 34q16 10 67 54q5 5 23 14q8 4 25 4 q25 0 38 -16l109 -119q-89 -111 -221 -170q-133 -59 -318 -59q-159 0 -295 57q-137 57 -225 156q-95 106 -143 239q-49 137 -49 303q0 171 55 308q54 135 156 237q105 105 239 158q137 55 309 55q191 0 465 -106v-377h-118z" />
<glyph unicode="D" horiz-adv-x="1519" d="M1434 1040q55 -134 55 -299t-55 -299q-58 -141 -152 -235t-238 -152q-137 -55 -305 -55h-542h-156v121q0 51 51 63l4 1q4 1 8 1q3 0 13.5 3t17.5 4q6 1 15.5 2.5t23.5 3.5t23 4v1075q-9 2 -23 4t-23.5 3.5t-15.5 2.5q-7 1 -17.5 3.5t-13.5 2.5q-4 0 -8 1l-4 1 q-51 12 -51 64v121h156h542q166 0 305 -56q146 -59 238 -151q95 -95 152 -234zM1174 522q32 92 32 219q0 125 -32 217q-38 103 -93 164q-58 64 -147 103q-84 37 -195 37h-266v-1043h266q111 0 195 37q90 39 147 102q58 64 93 164z" />
<glyph unicode="E" horiz-adv-x="1175" d="M197 1481h933v-144v-75v-170h-10h-24h-84q-38 0 -47 38q-12 96 -15 132h-477v-410h502v-213h-502v-418h477q3 33 15 131q9 39 47 39h84h24h10v-170v-78v-143h-933h-156v121q0 51 51 63l4 1q4 1 8 1q3 0 13.5 3t17.5 4q6 1 15.5 2.5t23.5 3.5t23 4v1075q-9 2 -23 4 t-23.5 3.5t-15.5 2.5q-7 1 -17.5 3.5t-13.5 2.5q-4 0 -8 1l-4 1q-51 12 -51 64v121h156z" />
<glyph unicode="F" horiz-adv-x="1214" d="M1130 1481h52v-144v-47v-198h-8h-25h-86q-38 0 -47 38q-12 96 -15 132h-528v-439h518v-219h-518v-401q9 -2 23 -4t23.5 -3.5t15.5 -2.5q7 -1 17 -4t13 -3t8 -1l5 -1q51 -12 51 -63v-121h-156h-276h-156v121q0 51 51 63l4 1q4 1 8 1q3 0 13.5 3t17.5 4q6 1 15.5 2.5 t23.5 3.5t23 4v1075q-9 2 -23 4t-23.5 3.5t-15.5 2.5q-7 1 -17.5 3.5t-13.5 2.5q-6 2 -12 2q-51 12 -51 64v121h156h886h47z" />
<glyph unicode="G" horiz-adv-x="1378" d="M846 741h491v-598q-60 -43 -116 -71q-66 -32 -129 -49q-78 -21 -150 -29q-88 -10 -170 -10q-158 0 -297 57t-235 156q-102 105 -156 239q-55 137 -55 305q0 174 53 306q56 139 156 239q96 99 241 156q134 52 305 55h13h2q236 0 524 -106v-377h-8h-27h-84q-38 0 -47 37 q-6 27 -18 159q-152 52 -351 52q-109 0 -196 -37q-92 -39 -152 -105t-96 -164q-35 -96 -35 -215q0 -131 37 -229q38 -103 100 -168t154 -104q87 -37 195 -37q86 0 161 16q64 14 131 47v269h-184q-27 0 -43 16q-14 14 -14 35v155z" />
<glyph unicode="H" horiz-adv-x="1640" d="M1548 1296l-4 -1q-4 -1 -8 -1q-3 0 -13.5 -2.5t-17.5 -3.5t-27 -4.5t-32 -5.5v-1075q12 -2 32 -5.5t27 -4.5t17.5 -4t13.5 -3q4 0 8 -1l4 -1q51 -12 51 -63v-121h-153h-279h-153v121q0 51 51 63q6 0 12 2q13 4 31 7q7 1 27 4.5t32 5.5v444h-694v-444q9 -2 23 -4 t23.5 -3.5t15.5 -2.5q7 -1 17 -4t13 -3q6 -2 13 -2q51 -12 51 -63v-121h-156h-276h-156v121q0 51 51 63l4 1q4 1 8 1q3 0 13.5 3t17.5 4q6 1 15.5 2.5t23.5 3.5t23 4v1075q-9 2 -23 4t-23.5 3.5t-15.5 2.5q-7 1 -17.5 3.5t-13.5 2.5q-6 2 -12 2q-51 12 -51 64v121h156h276 h156v-121q0 -52 -51 -64q-7 0 -13 -2q-3 0 -13 -2.5t-17 -3.5q-6 -1 -15.5 -2.5t-23.5 -3.5t-23 -4v-434h694v434q-12 2 -32 5.5t-27 4.5q-23 3 -31 6q-3 0 -7 1t-5 1q-51 12 -51 64v121h153h279h153v-121q0 -52 -51 -64z" />
<glyph unicode="I" horiz-adv-x="667" d="M575 1296q-1 0 -5 -1t-7 -1t-13.5 -2.5t-17.5 -3.5t-27 -4.5t-32 -5.5v-1075q12 -2 32 -5.5t27 -4.5t17.5 -4t13.5 -3t7 -1t5 -1q52 -12 52 -63v-121h-154h-276h-156v121q0 51 51 63l4 1q4 1 8 1q14 4 31 7q6 1 15.5 2.5t23.5 3.5t23 4v1075q-9 2 -23 4t-23.5 3.5 t-15.5 2.5q-7 1 -17.5 3.5t-13.5 2.5q-6 2 -12 2q-51 12 -51 64v121h156h276h154v-121q0 -52 -52 -64z" />
<glyph unicode="J" horiz-adv-x="925" d="M739 1481h156v-121q0 -52 -51 -64l-5 -1q-5 -1 -8 -1t-13 -2.5t-17 -3.5q-6 -1 -15.5 -2.5t-23.5 -3.5t-23 -4v-752q0 -123 -30 -225q-29 -99 -91 -170t-153 -108q-95 -39 -211 -39q-56 0 -109 6q-47 5 -112 22l14 164q3 19 19 35q18 14 43 14q18 0 45 -6q36 -8 71 -8 q62 0 103 16q41 13 75 56q32 40 46 94q16 62 16 143v758q-55 9 -66 10q-9 1 -22 3.5t-17 2.5q-5 0 -12 1l-6 1q-51 12 -51 64v121h174h274z" />
<glyph unicode="K" horiz-adv-x="1507" d="M1417 184q51 -12 51 -63v-121h-14h-139h-80h-25h-315v121q0 51 51 63q9 0 17 2q3 1 8.5 2.5t10.5 2.5t9 2l-313 409q-17 22 -47 37q-24 12 -72 12h-88v-448q10 -2 31.5 -5.5t29.5 -4.5q7 -1 17.5 -4t13.5 -3t7 -1t5 -1q52 -12 52 -63v-121h-156h-274h-156v121q0 51 51 63 q6 0 12 2q14 4 31 7q6 1 15.5 2.5t23.5 3.5t23 4v1075q-13 2 -34.5 6.5t-27.5 5.5q-28 4 -31 4q-4 0 -8 1l-4 1q-51 12 -51 66v119h156h274h156v-119q0 -54 -52 -66q-1 0 -5 -1t-7 -1q-3 -1 -7.5 -1.5t-11.5 -1t-12 -1.5q-6 -1 -27 -5.5t-34 -6.5v-418h66q43 0 63 10 q30 15 45 35l305 387q-2 0 -6.5 1t-7.5 1q-4 0 -8 1l-4 1q-52 12 -52 64v121h338h52h155v-121q0 -52 -51 -64q-2 0 -7 -1t-9 -1t-17 -2.5t-20 -3.5t-16.5 -2.5t-23 -4t-22.5 -3.5l-333 -414q-28 -32 -46 -47q-27 -23 -47 -33q33 -12 62 -34q28 -21 53 -58l365 -489 q10 -2 30 -5.5t29 -4.5q8 -1 20.5 -4t16.5 -3q5 0 10 -1t6 -1z" />
<glyph unicode="L" horiz-adv-x="1157" d="M1004 354h110v-207v-38v-109h-49h-6h-862h-156v121q0 51 51 63q6 0 12 2q14 4 31 7q6 1 15.5 2.5t23.5 3.5t23 4v1075q-9 2 -23 4t-23.5 3.5t-15.5 2.5q-7 1 -17.5 3.5t-13.5 2.5q-6 2 -12 2q-51 12 -51 64v121h156h274h156v-121q0 -52 -52 -64q-6 0 -12 -2q-8 -3 -31 -6 q-8 -1 -29.5 -4.5t-31.5 -5.5v-1051h477q6 82 8 88q9 39 48 39z" />
<glyph unicode="M" horiz-adv-x="1996" d="M1905 1296q-1 0 -5 -1t-8 -1q-3 0 -13 -2.5t-17 -3.5t-27.5 -4.5t-32.5 -5.5v-1075q12 -2 32.5 -5.5t27.5 -4.5t17 -4t13 -3q4 0 8 -1t5 -1q51 -12 51 -63v-121h-154h-243h-185v121q0 51 51 63q1 0 134 19v753q0 9 1 28.5t1 29.5q0 19 4 65l-447 -839q-16 -30 -41 -45 q-27 -17 -57 -17h-37q-30 0 -57 17q-25 15 -41 45l-453 841q1 -11 2 -33t2 -32q2 -20 2 -60v-753q36 -5 70 -10t47.5 -7t15.5 -2q52 -12 52 -63v-121h-185h-241h-156v121q0 51 51 63q6 0 12 2q14 4 31 7q6 1 15.5 2.5t23.5 3.5t23 4v1075q-9 2 -23 4t-23.5 3.5t-15.5 2.5 q-7 1 -17.5 3.5t-13.5 2.5q-6 2 -12 2q-51 12 -51 64v121h156h206q7 0 18 -1t15 -1q13 0 25 -4q4 -1 18 -15q12 -12 19 -24l442 -822q11 -22 31 -67q15 -35 30 -72q5 13 14.5 36.5t14.5 35.5q10 25 33 69l438 820q10 18 17 24q13 13 20 15q16 4 25 4q4 0 14 1t16 1h209h154 v-121q0 -52 -51 -64z" />
<glyph unicode="N" horiz-adv-x="1630" d="M1446 1481h153v-121q0 -52 -51 -64l-4 -1q-4 -1 -8 -1q-3 0 -13.5 -2.5t-17.5 -3.5t-27 -4.5t-32 -5.5v-1278h-143q-31 0 -54 10q-21 9 -43 37l-774 985q4 -46 4 -63q0 -10 1 -30.5t1 -29.5v-706q36 -5 70 -10t47.5 -7t15.5 -2q52 -12 52 -63v-121h-185h-241h-156v121 q0 51 51 63q6 0 12 2q14 4 31 7q6 1 15.5 2.5t23.5 3.5t23 4v1075q-9 2 -23 4t-23.5 3.5t-15.5 2.5q-7 1 -17.5 3.5t-13.5 2.5q-4 0 -8 1l-4 1q-51 12 -51 64v121h156h143q6 0 17 -1t14 -1q13 0 22 -6q9 -3 19 -13q4 -4 20 -24l778 -990q-1 12 -6 70q-2 23 -2 66v696 q-129 18 -133 18q-51 12 -51 64v121h184h244z" />
<glyph unicode="O" d="M1530 741q0 -166 -55 -303q-57 -141 -152 -239q-99 -102 -238 -158q-142 -57 -305 -57q-165 0 -307 57q-137 55 -237 158q-99 102 -154 239q-53 132 -53 303q0 169 53 301q56 139 154 240q100 103 237 158q142 57 307 57q171 0 305 -57q144 -61 238 -158q95 -98 152 -240 q55 -137 55 -301zM1247 741q0 108 -33 217q-29 94 -92 164q-62 68 -147 105q-80 35 -195 35q-116 0 -196 -35q-87 -38 -148 -105q-60 -65 -94 -164q-33 -95 -33 -217q0 -124 33 -219q34 -99 94 -164q59 -65 148 -104q80 -35 196 -35q115 0 195 35q87 38 147 104 q63 70 92 164q33 109 33 219z" />
<glyph unicode="P" horiz-adv-x="1259" d="M1194 1200q35 -87 35 -190q0 -112 -37 -199q-39 -92 -107 -154q-66 -60 -180 -100q-101 -35 -252 -35h-182v-319q10 -2 31.5 -5.5t29.5 -4.5q7 -1 17.5 -4t13.5 -3t7 -1t5 -1q52 -12 52 -63v-121h-156h-274h-156v121q0 51 51 63l4 1q4 1 8 1q14 4 31 7q6 1 15.5 2.5 t23.5 3.5t23 4v1075q-9 2 -23 4t-23.5 3.5t-15.5 2.5q-7 1 -17.5 3.5t-13.5 2.5q-6 2 -12 2q-51 12 -51 64v121h156h456q148 0 258 -35q105 -34 179 -98q68 -60 104 -148zM934 895q18 50 18 115q0 56 -18 106q-17 47 -55 82q-35 32 -93 51q-59 19 -133 19h-182v-531h182 q74 0 133 19t93 53q37 34 55 86z" />
<glyph unicode="Q" horiz-adv-x="1630" d="M1530 741q0 -99 -21 -190q-20 -87 -59 -170q-34 -72 -94 -145q-57 -69 -125 -117l375 -410h-226q-39 0 -90 15q-36 11 -71 49l-218 239q-48 -14 -106 -20q-74 -8 -115 -8q-165 0 -307 57q-137 55 -237 158q-99 102 -154 239q-53 132 -53 303q0 169 53 301q56 139 154 240 q100 103 237 158q142 57 307 57q171 0 305 -57q144 -61 238 -158q95 -98 152 -240q55 -137 55 -301zM1247 741q0 108 -33 217q-29 94 -92 164q-62 68 -147 105q-80 35 -195 35q-114 0 -194 -35q-90 -40 -150 -105t-94 -164q-33 -95 -33 -217q0 -124 33 -219q34 -99 94 -164 q58 -64 150 -104q80 -35 194 -35q115 0 195 35q87 38 147 104q63 70 92 164q33 109 33 219z" />
<glyph unicode="R" horiz-adv-x="1402" d="M1315 184q51 -12 51 -63v-121h-29h-127h-120q-40 0 -62 14q-23 15 -41 41l-311 475q-16 24 -39 37t-62 13h-104v-377q10 -2 31.5 -5.5t29.5 -4.5q7 -1 17.5 -4t13.5 -3t7 -1t5 -1q52 -12 52 -63v-121h-156h-274h-156v121q0 51 51 63l4 1q4 1 8 1q14 4 31 7q6 1 15.5 2.5 t23.5 3.5t23 4v1075q-9 2 -23 4t-23.5 3.5t-15.5 2.5q-7 1 -17.5 3.5t-13.5 2.5q-4 0 -8 1l-4 1q-51 12 -51 64v121h156h436q148 0 260 -31q104 -29 176 -88q72 -60 102 -135q33 -76 33 -172q0 -71 -22 -142q-18 -56 -64 -120q-39 -54 -102 -95q-62 -41 -139 -65 q52 -30 90 -86l233 -344q57 -9 64 -10q8 -1 19 -4t15 -3q5 0 11 -1zM764 797q58 18 96 53q36 33 55 82t19 102q0 112 -74 174q-72 60 -227 60h-162v-492h158q67 0 135 21z" />
<glyph unicode="S" horiz-adv-x="1034" d="M977 621q29 -62 29 -158q0 -97 -35 -187t-101 -153q-65 -65 -161 -103q-91 -36 -217 -36h-31q-195 0 -424 77v37v344h8h25h84q38 0 47 -36q6 -26 18 -170q89 -27 281 -27q118 0 182 55q63 54 63 160q0 57 -28 96q-27 37 -78 62q-58 28 -109 43q-110 32 -124 37 q-52 17 -125 49q-59 26 -111 75q-50 47 -76 115q-31 77 -31 170q0 85 33 158q30 76 94 137q56 53 152 94q87 37 207 37q215 0 424 -84v-379h-8h-25h-84q-38 0 -47 39q-6 26 -18 166q-73 33 -240 33q-55 0 -98 -12q-46 -16 -72 -39q-31 -27 -45 -60q-14 -32 -14 -76 q0 -48 30 -86q28 -36 76 -59q65 -32 111 -45q24 -7 71 -23t54 -18q30 -10 124 -51q61 -27 111 -74q54 -51 78 -108z" />
<glyph unicode="T" horiz-adv-x="1296" d="M1231 1481h33v-351h-9h-24h-84q-40 0 -49 39q-8 45 -11 84h-301v-1050q12 -2 32.5 -5.5t27.5 -4.5t17.5 -4t13.5 -3t7 -1t5 -1q53 -12 53 -63v-121h-156h-276h-154v121q0 51 52 63l4 1q4 1 8 1q3 0 13.5 3t17.5 4t27 4.5t32 5.5v1052h-301q-5 -56 -10 -86q-9 -39 -47 -39 h-86h-25h-8v351h30h3h1165z" />
<glyph unicode="U" horiz-adv-x="1599" d="M1413 1481h156v-121q0 -52 -51 -64l-5 -1q-5 -1 -8 -1t-13 -2.5t-17 -3.5q-6 -1 -15.5 -2.5t-23.5 -3.5t-23 -4v-684q0 -134 -43 -244q-45 -115 -121 -194q-81 -81 -194 -127q-110 -45 -256 -45t-256 45q-111 45 -193 127q-79 82 -123 194q-41 105 -41 244v684 q-10 2 -31.5 5.5t-29.5 4.5q-7 1 -17.5 3.5t-13.5 2.5q-4 0 -8 1l-4 1q-51 12 -51 64v121h155h275h164v-121q0 -52 -52 -64q-1 0 -6 -1t-8 -1t-15 -2.5t-20 -3.5q-2 0 -63 -10v-682q0 -92 22 -154q20 -63 68 -118q41 -46 104 -74q61 -27 144 -27q81 0 143 27q68 30 107 74 q40 45 65 116q25 80 25 154v684q-57 9 -64 10q-8 1 -20 3.5t-15 2.5q-4 0 -9 1l-5 1q-51 12 -51 64v121h164h274z" />
<glyph unicode="V" horiz-adv-x="1652" d="M1548 1481h70v-121q0 -52 -51 -64q-2 0 -6 -1t-7 -1t-12 -2.5t-16 -3.5t-27.5 -4.5t-32.5 -5.5l-516 -1278h-248l-518 1278q-13 2 -31.5 5.5t-25.5 4.5t-17.5 3.5t-13.5 2.5q-6 2 -12 2q-51 12 -51 64v121h71h84h138h260v-121q0 -52 -51 -64q-7 0 -11 -2q-7 -3 -20 -6 q-4 -1 -15 -4t-18 -4l295 -766q18 -44 33 -96t30 -111q23 112 60 207l293 766q-7 1 -18 4t-15 4q-18 4 -23 6q-4 2 -10 2q-51 12 -51 64v121h262h137h84z" />
<glyph unicode="W" horiz-adv-x="2320" d="M2220 1481h70v-121q0 -52 -52 -64q-1 0 -3.5 -0.5l-7.5 -1.5t-11 -2q-7 -1 -25.5 -4.5t-31.5 -5.5l-400 -1282h-248l-323 1012q-2 6 -12 41q-1 5 -7 22.5t-8 26.5q-1 -4 -5.5 -22.5t-6.5 -26.5q-5 -20 -12 -41l-328 -1012h-248l-397 1282q-12 2 -32.5 5.5t-27.5 4.5 q-6 1 -11 2l-7.5 1.5t-3.5 0.5q-51 12 -51 64v121h71h84h146h252v-121q0 -52 -52 -64q-6 0 -10 -2q-5 -3 -22 -6q-28 -6 -35 -8l211 -748q12 -46 18 -71q2 -10 7.5 -38t7.5 -44q11 51 18 82q7 29 21 71l290 885q10 25 33 43q28 21 57 21h82q37 0 60 -17t33 -47l288 -885 q28 -85 39 -145q5 35 15 76q5 34 16 69l211 746q-42 8 -84 18q-51 12 -51 64v121h266h131h86z" />
<glyph unicode="X" horiz-adv-x="1595" d="M1505 184q51 -12 51 -63v-121h-77h-68h-18h-189h-276v121q0 51 51 63q40 8 61 13l-252 417q-3 -11 -10 -22q-1 -2 -4.5 -10t-5.5 -11l-231 -368q23 -5 86 -19q51 -12 51 -63v-121h-303h-168h-13h-77h-76v121q0 51 53 63q25 5 154 19l362 559l-340 516q-143 15 -157 18 q-52 12 -52 64v121h76h78h10h187h286v-121q0 -52 -51 -64q-19 -3 -41 -8t-27 -6l234 -379q2 4 6 13.5t6 13.5q9 18 15 26l204 324q-7 2 -32.5 7t-44.5 9q-52 12 -52 64v121h291h170h23h71h70v-121q0 -52 -51 -64q-18 -3 -156 -18l-340 -504l361 -571q118 -13 155 -19z" />
<glyph unicode="Y" horiz-adv-x="1486" d="M1421 1481h33v-121q0 -52 -51 -64q-2 0 -5.5 -1t-6.5 -1t-13.5 -2.5t-17.5 -3.5t-27.5 -4.5t-32.5 -5.5l-417 -703v-372q12 -2 32 -5.5t27 -4.5t17.5 -4t13.5 -3t7 -1t5 -1q51 -12 51 -63v-121h-153h-277h-155v121q0 51 51 63q8 0 14 2q14 4 31 7q7 1 27 4.5t32 5.5v372 l-418 703q-10 2 -31.5 5.5t-29.5 4.5q-7 1 -17.5 3.5t-13.5 2.5q-6 2 -12 2q-51 12 -51 64v121h35h36h84h121h277v-121q0 -52 -51 -64q-1 0 -4 -1t-5 -1q-4 -2 -20 -6q-4 -1 -29 -6l197 -358q23 -42 41 -82q7 -16 17 -43t13 -35q7 25 31 78q18 40 41 82l195 358 q-2 0 -14 2.5t-17 3.5q-4 1 -10 3.5t-8 2.5q-4 2 -11 2q-51 12 -51 64v121h277h120h86h37z" />
<glyph unicode="Z" horiz-adv-x="1214" d="M1151 1292l-760 -1073h594q4 38 9 72.5t7.5 50.5t2.5 18q9 39 47 39h108v-180v-219h-1124v109q0 20 6 38q8 25 18 37l762 1078h-563q-4 -40 -9 -76t-7 -52t-2 -18q-9 -39 -47 -39h-109l-2 404h1096v-103q0 -46 -27 -86z" />
<glyph unicode="[" horiz-adv-x="507" d="M57 -315v1900h418v-100q0 -27 -18 -45q-19 -19 -47 -19h-144v-1573h144q29 0 47 -18t18 -47v-98h-418z" />
<glyph unicode="\" horiz-adv-x="894" d="M31 1522h108q45 0 78 -23q34 -24 51 -65l596 -1532h-106q-40 0 -78 24q-37 24 -55 70z" />
<glyph unicode="]" horiz-adv-x="505" d="M33 -315v98q0 29 18 47t47 18h144v1573h-144q-28 0 -47 19q-18 18 -18 45v100h418v-1900h-418z" />
<glyph unicode="^" horiz-adv-x="1003" d="M967 795h-187q-24 0 -39 12q-14 11 -24 31l-164 297q-5 9 -27 53q-13 26 -22 53q-15 -45 -19 -53q-2 -3 -11 -22.5t-15 -30.5l-160 -297q-9 -18 -25 -31q-15 -12 -41 -12h-196l383 686h164z" />
<glyph unicode="_" horiz-adv-x="948" d="M877 -137v-164h-807v164h807z" />
<glyph unicode="`" horiz-adv-x="571" d="M283 1497q40 0 61 -14q23 -15 37 -41l145 -248h-145q-21 0 -45 8q-24 12 -37 27l-254 268h238z" />
<glyph unicode="a" horiz-adv-x="1067" d="M979 186q51 -12 51 -63v-121h-129h-27h-86q-40 0 -57 10q-22 9 -31 45l-22 74q-42 -39 -78 -63q-34 -25 -80 -45q-41 -18 -86 -27q-52 -10 -102 -10q-68 0 -123 18q-60 19 -96 53q-44 41 -64 90q-22 55 -22 123q0 61 30 119q29 57 105 105t192 77q124 31 301 31v62 q0 103 -45 157q-42 51 -129 51q-64 0 -102 -14q-44 -16 -72 -33q-10 -6 -28.5 -15.5t-26.5 -14.5q-24 -15 -55 -15q-25 0 -45 13q-14 9 -29 32l-47 80q183 168 436 168q90 0 166 -31q70 -30 121 -84q57 -63 78 -129q24 -74 24 -163v-465q13 -2 31.5 -6t23.5 -5t10.5 -2 t8.5 -1.5t4 -0.5zM655 272v177q-111 0 -184 -15q-71 -15 -121 -37q-43 -20 -63 -49q-19 -28 -19 -63q0 -71 39 -97q42 -28 103 -28q36 0 71 6q36 6 64 22q35 19 55 35q27 21 55 49z" />
<glyph unicode="b" horiz-adv-x="1189" d="M1130 762q29 -106 29 -227q0 -108 -33 -220q-28 -97 -90 -174q-57 -72 -143 -114q-78 -41 -186 -41q-232 0 -514 57v328v948q-57 9 -64 10q-8 1 -20 3.5t-15 2.5q-4 0 -9 1l-5 1q-51 12 -51 64v121h164h251v-600q57 63 142 106q77 39 184 39q92 0 158 -35 q70 -34 123 -102q51 -66 79 -168zM881 375q16 60 16 160q0 95 -14 155q-14 62 -43 105q-25 38 -68 57q-41 18 -88 18q-84 0 -135 -32q-57 -36 -105 -95v-546q108 -19 205 -19q57 0 103 21q47 21 77 65q37 53 52 111z" />
<glyph unicode="c" horiz-adv-x="940" d="M844 250l71 -92q-48 -55 -90 -84q-44 -31 -102 -54q-46 -16 -109 -26q-49 -8 -112 -8q-105 0 -183 34q-85 37 -149 107q-66 72 -102 170q-37 101 -37 231q0 121 32 213q34 98 99 172q62 71 160 113q96 41 219 41q130 0 331 -76l-2 -323h-8h-24h-84q-38 0 -47 39 q-12 97 -17 147q-76 20 -135 20q-67 0 -117 -24q-49 -24 -82 -68q-37 -50 -51 -110q-16 -69 -16 -144q0 -84 18 -149q19 -68 51 -111q35 -44 82 -67q54 -23 109 -23q61 0 98 15q46 18 64 32q5 4 21.5 15.5t23.5 17.5q17 14 41 14q33 0 47 -22z" />
<glyph unicode="d" horiz-adv-x="1173" d="M1141 125v-121h-144h-155q-23 0 -41 12q-17 11 -23 35l-20 96q-59 -67 -146 -116q-80 -45 -194 -45q-92 0 -156 34q-70 38 -123 105q-53 68 -80 168q-28 106 -28 229q0 115 30 217q27 91 93 174q56 70 141 115q82 43 186 43q86 0 152 -29t110 -73v350q-15 2 -34 5.5 t-25 4.5q-7 1 -17.5 3.5t-13.5 2.5t-7 1t-5 1q-51 12 -51 64v121h153h254v-1317q13 -2 31.5 -4.5t22.5 -3.5q7 -1 15.5 -4t10.5 -3t6.5 -1t6.5 -1q51 -12 51 -63zM745 311v471q-44 53 -94 74q-57 23 -110 23q-52 0 -103 -23q-44 -20 -80 -65q-32 -46 -49 -111 q-16 -60 -16 -158q0 -97 14 -157q14 -59 43 -103q28 -42 66 -59q43 -19 90 -19q82 0 135 33q57 35 104 94z" />
<glyph unicode="e" horiz-adv-x="1021" d="M537 1067q97 0 182 -31q77 -28 143 -94q59 -59 94 -149t35 -201q0 -25 -4 -49q-4 -23 -8 -29q-5 -9 -18 -16q-8 -4 -29 -4h-649q12 -162 88 -238t200 -76q61 0 105 15q44 14 78 32q57 30 59 31q22 14 47 14q17 0 29 -6q10 -5 18 -16l74 -92q-46 -53 -94 -84 q-56 -37 -109 -54q-53 -16 -116 -26q-52 -8 -115 -8q-117 0 -203 34q-91 36 -164 109q-69 69 -110 176q-39 101 -39 244q0 105 35 201q34 93 100 165q63 69 158 111q93 41 213 41zM541 887q-108 0 -172 -64q-62 -62 -80 -176h475q0 41 -14 92q-10 36 -41 76q-26 33 -70 51 q-51 21 -98 21z" />
<glyph unicode="f" horiz-adv-x="753" d="M451 1208q-15 -51 -15 -96v-70h275v-180h-265v-659q9 -1 22.5 -3.5t23 -4t16.5 -2.5q8 -1 20.5 -4t16.5 -3q5 0 11 -1l5 -1q51 -12 51 -63v-121h-166h-2h-251h-156v121q0 51 51 63q8 0 14 2q14 4 31 7q7 1 27.5 4.5t32.5 5.5v657l-91 14q-31 6 -49 21q-16 13 -16 43v102 h156v78q0 94 26 162q30 77 78 123q54 50 123 76q71 26 164 26q74 0 135 -18l-4 -127q-3 -31 -29 -37q-32 -8 -59 -8q-49 0 -80 -8q-34 -9 -60 -35q-24 -24 -36 -64z" />
<glyph unicode="g" horiz-adv-x="1056" d="M489 1069q59 0 127 -14q54 -11 109 -41h301v-94q0 -25 -12 -37q-14 -13 -41 -19l-94 -16q7 -19 14 -57q6 -30 6 -62q0 -77 -31 -141t-86 -107q-53 -42 -131 -67q-77 -25 -162 -25q-70 0 -116 10q-49 -30 -49 -65q0 -33 28 -47q30 -15 78 -21q66 -8 109 -8l123 -6 q51 -5 124 -19q52 -10 107 -40q50 -27 78 -74q28 -46 28 -123q0 -71 -34 -135q-35 -65 -99 -117q-63 -52 -159 -82q-98 -31 -215 -31q-124 0 -209 23q-88 24 -146 61t-86 88t-28 105q0 77 45 125t125 78q-38 20 -62 57q-25 39 -25 94q0 25 9 49q13 34 24 49q23 30 43 48 q16 14 62 38q-80 44 -127 115q-45 68 -45 168q0 79 30 141t88 107q54 43 132 67q80 25 167 25zM766 -47q0 31 -18 49t-50 31q-22 9 -75 16q-32 4 -91 8q-17 1 -49.5 2t-48.5 2q-50 3 -96 9q-45 -25 -70 -56q-26 -32 -26 -73q0 -24 14 -52q12 -25 43 -43q27 -16 80 -26 q55 -10 117 -10q70 0 122 12q54 12 84 28q32 16 50 46q14 22 14 57zM489 551q47 0 82 12t58 35q20 17 35 55q12 30 12 70q0 76 -47 123q-45 45 -140 45q-96 0 -141 -45t-45 -123q0 -45 10 -70q12 -30 35 -53q26 -26 60 -37q38 -12 81 -12z" />
<glyph unicode="h" horiz-adv-x="1300" d="M1212 184q52 -12 52 -63v-121h-154h-254v668q0 98 -45 149q-44 53 -133 53q-64 0 -123 -30q-60 -31 -109 -80v-557q9 -2 23 -4t23.5 -3.5t15.5 -2.5q7 -1 17.5 -4t13.5 -3q6 -2 12 -2q51 -12 51 -63v-121h-156h-251h-156v121q0 51 51 63l4 1q4 1 8 1q3 0 13.5 3t17.5 4 q6 1 15.5 2.5t23.5 3.5t23 4v1116q-9 2 -23 4t-23.5 3.5t-15.5 2.5q-7 1 -17.5 3.5t-13.5 2.5q-4 0 -8 1l-4 1q-51 12 -51 64v121h156h251v-586q56 53 136 94q73 37 174 37q79 0 151 -29q59 -24 111 -82q42 -51 67 -127q25 -87 25 -159v-467q12 -2 32 -5.5t27 -4.5 q17 -3 31 -7q6 -2 12 -2z" />
<glyph unicode="i" horiz-adv-x="634" d="M549 184q51 -12 51 -63v-121h-156h-251h-156v121q0 51 51 63l4 1q4 1 8 1q14 4 31 7q6 1 15.5 2.5t23.5 3.5t23 4v645q-9 2 -23 4t-23.5 3.5t-15.5 2.5q-7 1 -17.5 3.5t-13.5 2.5q-4 0 -8 1l-4 1q-51 12 -51 64v121h156h251v-848q9 -2 23 -4t23.5 -3.5t15.5 -2.5 q7 -1 17.5 -4t13.5 -3t7 -1t5 -1zM483 1358q0 -30 -14 -62q-13 -29 -35 -51q-24 -24 -51 -35q-30 -12 -64 -12q-33 0 -63 12q-23 9 -49 35q-22 22 -35 51q-12 27 -12 62q0 33 12 63q11 28 35 52q21 21 49 32q38 15 63 15q27 0 64 -15q32 -13 51 -32q24 -24 35 -52 q14 -35 14 -63z" />
<glyph unicode="j" horiz-adv-x="552" d="M512 1419q12 -30 12 -63q0 -35 -12 -62q-10 -22 -37 -49q-24 -24 -51 -35q-30 -12 -64 -12t-61 12q-29 13 -51 35q-24 24 -35 49q-12 27 -12 62q0 33 12 63q11 27 35 51t51 35q29 13 61 13t64 -13q27 -11 51 -35q28 -28 37 -51zM233 1051h252v-1086q0 -74 -16 -129 q-18 -61 -57 -106q-42 -49 -105 -72q-73 -27 -155 -27q-26 0 -66 4q-10 1 -63 17l8 135q3 20 16 27q12 6 51 6q48 0 64 6q29 7 43 24q15 15 22 46q6 27 6 69v883q-12 2 -32 5.5t-27 4.5t-17.5 3.5t-13.5 2.5t-7.5 1t-6.5 1q-51 12 -51 64v121h155z" />
<glyph unicode="k" horiz-adv-x="1241" d="M1153 184q51 -12 51 -63v-121h-41h-114h-113q-28 0 -51 10q-21 9 -37 35l-266 399q-16 25 -31 31t-47 6h-58v-278q9 -2 23 -4t23.5 -3.5t15.5 -2.5q17 -3 31 -7q3 0 7 -1t5 -1q51 -12 51 -63v-121h-156h-251h-156v121q0 51 51 63l4 1q4 1 8 1q3 0 13.5 3t17.5 4 q6 1 15.5 2.5t23.5 3.5t23 4v1116q-9 2 -23 4t-23.5 3.5t-15.5 2.5q-7 1 -17.5 3.5t-13.5 2.5q-4 0 -8 1l-4 1q-51 12 -51 64v121h156h251v-871h48q26 0 41 6q11 4 30 27l146 178q-4 1 -8.5 2t-7 1.5t-3.5 0.5q-51 12 -51 64v121h252v-2q8 2 20 2h226v-121q0 -52 -52 -64 q-8 0 -16 -2q-10 -3 -41 -6q-8 -1 -26 -4t-29 -4l-156 -188q-24 -28 -37 -41q-20 -20 -39 -31q24 -18 37 -35q2 -3 14.5 -19.5t18.5 -25.5l211 -307q46 -8 66 -10q38 -4 43 -5q16 -4 20 -4z" />
<glyph unicode="l" horiz-adv-x="636" d="M551 184q51 -12 51 -63v-121h-156h-251h-156v121q0 51 51 63q6 0 12 2q14 4 31 7q6 1 15.5 2.5t23.5 3.5t23 4v1116q-9 2 -23 4t-23.5 3.5t-15.5 2.5q-7 1 -17.5 3.5t-13.5 2.5q-4 0 -8 1l-4 1q-51 12 -51 64v121h156h251v-1319q9 -2 23 -4t23.5 -3.5t15.5 -2.5 q17 -3 31 -7q6 -2 12 -2z" />
<glyph unicode="m" horiz-adv-x="1863" d="M1774 184q51 -12 51 -63v-121h-154h-254v668q0 102 -43 151q-42 51 -129 51q-34 0 -74 -14q-31 -11 -57 -37q-23 -23 -39 -63q-14 -35 -14 -88v-465q15 -2 34 -5.5t25 -4.5q18 -3 31 -7q6 -2 12 -2q51 -12 51 -63v-121h-153h-254v668q0 104 -43 153t-125 49 q-54 0 -102 -26q-42 -23 -88 -76v-565q12 -2 32 -5.5t27 -4.5q17 -3 31 -7q6 -2 12 -2q51 -12 51 -63v-121h-153h-254h-154v121q0 51 51 63l4 1q4 1 8 1q3 0 13.5 3t17.5 4t27.5 4.5t32.5 5.5v645q-12 2 -32.5 5.5t-27.5 4.5t-17.5 3.5t-13.5 2.5q-4 0 -8 1l-4 1 q-53 12 -53 64v121h156h155q49 0 64 -47l16 -78q37 41 57 57q31 25 66 43q40 21 74 31t86 10q102 0 164 -53q67 -57 96 -144q25 55 61 91q33 33 80 59q39 22 94 35q50 12 101 12q85 0 153 -27q72 -29 115 -77q46 -52 70 -125t24 -170v-465q12 -2 32.5 -5.5t27.5 -4.5t17 -4 t13 -3t8 -1z" />
<glyph unicode="n" horiz-adv-x="1302" d="M1214 184q52 -12 52 -63v-121h-156h-252v668q0 95 -45 149q-44 53 -133 53q-64 0 -123 -30q-57 -29 -108 -80v-557q12 -2 32 -5.5t27 -4.5q17 -3 31 -7q6 -2 12 -2q51 -12 51 -63v-121h-153h-254h-154v121q0 51 51 63l4 1q4 1 8 1q14 4 31 7q7 1 27.5 4.5t32.5 5.5v645 q-12 2 -32.5 5.5t-27.5 4.5t-17.5 3.5t-13.5 2.5q-6 2 -12 2q-51 12 -51 64v121h154h155q49 0 64 -47l18 -82q27 31 66 59q34 27 75 45q59 26 84 31q52 10 99 10q88 0 153 -29q59 -24 111 -82q42 -51 67 -127q23 -70 23 -161v-465q10 -2 31.5 -5.5t29.5 -4.5q7 -1 17.5 -4 t13.5 -3q4 0 8 -1z" />
<glyph unicode="o" horiz-adv-x="1101" d="M553 1067q115 0 213 -39q101 -40 164 -106q64 -67 102 -170q37 -101 37 -224q0 -124 -37 -225q-39 -106 -102 -172q-66 -69 -164 -108q-93 -37 -213 -37q-122 0 -215 37q-98 39 -164 108q-69 73 -106 172q-37 101 -37 225q0 123 37 224q35 96 106 170q63 66 164 106 q98 39 215 39zM553 180q131 0 192 88q64 92 64 258t-64 258q-63 90 -192 90q-131 0 -197 -90q-65 -89 -65 -260q0 -167 65 -256q64 -88 197 -88z" />
<glyph unicode="p" horiz-adv-x="1181" d="M1120 762q29 -110 29 -227q0 -108 -33 -220q-28 -97 -90 -174q-54 -68 -141 -114q-78 -41 -189 -41q-90 0 -149 26q-66 29 -113 76v-227q15 -2 35.5 -7t26.5 -6q5 -1 12 -1.5t11 -1t7 -1.5q6 -2 13 -2q51 -12 51 -65v-119h-156h-252h-155v119q0 53 51 65l4 1q4 1 8 1 q3 0 31 4q6 1 26.5 6t34.5 7v987q-10 2 -31.5 5.5t-29.5 4.5q-7 1 -17.5 3.5t-13.5 2.5q-4 0 -8 1l-4 1q-51 12 -51 64v121h155h154q24 0 43 -13q16 -11 22 -34l21 -97q61 70 145 117q80 45 193 45q92 0 158 -35q70 -37 122 -104q53 -68 80 -168zM870 375q17 64 17 157 q0 94 -15 158q-14 59 -43 103q-28 42 -67 59q-41 18 -88 18q-84 0 -135 -32q-57 -36 -105 -95v-471q42 -51 94 -73q50 -21 109 -21q57 0 104 21q41 19 78 65q35 51 51 111z" />
<glyph unicode="q" horiz-adv-x="1183" d="M1110 -160q51 -12 51 -63v-121h-164h-252h-155v121q0 51 51 63q6 0 12 2q8 3 31 6q6 1 25 5t34 6v272q-55 -60 -141 -104q-80 -41 -184 -41q-86 0 -156 37q-74 40 -123 102q-53 69 -80 166q-28 103 -28 229q0 115 30 217q27 91 93 174q62 78 141 117q78 41 186 41 q234 0 516 -57v-330v-823l33 -6t31 -5q8 -1 19 -3.5t14 -2.5q4 0 10 -1zM641 217q56 35 102 92v547q-119 21 -202 21q-54 0 -105 -23q-47 -21 -78 -66q-30 -37 -49 -110q-18 -68 -18 -158q0 -86 16 -155q16 -67 41 -105q27 -41 68 -59q43 -19 90 -19q79 0 135 35z" />
<glyph unicode="r" horiz-adv-x="892" d="M735 1069q80 0 129 -35l-33 -190q-3 -19 -12 -25q-12 -8 -28 -8q-14 0 -41 6q-36 8 -72 8q-80 0 -135 -43q-50 -39 -94 -129v-450q29 -5 50 -9t28.5 -5.5t13 -2.5t10.5 -2q51 -12 51 -63v-121h-153h-254h-154v121q0 51 51 63q6 1 11.5 2t12.5 2.5t28.5 5.5t50.5 9v645 q-90 16 -103 18q-51 12 -51 64v121h154h149q38 0 53 -15t21 -49l16 -127q56 99 131 154q76 55 170 55z" />
<glyph unicode="s" horiz-adv-x="823" d="M774 442q23 -51 23 -108q0 -72 -29 -141q-27 -64 -80 -111q-56 -49 -131 -72q-74 -26 -180 -26q-185 0 -334 57v102v195h10h25h84q38 0 47 -39q4 -21 14 -121q55 -16 166 -16q45 0 78 10q32 11 53 29q24 21 31 39q8 21 8 49q0 36 -20 59q-18 21 -60 41q-44 21 -82 31 q-10 3 -29.5 9.5t-35.5 12t-31 9.5q-30 9 -94 38q-45 21 -84 56q-36 34 -57 82q-23 54 -23 118q0 62 25 123q24 58 75 103t125 69q83 27 170 27q77 0 137 -10.5t170 -44.5h-2v-297h-8h-24h-84q-38 0 -47 39q-7 36 -15 114q-51 15 -123 15q-71 0 -116 -31q-43 -30 -43 -84 q0 -32 22 -57q18 -20 57 -39q53 -26 82 -33q18 -5 54 -16.5t41 -12.5q29 -9 96 -39q48 -22 82 -53q36 -28 57 -76z" />
<glyph unicode="t" horiz-adv-x="765" d="M467 -16q-137 0 -211 77t-74 213v586h-106q-18 0 -35 14q-16 13 -16 39v103l170 26l53 287q3 19 18 31t39 12h131v-332h277v-180h-277v-569q0 -48 25 -76q24 -27 65 -27q26 0 39 5q15 6 27 12q16 8 22 12t17 4q16 0 20 -4q12 -12 15 -16l75 -123q-54 -45 -127 -70 q-70 -24 -147 -24z" />
<glyph unicode="u" horiz-adv-x="1290" d="M1200 184q51 -12 51 -63v-121h-153h-156q-48 0 -63 47l-19 84q-39 -39 -67 -61q-36 -28 -74 -45q-47 -21 -86 -31q-52 -10 -96 -10q-84 0 -154 28q-58 24 -111 84q-41 47 -67 125q-23 80 -23 162v465q-88 16 -104 18q-51 12 -51 64v121h155h252v-668q0 -96 45 -150 q42 -51 133 -51q60 0 123 29q54 25 109 80v557q-29 5 -50 8.5t-28.5 5t-13.5 2.5t-11 2q-51 12 -51 64v121h154h254v-848q29 -5 50 -9t28.5 -5.5l12.5 -2.5t11 -2z" />
<glyph unicode="v" horiz-adv-x="1257" d="M1159 1051h68v-121q0 -52 -51 -64q-6 -1 -12 -2.5t-27 -5.5t-58 -10l-338 -848h-229l-338 848q-29 5 -49 9t-26.5 5.5t-11 2t-9.5 1.5q-51 12 -51 64v121h67h211h234v-121q0 -52 -52 -64q-39 -7 -57 -10l150 -414q11 -31 28 -96q19 -74 23 -94q13 66 20 94q10 37 31 96 l152 412q-22 4 -36.5 6.5t-21 3.5t-10.5 2q-51 12 -51 64v121h243h201z" />
<glyph unicode="w" horiz-adv-x="1830" d="M1716 1051h84v-121q0 -52 -51 -64q-5 -1 -9.5 -1.5t-11 -2t-26.5 -5.5t-49 -9l-269 -848h-204q-32 0 -47 45l-189 606q-17 56 -18 62q-4 12 -13 59l-12 -61q-5 -26 -16 -62l-193 -604q-15 -45 -55 -45h-193l-270 848q-29 5 -48.5 8.5t-26 5t-11.5 2.5l-10 2 q-51 12 -51 64v121h84h200h228v-121q0 -52 -52 -64q-2 0 -18.5 -3.5t-44.5 -8.5l111 -412q16 -63 20 -90q2 -14 7 -44t7 -44q4 15 12.5 44t12.5 44q12 44 27 90l174 564q6 20 24 32q23 15 43 15h113q23 0 45 -15q18 -12 24 -32l173 -574l24 -86q3 -14 10.5 -42t10.5 -42 q4 32 16 88q7 34 22 92l113 410q-24 4 -40 7.5t-22.5 4.5t-11.5 2q-51 12 -51 64v121h236h2h190z" />
<glyph unicode="x" horiz-adv-x="1148" d="M1059 184q51 -12 51 -63v-121h-8h-90h-58h-96h-205v121q0 51 49 63l-139 228q-8 -33 -26 -62l-107 -164q2 0 6 -1t6 -1q52 -12 52 -63v-121h-222h-79h-56h-92h-8v121q0 51 53 63q1 0 23 4.5t63 10.5l230 342l-211 311q-27 4 -45.5 7.5t-26 4.5t-12.5 2q-52 12 -52 64v121 v0h244h211v-121q0 -52 -51 -64l125 -200q2 6 6 17t6 17q2 7 21 35l79 127q-3 1 -8 2t-8 2q-51 12 -51 64v121h221h2h231h3v-121q0 -52 -52 -64q-5 -1 -13 -2.5t-26.5 -4.5t-48.5 -7l-209 -299l232 -354q39 -6 61.5 -10.5t24.5 -4.5z" />
<glyph unicode="y" horiz-adv-x="1251" d="M1159 1051h62v-121q0 -52 -52 -64q-6 -1 -11.5 -2.5t-26.5 -5.5t-58 -10l-485 -1137q-13 -29 -31 -41q-14 -12 -53 -12h-189l197 420l-338 770q-29 5 -48.5 8.5t-26 5t-11.5 2.5l-10 2q-51 12 -51 64v121h59h221h232v-121q0 -52 -52 -64q-3 -1 -16.5 -3t-32.5 -5 l166 -399q1 -3 19 -56q4 -12 14 -57q9 30 18 57q12 35 21 56l153 395l-69 12q-51 12 -51 64v121h247h203z" />
<glyph unicode="z" horiz-adv-x="919" d="M868 344h9v-344h-29h-4h-807v106q0 20 8 41q11 30 25 46l503 663h-329q-7 -76 -13 -102q-9 -39 -47 -39h-84h-24h-10v323v13h796v-105q0 -30 -8 -51q-5 -13 -25 -43l-497 -657h366q10 95 13 110q9 39 47 39h86h24z" />
<glyph unicode="{" horiz-adv-x="573" d="M156 420q0 60 -31 102q-29 39 -92 39v148q63 0 92 39q31 42 31 102q0 20 -9 94q-7 57 -14 96q-13 70 -16 97q-6 49 -6 100q0 73 22 141q19 58 70 109q49 49 116 72q76 26 168 26h54v-115q0 -16 -4 -22q-5 -7 -15 -14q-15 -10 -18 -11q-6 -2 -17 -2h-10q-72 0 -108 -45 q-39 -48 -39 -125q0 -55 6 -108q2 -19 7 -52.5t7 -48.5q2 -17 12 -94q7 -54 7 -96t-11 -74q-14 -40 -32 -63q-24 -31 -50 -49q-32 -23 -67 -31q37 -12 67 -33q26 -18 50 -49q18 -23 32 -64q11 -32 11 -73q0 -40 -7 -94q-4 -31 -12 -97q-2 -15 -7 -48t-7 -52q-4 -35 -4 -109 q0 -76 37 -122t110 -46h8q5 0 17 -4t18 -8q8 -5 15 -16q4 -6 4 -25v-110h-54q-98 0 -168 24q-67 23 -116 72q-52 52 -70 108q-22 68 -22 144q0 49 6 98q3 24 16 96q7 37 14 97q9 74 9 96z" />
<glyph unicode="|" horiz-adv-x="307" d="M57 1585h197v-1929h-197v1929z" />
<glyph unicode="}" horiz-adv-x="573" d="M420 420q0 -46 6 -96q7 -60 14 -97q16 -88 17 -96q6 -50 6 -100q0 -71 -23 -142q-19 -58 -69 -108q-49 -49 -117 -72q-71 -24 -168 -24h-53v110q0 19 4 25q8 12 14 16q5 3 19 8q12 4 16 4h8q74 0 111 46q39 48 39 122q0 56 -6 109q-2 18 -7.5 51t-7.5 49t-12 94 q-6 46 -6 97q0 42 10 71q15 43 33 66q25 32 49 49q30 21 68 33q-36 9 -68 31q-24 17 -49 49q-20 26 -33 63q-10 29 -10 74q0 48 6 94t12 96q2 16 7.5 49.5t7.5 51.5q6 53 6 108q0 77 -39 125q-36 45 -109 45h-10q-10 0 -16 2q-5 2 -19 11q-8 6 -14 14q-4 6 -4 22v115h53 q92 0 168 -26q68 -23 117 -72q50 -50 69 -109q23 -71 23 -141q0 -51 -6 -100q-1 -10 -17 -97q-6 -31 -14 -96q-6 -49 -6 -96q0 -61 29 -100t94 -39v-148q-65 0 -94 -39t-29 -102z" />
<glyph unicode="~" horiz-adv-x="1089" d="M713 664q61 0 90 36q33 41 33 105h202q0 -82 -20 -143q-21 -64 -62 -111q-41 -48 -96 -70q-58 -24 -131 -24q-58 0 -104 14q-75 23 -95 31q-44 18 -84 33q-38 14 -69 14q-60 0 -90 -37q-33 -41 -33 -104h-203q0 78 21 143q20 61 61 108q44 51 96 72q61 25 131 25 q56 0 105 -15q10 -3 94 -32q13 -5 27 -10.5t31 -11.5t26 -9q38 -14 70 -14z" />
<glyph unicode="&#xa1;" horiz-adv-x="391" d="M80 -344v547q0 84 10 182q7 65 25 190h170q15 -103 24 -190q10 -98 10 -182v-547h-239zM41 913q0 35 12 62q13 29 31 47q20 20 49 33q27 12 62 12q34 0 61 -12q32 -14 49 -31q20 -20 33 -49q12 -27 12 -62q0 -34 -12 -61q-11 -25 -33 -47q-20 -20 -49 -33 q-27 -12 -59 -12q-35 0 -62 12q-29 13 -49 33q-22 22 -33 47q-12 27 -12 61z" />
<glyph unicode="&#xa2;" horiz-adv-x="954" d="M850 246l74 -90q-44 -50 -93 -84q-47 -33 -100 -54q-45 -15 -110 -26q-58 -8 -89 -8l-8 -119l-4 -29q-3 -25 -20 -45q-20 -20 -47 -20h-95l13 135l8 94q-45 15 -53 18q-87 38 -150 107t-100 170q-39 106 -39 231q0 113 35 213q36 104 96 172q62 71 160 113q68 28 141 37 l10 96l4 66q3 24 21 45q15 18 49 18h92l-12 -147v-2l-6 -76q75 -8 252 -72v-323h-9h-24h-86q-38 0 -47 39q0 4 -3 25.5t-6.5 53.5t-7.5 68q-55 15 -86 18l-2 -6l-59 -688h8q63 0 98 14q39 15 62 33q5 4 21.5 15.5t23.5 17.5q17 14 43 14q30 0 45 -24zM315 377 q18 -66 52 -111q23 -27 32 -35l23 273l31 346h-4l-3 -2q-50 -24 -84 -70q-35 -47 -49 -108q-16 -69 -16 -146q0 -82 18 -147z" />
<glyph unicode="&#xa3;" horiz-adv-x="1181" d="M37 696q0 35 22 60q21 24 64 24h110v242q0 90 29 182q28 88 86 152t148 102q92 39 204 39q87 0 148 -20q71 -23 117 -58q57 -43 88 -84q32 -42 63 -106l-100 -64q-37 -16 -60 -16q-37 0 -67 35q-12 14 -39 41q-20 20 -41 32q-29 16 -47 21q-24 6 -62 6q-103 0 -157 -70 q-51 -66 -51 -190v-244h417v-100q0 -24 -18 -45t-53 -21h-346v-198q0 -66 -25 -121q-21 -45 -70 -98q77 18 150 18h600v-106q0 -21 -6 -39t-23 -35q-15 -15 -35 -25t-43 -10h-983v160q46 12 66 22q40 20 57 37q19 19 37 55q16 32 16 74v266h-196v82z" />
<glyph unicode="&#xa4;" horiz-adv-x="1034" d="M139 688q0 43 15 105q9 38 39 92l-156 155l127 123l155 -151q38 24 95 41q46 14 104 14q45 0 103 -14q38 -9 92 -39l155 155l127 -125l-155 -155q24 -39 41 -94q16 -53 16 -107q0 -44 -14 -102q-8 -34 -39 -90l155 -156l-127 -127l-155 156q-39 -24 -94 -41 q-56 -17 -105 -17q-40 0 -102 15q-38 9 -92 39l-156 -156l-127 127l156 153q-24 38 -41 95q-17 56 -17 104zM328 688q0 -39 14 -74q13 -33 41 -61q27 -27 59 -41q37 -16 76 -16q36 0 76 16q33 13 61 41t41 61q15 38 15 74q0 40 -15 78q-13 33 -41 61t-61 41q-43 17 -76 17 q-37 0 -76 -17q-32 -14 -59 -41q-28 -28 -41 -61q-14 -35 -14 -78z" />
<glyph unicode="&#xa5;" horiz-adv-x="1220" d="M156 647h282l-405 834h209q37 0 57 -17q27 -24 37 -45l223 -499q24 -52 33 -84q7 -23 20 -78q9 38 21 78q13 45 31 84l223 499q11 23 35 43q22 19 57 19h211l-408 -834h283v-139h-328v-98h328v-140h-328v-270h-254v270h-327v140h327v98h-327v139z" />
<glyph unicode="&#xa6;" horiz-adv-x="305" d="M53 1585h197v-829h-197v829zM53 483h197v-827h-197v827z" />
<glyph unicode="&#xa7;" horiz-adv-x="925" d="M786 1274q-11 -19 -20 -23q-12 -6 -29 -6q-22 0 -41 8q-7 3 -23.5 12t-25.5 13q-34 15 -63 22q-46 11 -84 11q-32 0 -74 -11q-35 -9 -55 -26q-25 -21 -35 -39q-12 -21 -12 -47q0 -34 24 -58q27 -27 66 -47q51 -26 90 -43q18 -7 51 -21.5t51 -21.5q71 -32 105 -51 q58 -32 92 -63q38 -35 63 -84q23 -45 23 -109q0 -82 -37 -149q-38 -69 -123 -109q40 -33 74 -88q28 -46 28 -119q0 -77 -26 -139q-27 -64 -80 -111q-57 -51 -131 -73q-89 -27 -180 -27q-49 0 -107 10q-49 8 -100 27q-49 18 -88 41t-70 51l57 96q12 18 27 27q17 10 39 10 q20 0 45 -14q5 -3 22 -13t27 -16q28 -16 70 -28q44 -13 98 -13q84 0 131 35t47 96q0 40 -24 70q-21 26 -66 53q-46 27 -92 43q-31 11 -106 39q-22 8 -60 27t-45 22q-49 23 -92 62q-44 41 -66 86q-24 50 -24 114q0 85 41 146q43 63 131 102q-51 45 -78 94q-29 54 -29 134 q0 61 25 122q24 59 74 103q51 45 125 69q77 25 170 25q115 0 198 -35q97 -41 150 -94zM260 741q0 -42 31 -73q37 -37 76 -56q81 -39 108 -49q97 -40 117 -49q41 21 59 51q19 32 19 70q0 44 -29 76q-27 29 -76 55q-79 41 -102 49q-40 14 -115 49q-47 -24 -67 -53 q-21 -30 -21 -70z" />
<glyph unicode="&#xa8;" horiz-adv-x="763" d="M332 1323q0 -27 -13 -53q-15 -30 -30 -45q-13 -13 -45 -29q-20 -10 -56 -10q-33 0 -53 10q-32 16 -45 29t-29 45q-12 24 -12 53q0 31 12 55q18 36 29 47q13 13 45 29q24 12 53 12q32 0 56 -12q32 -16 45 -29t30 -47q13 -26 13 -55zM715 1323q0 -33 -10 -53 q-12 -24 -33 -45q-13 -13 -45 -29q-20 -10 -54 -10q-35 0 -55 10q-32 16 -45 29q-17 17 -31 45q-10 20 -10 53q0 35 10 55q16 32 31 47q13 13 45 29q24 12 55 12q30 0 54 -12q29 -13 45 -29q19 -19 33 -47q10 -20 10 -55z" />
<glyph unicode="&#xa9;" horiz-adv-x="1587" d="M1024 524q14 0 20 -4q16 -11 17 -12l84 -90q-57 -72 -146 -111t-204 -39q-104 0 -185 37q-84 38 -141 101q-65 71 -92 149q-31 88 -31 188q0 113 35 193q40 92 100 149q70 67 150 99q82 33 184 33q119 0 197 -37q83 -39 137 -99l-68 -90l-16 -16q-8 -8 -27 -8 q-15 0 -32 10q-30 18 -37 22q-27 15 -56 23q-38 10 -84 10q-53 0 -108 -20q-47 -20 -82 -58q-32 -35 -51 -90t-19 -121q0 -67 19 -122q18 -52 49 -91q28 -35 76 -55q43 -18 94 -18q57 0 84 8q40 10 53 18q25 14 41 25q13 8 39 16zM37 741q0 95 29 201q28 101 75 180 q53 88 119 154q62 61 154 117q81 49 180 77q95 27 201 27q101 0 200 -27q103 -28 181 -75q85 -51 153 -119q66 -69 117 -154q53 -88 78 -180q26 -95 26 -201q0 -105 -26 -200q-26 -93 -78 -181q-54 -90 -117 -153t-153 -117q-88 -52 -181 -78q-95 -26 -200 -26 q-110 0 -201 26q-95 27 -180 78q-93 56 -154 117q-68 68 -119 153q-44 74 -75 181q-29 101 -29 200zM176 741q0 -138 47 -249q49 -116 131 -201t197 -135t244 -50q126 0 241 50q118 51 199 135q85 89 133 201q47 111 47 249q0 84 -22 170q-21 83 -62 154t-96 129 q-43 45 -125 98q-65 42 -149 64q-91 24 -166 24q-77 0 -168 -24q-83 -22 -148 -64q-82 -53 -125 -98q-56 -58 -96 -129q-39 -68 -61 -154q-21 -83 -21 -170z" />
<glyph unicode="&#xaa;" horiz-adv-x="647" d="M596 860h-84q-21 0 -41 8q-11 4 -20 29l-13 37q-7 -6 -15.5 -12.5t-19 -13t-14.5 -9.5q-30 -21 -45 -27q-17 -7 -51 -14q-27 -6 -60 -6q-43 0 -77 12q-40 14 -62 33q-26 23 -39 55q-14 35 -14 74q0 32 18 70q18 37 60 63q49 30 117 47q83 20 182 23v24q0 57 -23 80 t-71 23q-30 0 -58 -8q-12 -3 -39 -17l-32 -16q-15 -6 -37 -6q-20 0 -33 10q-14 11 -21 24l-32 58q57 51 127 76q67 24 147 24q58 0 105 -18q49 -19 77 -51q34 -39 50 -80q18 -46 18 -99v-393zM291 977q32 0 67 14q28 11 60 43v84q-47 -2 -99 -10q-21 -3 -61 -18 q-23 -11 -33 -25q-8 -11 -8 -29q0 -34 19 -47q18 -12 55 -12z" />
<glyph unicode="&#xab;" horiz-adv-x="804" d="M41 535v32l262 406l82 -39q22 -9 31 -25q10 -17 10 -30q0 -19 -14 -43l-142 -242q-17 -30 -32 -43q18 -18 32 -43l142 -242q14 -25 14 -45q0 -36 -39 -53l-84 -39zM377 535l2 32l262 406l82 -39q23 -10 31 -23t8 -32q0 -22 -12 -43l-142 -242q-16 -29 -33 -43 q21 -21 33 -43l142 -242q12 -21 12 -45q0 -36 -39 -53l-84 -39z" />
<glyph unicode="&#xac;" horiz-adv-x="1019" d="M53 782h910v-479h-215v291h-695v188z" />
<glyph unicode="&#xad;" horiz-adv-x="647" d="M57 725h533v-213h-533v213z" />
<glyph unicode="&#xae;" horiz-adv-x="1587" d="M37 741q0 95 29 201q28 101 75 180q53 88 119 154q62 61 154 117q81 49 180 77q95 27 201 27q101 0 200 -27q97 -26 181 -77q90 -54 153 -117q62 -62 117 -154q53 -88 78 -180q26 -95 26 -201q0 -105 -26 -200q-26 -93 -78 -181q-54 -90 -117 -153t-153 -117 q-88 -52 -181 -78q-95 -26 -200 -26q-110 0 -201 26q-95 27 -180 78q-93 56 -154 117q-68 68 -119 153q-44 74 -75 181q-29 101 -29 200zM176 739q0 -136 47 -247q49 -116 131 -201t197 -135t244 -50q126 0 241 50q118 51 199 135q85 89 133 201q47 111 47 249q0 84 -22 170 q-21 83 -62 154t-96 129q-43 45 -125 98q-65 42 -149 64q-91 24 -166 24q-77 0 -168 -24q-74 -20 -148 -64q-82 -53 -125 -98q-56 -58 -96 -129q-39 -68 -61 -154q-21 -83 -21 -172zM680 616v-333h-221v919h329q193 0 281 -67q90 -69 90 -197q0 -89 -49 -160t-145 -100 q20 -10 39 -33q17 -24 30 -47l187 -315h-211q-48 0 -66 34l-147 269q-9 15 -23 22q-16 8 -39 8h-55zM680 774h90q55 0 86 8q38 10 53 25q21 21 27 45t6 57q0 32 -6 56q-7 28 -23 41q-20 17 -47 22q-40 8 -78 8h-108v-262z" />
<glyph unicode="&#xaf;" horiz-adv-x="720" d="M53 1405h615v-162h-615v162z" />
<glyph unicode="&#xb0;" horiz-adv-x="792" d="M41 1151q0 71 27 135q28 67 75 111q55 52 113 76q62 26 139 26q78 0 140 -26q56 -23 112 -76q49 -46 76 -111q27 -64 27 -135t-27 -135q-25 -60 -76 -111q-50 -50 -112 -76t-142 -26q-77 0 -139 26q-60 25 -111 76q-49 49 -75 111q-27 64 -27 135zM217 1147q0 -35 12 -70 q10 -28 39 -57q24 -24 56 -37q35 -14 71 -14q30 0 70 14q35 15 57 37q26 26 37 57q14 40 14 70q0 34 -14 74q-11 31 -37 57q-25 25 -57 39t-70 14q-43 0 -71 -14q-34 -17 -56 -39q-26 -26 -37 -57q-14 -40 -14 -74z" />
<glyph unicode="&#xb1;" horiz-adv-x="1087" d="M647 1270v-361h397v-188h-397v-350h-205v350h-397v188h397v361h205zM45 270h999v-188h-999v188z" />
<glyph unicode="&#xb2;" horiz-adv-x="638" d="M590 1137h6v-109v-94v-12h-555v57q0 13 8 37q7 21 23 37l213 211q15 15 43 47q7 9 34 51q17 26 25 49q8 21 8 49q0 33 -20 60q-17 22 -56 22q-34 0 -53 -16q-23 -20 -35 -49q-12 -18 -24 -27q-13 -10 -37 -10q-2 0 -5 1t-5 1h-13l-102 16q18 119 94 174q77 56 191 56 q62 0 106 -17q43 -17 78 -47q37 -37 49 -70q17 -46 17 -88q0 -40 -13 -77q-11 -32 -35 -66q-28 -40 -47 -61q-27 -30 -59 -62l-131 -133q12 4 57 14q18 4 51 4h93q2 14 2 29q7 23 28 23h49h15z" />
<glyph unicode="&#xb3;" horiz-adv-x="624" d="M328 1688q60 0 104 -17q46 -18 76 -45q38 -35 49 -61q16 -40 16 -74q0 -67 -26 -109q-28 -45 -86 -69q65 -22 94 -58q31 -39 31 -98q0 -60 -25 -108q-24 -46 -61 -76q-38 -30 -86 -45q-50 -15 -97 -15q-60 0 -100 11q-48 13 -78 34q-36 25 -59 64q-32 54 -45 96l80 33 q19 8 41 8q35 0 51 -29q8 -16 14 -24q9 -12 21 -21q14 -10 28 -16q15 -6 37 -6q45 0 72 27q24 24 24 61q0 27 -6 45q-6 17 -24 29q-20 13 -47 16q-20 4 -72 4v119q36 0 72 8q27 6 43 19q17 14 22 28q6 18 6 39q0 39 -18 60q-19 22 -60 22q-38 0 -57 -16q-21 -18 -33 -45 q-9 -21 -20 -29q-13 -10 -33 -10q-19 0 -29 2l-92 16q9 60 33 103q26 47 59 71q47 34 82 43q50 13 99 13z" />
<glyph unicode="&#xb4;" horiz-adv-x="577" d="M532 1497l-251 -268q-18 -21 -37 -27q-24 -8 -47 -8h-152l145 248q17 31 35 41q24 14 62 14h245z" />
<glyph unicode="&#xb5;" horiz-adv-x="1030" d="M311 1051v-668q0 -96 45 -150q44 -53 133 -53q63 0 123 31t109 80v760h252v-1051h-154q-50 0 -65 45l-17 86q-30 -30 -63 -53q-41 -28 -62 -37q-43 -17 -65 -21q-35 -6 -74 -6q-59 0 -111 19q-47 17 -86 53q12 -47 15 -94q4 -66 4 -90v-246h-125q-50 0 -82 29 q-31 28 -31 77v1289h254z" />
<glyph unicode="&#xb6;" horiz-adv-x="1439" d="M1405 1481v-211h-221v-1483h-221v1483h-240v-1483h-221v858q-111 0 -193 33q-85 34 -147 90q-57 52 -94 133q-33 73 -33 160q0 99 33 172q35 78 94 131q62 56 147 86q88 31 193 31h903z" />
<glyph unicode="&#xb7;" horiz-adv-x="491" d="M53 610q0 36 15 74q13 33 41 61q27 27 59 41q39 17 76 17q32 0 75 -17q35 -14 62 -41q28 -28 41 -61q16 -40 16 -74q0 -38 -16 -75q-15 -34 -41 -60q-27 -27 -62 -41q-40 -16 -75 -16q-39 0 -76 16q-32 14 -59 41q-26 26 -41 60q-15 35 -15 75z" />
<glyph unicode="&#xb8;" horiz-adv-x="505" d="M104 -233h15q6 -3 18 -7q9 -3 21 -6h28q32 0 52 13q16 11 16 30q0 31 -37 43q-47 15 -115 23l48 151h157l-20 -71q87 -20 127 -60q37 -37 37 -92q0 -35 -17 -61q-19 -28 -51 -45q-39 -20 -80 -31q-39 -10 -100 -10q-53 0 -78 4q-31 5 -72 18l23 78q6 23 28 23z" />
<glyph unicode="&#xb9;" horiz-adv-x="581" d="M102 1038h144v369l4 51l-78 -61q-16 -13 -37 -13q-12 0 -26 7q-15 7 -19 14l-55 78l239 196h152v-641h119v-116h-443v116z" />
<glyph unicode="&#xba;" horiz-adv-x="753" d="M379 1499q71 0 135 -22q61 -21 104 -64q50 -50 70 -102q25 -64 25 -135q0 -72 -25 -136q-22 -56 -70 -104q-43 -43 -104 -64q-70 -24 -135 -24q-67 0 -137 24q-65 22 -107 64q-47 47 -69 104q-25 64 -25 136q0 71 25 135q21 54 69 102q42 42 107 64q64 22 137 22z M379 995q66 0 102 45q33 42 33 136q0 91 -33 133q-34 43 -102 43q-73 0 -107 -43q-32 -40 -32 -133q0 -96 32 -136q36 -45 107 -45z" />
<glyph unicode="&#xbb;" horiz-adv-x="806" d="M168 129l-82 39q-22 9 -31 25q-10 17 -10 30q0 18 14 43l142 242q14 25 32 43q-15 13 -32 43l-142 242q-14 24 -14 43q0 37 41 55l82 39l262 -406v-32zM504 129l-82 39q-19 8 -29 25t-10 30q0 18 14 43l140 242q14 25 32 43q-15 13 -32 43l-140 242q-14 24 -14 43 q0 38 39 55l82 39l262 -406v-32z" />
<glyph unicode="&#xbc;" horiz-adv-x="1435" d="M420 74q-26 -42 -58 -58t-67 -16h-111l856 1397q23 40 54 61q33 23 77 23h109zM1307 289h94v-90q0 -15 -8 -23q-12 -12 -25 -12h-61v-164h-152v164h-297q-27 0 -39 12q-13 13 -16 27l-17 78l344 477h177v-469zM98 840h144v368l4 54l-78 -64q-15 -12 -35 -12q-15 0 -27 6 q-13 7 -18 14l-55 76l237 201h152v-643h119v-117h-443v117zM1155 461v53q0 8 1 18t2.5 22t2.5 19l-207 -284h201v172z" />
<glyph unicode="&#xbd;" horiz-adv-x="1411" d="M1370 215h4v-109v-94v-12h-553v59q0 17 6 35t25 37l213 211q15 15 43 47q11 13 35 51q9 14 22 49q9 24 9 50q0 34 -19 59q-17 23 -55 23q-32 0 -56 -17q-20 -14 -34 -49q-13 -19 -23 -27q-13 -10 -37 -10q-2 0 -5 1t-5 1h-14l-101 17q18 120 93 174q76 55 190 55 q65 0 106 -16q52 -20 80 -48q37 -37 49 -69q17 -46 17 -88q0 -38 -14 -78q-13 -37 -33 -66q-21 -29 -49 -61q-27 -30 -58 -61l-131 -134q25 8 55 15q18 4 52 4h92q4 28 4 29q6 22 29 22h49h14zM379 74q-27 -43 -57 -58q-32 -16 -70 -16h-109l854 1397q22 37 56 61 q33 23 77 23h109zM100 840h142v368l6 54l-80 -64q-15 -12 -35 -12q-15 0 -27 6q-13 7 -18 14l-55 76l237 201h154v-643h117v-117h-441v117z" />
<glyph unicode="&#xbe;" horiz-adv-x="1456" d="M444 74q-27 -43 -57 -58q-32 -16 -68 -16h-110l856 1397q24 41 53 61q33 23 78 23h109zM1327 289h96v-90q0 -13 -10 -23q-12 -12 -24 -12h-62v-164h-151v164h-295q-27 0 -39 12q-17 17 -19 27l-14 78l342 477h176v-469zM324 1491q58 0 104 -18q50 -19 76 -43 q37 -33 49 -64q16 -40 16 -74q0 -66 -26 -108q-30 -48 -84 -70q64 -22 92 -57q31 -39 31 -99q0 -63 -23 -108q-24 -46 -61 -76q-38 -30 -86 -45q-46 -14 -97 -14q-64 0 -100 10q-46 13 -78 35q-37 26 -59 63q-30 51 -45 99l78 30q21 9 41 9q37 0 53 -29q1 -1 4.5 -10.5 t7.5 -14.5q7 -10 21 -20q17 -12 28 -17q15 -6 39 -6q47 0 72 25q24 24 24 61q0 23 -8 47q-6 19 -24 31q-11 7 -45 14q-35 7 -74 7v118q40 0 72 7q31 7 45 18q17 13 22 29q6 18 6 39q0 36 -20 59q-19 22 -60 22q-35 0 -57 -16q-20 -15 -33 -43q-10 -24 -20 -31 q-13 -10 -33 -10q-7 0 -27 4l-92 15q10 64 31 102q27 49 59 72q47 34 82 43q54 14 99 14zM1176 461q0 8 1 25t1 26q0 8 1 18t2.5 22t2.5 19l-209 -282h201v172z" />
<glyph unicode="&#xbf;" horiz-adv-x="864" d="M827 -209q-58 -47 -75 -57q-45 -28 -90 -47q-50 -21 -105 -33t-123 -12q-88 0 -162 24q-71 23 -125 68t-81 106q-29 66 -29 144q0 68 24 131q20 53 56 92q34 37 76 65q12 8 37 25.5t38 26.5q42 27 62 47q24 24 30 57l25 147h172l18 -165q0 -2 1.5 -5.5t1.5 -5.5v-10 q0 -42 -25 -78q-26 -37 -55 -57q-55 -38 -72 -47q-34 -17 -74 -49q-38 -29 -57 -64q-21 -38 -21 -90q0 -32 13 -65q10 -24 39 -50q22 -19 59 -32t74 -13q47 0 98 15q38 11 68 28q21 12 47 29q21 14 37 14q37 0 53 -32zM319 913q0 33 13 62t33 49q19 19 51 33q27 12 61 12 q33 0 60 -12q29 -13 49 -33q18 -18 32 -49q13 -29 13 -62q0 -32 -13 -61q-12 -27 -32 -47t-49 -33q-27 -12 -62 -12q-34 0 -61 12q-29 13 -49 33q-22 22 -33 47q-13 29 -13 61z" />
<glyph unicode="&#xc0;" horiz-adv-x="1660" d="M1585 158q39 -14 39 -54v-104h-72h-159h-35h-19h-215v104q0 36 41 54q1 1 6.5 2.5t15 5.5t19.5 8l-8 23l-74 200h-589l-76 -211l-6 -12q10 -4 19.5 -8t15 -5.5t6.5 -2.5q41 -18 41 -54v-104h-213h-21h-33h-162h-71v104q0 36 41 54q35 14 112 47l500 1276h283l502 -1276 q77 -33 112 -47zM774 1051l-168 -459h449l-170 461q-4 10 -13 34.5t-14 40.5q-4 12 -29 99q-25 -89 -28 -99q-4 -14 -8.5 -27.5t-10 -27.5t-8.5 -22zM682 1835q8 0 19 -1t16 -1q14 0 26 -6q22 -11 23 -12q3 -3 10.5 -10t11.5 -11l201 -209h-198q-5 0 -14 1t-11 1 q-15 0 -21 2q-12 4 -18 8l-6 4t-7 5.5t-7 5.5l-306 223h281z" />
<glyph unicode="&#xc1;" horiz-adv-x="1660" d="M1585 158q39 -14 39 -54v-104h-72h-159h-35h-19h-215v104q0 36 41 54q1 1 6.5 2.5t15 5.5t19.5 8l-8 23l-74 200h-589l-76 -211l-6 -12q10 -4 19.5 -8t15 -5.5t6.5 -2.5q41 -18 41 -54v-104h-213h-21h-33h-162h-71v104q0 36 41 54q35 14 112 47l500 1276h283l502 -1276 q77 -33 112 -47zM774 1051l-168 -459h449l-170 461q-4 10 -13 34.5t-14 40.5q-4 12 -29 99q-25 -89 -28 -99q-4 -14 -8.5 -27.5t-10 -27.5t-8.5 -22zM1223 1835l-303 -221q-12 -9 -21 -15q-4 -3 -20 -8q-12 -4 -21 -4h-24h-199l201 207q18 18 22 21q12 9 23 12q12 6 24 6 q5 0 16 1t19 1h283z" />
<glyph unicode="&#xc2;" horiz-adv-x="1660" d="M1585 158q39 -14 39 -54v-104h-72h-159h-35h-19h-215v104q0 36 41 54q1 1 6.5 2.5t15 5.5t19.5 8l-8 23l-74 200h-589l-76 -211l-6 -12q10 -4 19.5 -8t15 -5.5t6.5 -2.5q41 -18 41 -54v-104h-213h-21h-33h-162h-71v104q0 36 41 54q35 14 112 47l500 1276h283l502 -1276 q77 -33 112 -47zM774 1051l-168 -459h449l-170 461q-4 10 -13 34.5t-14 40.5q-4 12 -29 99q-25 -89 -28 -99q-4 -14 -8.5 -27.5t-10 -27.5t-8.5 -22zM1202 1587h-190q-11 0 -35 4q-15 3 -29 13l-104 67l-6 6q-1 1 -4.5 3t-4.5 3l-6 -6q-2 -2 -10 -6l-102 -67 q-13 -10 -31 -13q-24 -4 -33 -4h-192l247 223h252z" />
<glyph unicode="&#xc3;" horiz-adv-x="1660" d="M1585 158q39 -14 39 -54v-104h-72h-159h-35h-19h-215v104q0 36 41 54q1 1 6.5 2.5t15 5.5t19.5 8l-8 23l-74 200h-589l-76 -211l-6 -12q10 -4 19.5 -8t15 -5.5t6.5 -2.5q41 -18 41 -54v-104h-213h-21h-33h-162h-71v104q0 36 41 54q35 14 112 47l500 1276h283l502 -1276 q77 -33 112 -47zM774 1051l-168 -459h449l-170 461q-4 10 -13 34.5t-14 40.5q-4 12 -29 99q-25 -89 -28 -99q-4 -14 -8.5 -27.5t-10 -27.5t-8.5 -22zM954 1741q28 0 45 14q19 16 19 49h137q0 -41 -14 -92q-11 -39 -37 -72q-22 -28 -62 -47q-33 -16 -81 -16q-41 0 -70 10 q-27 9 -66 25q-50 20 -59 24q-29 13 -49 13q-27 0 -43 -19q-19 -23 -19 -49h-139q0 41 14 92q11 39 39 74q22 28 62 47q37 18 80 18q37 0 71 -12q61 -21 68 -24q8 -3 57 -25q22 -10 47 -10z" />
<glyph unicode="&#xc4;" horiz-adv-x="1660" d="M1585 158q39 -14 39 -54v-104h-72h-159h-35h-19h-215v104q0 36 41 54q1 1 6.5 2.5t15 5.5t19.5 8l-8 23l-74 200h-589l-76 -211l-6 -12q10 -4 19.5 -8t15 -5.5t6.5 -2.5q41 -18 41 -54v-104h-213h-21h-33h-162h-71v104q0 36 41 54q35 14 112 47l500 1276h283l502 -1276 q77 -33 112 -47zM774 1051l-168 -459h449l-170 461q-4 10 -13 34.5t-14 40.5q-4 12 -29 99q-25 -89 -28 -99q-4 -14 -8.5 -27.5t-10 -27.5t-8.5 -22zM745 1708q0 -29 -12 -53t-31 -43t-45 -29q-27 -10 -53 -10q-24 0 -51 10q-22 8 -43 29q-15 15 -29 43q-10 20 -10 53 q0 31 10 51q16 32 29 45q19 19 43 31q20 10 51 10q33 0 53 -10q28 -14 45 -31t31 -45q12 -24 12 -51zM1188 1708q0 -33 -10 -53q-12 -24 -31 -43q-21 -21 -43 -29q-27 -10 -53 -10q-27 0 -54 10q-22 8 -43 29q-22 22 -30 43q-11 22 -11 53q0 29 11 51q15 30 30 45t43 29 q24 12 54 12q29 0 53 -12q28 -14 43 -29q17 -17 31 -45q10 -20 10 -51z" />
<glyph unicode="&#xc5;" horiz-adv-x="1660" d="M1585 158q39 -14 39 -54v-104h-72h-159h-35h-19h-215v104q0 36 41 54q1 1 6.5 2.5t15 5.5t19.5 8l-8 23l-74 200h-589l-76 -211l-6 -12q10 -4 19.5 -8t15 -5.5t6.5 -2.5q41 -18 41 -54v-104h-213h-21h-33h-162h-71v104q0 36 41 54q35 14 112 47l500 1276h283l502 -1276 q77 -33 112 -47zM774 1051l-168 -459h449l-170 461q-4 10 -13 34.5t-14 40.5q-4 12 -29 99q-25 -89 -28 -99q-4 -14 -8.5 -27.5t-10 -27.5t-8.5 -22zM618 1724q0 45 17 80t47 62q26 23 66 39q35 14 79 14q46 0 84 -14q36 -13 68 -39q28 -22 47 -62q18 -38 18 -80t-18 -79 q-17 -36 -47 -60q-41 -33 -68 -41q-41 -12 -84 -12q-41 0 -79 12q-31 10 -66 41q-32 28 -47 60q-17 35 -17 79zM739 1724q0 -40 25 -65q27 -27 67 -27q39 0 66 27q25 25 25 65q0 43 -25 68t-66 25q-42 0 -67 -25t-25 -68z" />
<glyph unicode="&#xc6;" horiz-adv-x="1974" d="M1763 1130q-9 72 -14 132h-532l51 -410h506v-213h-480l52 -418h403q5 57 14 131q9 39 47 39h86h25h8v-248h-2v-143h-811h-4h-151v121q0 51 51 63q1 0 3 0.5t7 1.5l10 2t23.5 5t31.5 6l-20 166h-532l-91 -187q33 -14 52 -20q41 -18 41 -54v-104h-234h-18h-17h-192h-39v104 q0 37 39 54q74 30 100 41l557 1093q-1 0 -5 1t-7 1t-7 1t-5 1q-52 12 -52 64v121h172h5h1093v-144h2v-245h-8h-25h-86q-38 0 -47 38zM629 559h413l-88 717q-11 -39 -34 -98q-16 -41 -35 -84z" />
<glyph unicode="&#xc7;" horiz-adv-x="1304" d="M1171 332l109 -119q-89 -111 -221 -170q-104 -48 -254 -57l-10 -43q93 -21 129 -60q37 -40 37 -92q0 -31 -19 -59q-21 -31 -51 -47q-48 -25 -78 -31q-52 -10 -102 -10q-41 0 -78 6q-44 7 -72 16l23 78q6 23 28 23h15q6 -3 18 -7q3 -1 10 -2t11 -2q8 -2 28 -2q32 0 51 13 q17 14 17 30q0 31 -37 43q-48 15 -113 23l37 125q-110 12 -203 53q-137 57 -225 156q-95 106 -143 239q-49 137 -49 305q0 169 55 306q54 135 156 237q105 105 239 158q140 55 309 55q191 0 465 -106v-131v-17v-229h-10h-24h-84q-39 0 -48 37q-6 26 -18 163q-171 50 -283 50 v-2q-112 0 -192 -35q-88 -37 -150 -105q-64 -70 -98 -164q-35 -88 -35 -219q0 -121 35 -221q38 -100 96 -164t142 -102q77 -35 176 -35q56 0 102 6q31 4 84 21q41 13 72 32q16 10 67 54q5 5 23 14q12 6 25 6q23 0 38 -18z" />
<glyph unicode="&#xc8;" horiz-adv-x="1175" d="M197 1481h933v-144v-75v-170h-10h-24h-84q-38 0 -47 38q-12 96 -15 132h-477v-410h502v-213h-502v-418h477q3 33 15 131q9 39 47 39h84h24h10v-170v-78v-143h-933h-156v121q0 51 51 63l4 1q4 1 8 1q3 0 13.5 3t17.5 4q6 1 15.5 2.5t23.5 3.5t23 4v1075q-9 2 -23 4 t-23.5 3.5t-15.5 2.5q-7 1 -17.5 3.5t-13.5 2.5q-4 0 -8 1l-4 1q-51 12 -51 64v121h156zM532 1835q8 0 19 -1t16 -1q13 0 25 -6q20 -10 22 -12q3 -3 11 -10t12 -11l203 -207h-201h-25q-14 0 -20 2q-14 5 -19 8l-6 4t-7 5.5t-7 5.5l-303 223h280z" />
<glyph unicode="&#xc9;" horiz-adv-x="1175" d="M197 1481h933v-144v-75v-170h-10h-24h-84q-38 0 -47 38q-12 96 -15 132h-477v-410h502v-213h-502v-418h477q3 33 15 131q9 39 47 39h84h24h10v-170v-78v-143h-933h-156v121q0 51 51 63l4 1q4 1 8 1q3 0 13.5 3t17.5 4q6 1 15.5 2.5t23.5 3.5t23 4v1075q-9 2 -23 4 t-23.5 3.5t-15.5 2.5q-7 1 -17.5 3.5t-13.5 2.5q-4 0 -8 1l-4 1q-51 12 -51 64v121h156zM1071 1835l-303 -221q-3 -2 -7 -5.5t-7 -5.5l-6 -4t-21 -8q-12 -4 -20 -4h-25h-199l201 207q15 15 23 21q13 10 22 12q12 6 27 6q5 0 16.5 1t18.5 1h280z" />
<glyph unicode="&#xca;" horiz-adv-x="1175" d="M197 1481h933v-144v-75v-170h-10h-24h-84q-38 0 -47 38q-12 96 -15 132h-477v-410h502v-213h-502v-418h477q3 33 15 131q9 39 47 39h84h24h10v-170v-78v-143h-933h-156v121q0 51 51 63l4 1q4 1 8 1q3 0 13.5 3t17.5 4q6 1 15.5 2.5t23.5 3.5t23 4v1075q-9 2 -23 4 t-23.5 3.5t-15.5 2.5q-7 1 -17.5 3.5t-13.5 2.5q-4 0 -8 1l-4 1q-51 12 -51 64v121h156zM1053 1587h-193q-9 0 -33 4q-16 3 -30 13l-103 67q-1 1 -4 3t-4 3t-4 3t-4 3l-6 -6q-4 -4 -8 -6l-105 -67q-14 -10 -29 -13q-24 -4 -34 -4h-191l248 223h252z" />
<glyph unicode="&#xcb;" horiz-adv-x="1175" d="M197 1481h933v-144v-75v-170h-10h-24h-84q-38 0 -47 38q-12 96 -15 132h-477v-410h502v-213h-502v-418h477q3 33 15 131q9 39 47 39h84h24h10v-170v-78v-143h-933h-156v121q0 51 51 63l4 1q4 1 8 1q3 0 13.5 3t17.5 4q6 1 15.5 2.5t23.5 3.5t23 4v1075q-9 2 -23 4 t-23.5 3.5t-15.5 2.5q-7 1 -17.5 3.5t-13.5 2.5q-4 0 -8 1l-4 1q-51 12 -51 64v121h156zM594 1708q0 -33 -10 -53q-12 -24 -31 -43t-45 -29q-27 -10 -55 -10q-25 0 -52 10q-19 7 -41 29q-17 17 -30 43q-11 22 -11 53q0 29 11 51q15 30 30 45q21 21 41 31t52 10q35 0 55 -10 q28 -14 45 -31t31 -45q10 -20 10 -51zM1036 1708q0 -33 -10 -53q-8 -22 -29 -43q-19 -19 -45 -29q-27 -10 -53 -10t-53 10q-22 8 -43 29q-24 24 -31 43q-10 20 -10 53q0 31 10 51q14 28 31 45q15 15 43 29q24 12 53 12t53 -12q32 -16 45 -29t29 -45q10 -20 10 -51z" />
<glyph unicode="&#xcc;" horiz-adv-x="778" d="M686 1296l-4 -1q-4 -1 -8 -1q-3 0 -13.5 -2.5t-17.5 -3.5q-8 -1 -29.5 -4.5t-31.5 -5.5v-1075q10 -2 31.5 -5.5t29.5 -4.5q7 -1 17.5 -4t13.5 -3q4 0 8 -1l4 -1q51 -12 51 -63v-121h-155h-275h-155v121q0 51 51 63q1 0 5 1t7 1q13 4 31 7q8 1 29.5 4.5t31.5 5.5v1075 q-10 2 -31.5 5.5t-29.5 4.5q-7 1 -17.5 3.5t-13.5 2.5q-6 2 -12 2q-51 12 -51 64v121h155h275h155v-121q0 -52 -51 -64zM303 1835q7 0 19 -1t16 -1q15 0 27 -6q16 -8 20 -12q3 -3 11 -10t12 -11l202 -209h-200q-5 0 -13 1t-12 1q-14 0 -20 2q-14 5 -19 8q-1 1 -8 5t-12 8 l-303 225h280z" />
<glyph unicode="&#xcd;" horiz-adv-x="755" d="M575 1296q-1 0 -5 -1t-7 -1t-13.5 -2.5t-17.5 -3.5t-27 -4.5t-32 -5.5v-1075q12 -2 32 -5.5t27 -4.5t17.5 -4t13.5 -3t7 -1t5 -1q52 -12 52 -63v-121h-154h-276h-156v121q0 51 51 63l4 1q4 1 8 1q14 4 31 7q6 1 15.5 2.5t23.5 3.5t23 4v1075q-9 2 -23 4t-23.5 3.5 t-15.5 2.5q-7 1 -17.5 3.5t-13.5 2.5q-6 2 -12 2q-51 12 -51 64v121h156h276h154v-121q0 -52 -52 -64zM733 1835l-303 -221q-4 -3 -22 -15q-5 -3 -19 -8q-12 -4 -20 -4q-4 0 -12 -1t-13 -1h-199l201 209q15 15 23 21q13 10 22 12q12 6 25 6q5 0 16.5 1t18.5 1h282z" />
<glyph unicode="&#xce;" horiz-adv-x="792" d="M635 1296q-1 0 -6 -1t-8 -1t-12.5 -2.5t-16.5 -3.5q-6 -1 -15.5 -2.5t-23.5 -3.5t-23 -4v-1075q9 -2 23 -4t23.5 -3.5t15.5 -2.5q7 -1 16.5 -4t12.5 -3t8 -1t6 -1q51 -12 51 -63v-121h-156h-276h-156v121q0 51 52 63l5 1q5 1 9 1q15 5 29 7q8 1 29.5 4.5t31.5 5.5v1075 q-10 2 -31.5 5.5t-29.5 4.5q-7 1 -16.5 3.5t-12.5 2.5q-6 2 -14 2q-52 12 -52 64v121h156h276h156v-121q0 -52 -51 -64zM770 1585h-192q-9 0 -33 4q-15 3 -29 13l-104 69q-1 1 -4.5 2t-4.5 2t-3 4t-3 4q-1 -1 -4 -3t-4 -3q-4 -4 -8 -6l-102 -69q-13 -10 -31 -13 q-24 -4 -35 -4h-190l247 225h252z" />
<glyph unicode="&#xcf;" horiz-adv-x="761" d="M618 1296l-4 -1q-4 -1 -8 -1q-3 0 -13.5 -2.5t-17.5 -3.5t-27 -4.5t-32 -5.5v-1075q12 -2 32 -5.5t27 -4.5t17.5 -4t13.5 -3q4 0 8 -1l4 -1q52 -12 52 -63v-121h-154h-276h-156v121q0 51 51 63q1 0 5 1t7 1q13 4 31 7q6 1 15.5 2.5t23.5 3.5t23 4v1075q-9 2 -23 4 t-23.5 3.5t-15.5 2.5q-7 1 -17.5 3.5t-13.5 2.5q-6 2 -12 2q-51 12 -51 64v121h156h276h154v-121q0 -52 -52 -64zM297 1708q0 -33 -10 -53t-33 -43q-19 -19 -45 -29q-27 -10 -53 -10q-25 0 -52 10q-22 8 -43 29q-13 13 -28 43q-10 20 -10 53q0 31 10 51q17 34 28 45 q19 19 43 31q20 10 52 10q33 0 53 -10q28 -14 45 -31q21 -21 33 -45q10 -20 10 -51zM739 1708q0 -33 -10 -53q-12 -24 -31 -43q-21 -21 -43 -29q-27 -10 -53 -10t-53 10q-22 8 -43 29q-19 19 -31 43q-10 20 -10 53q0 31 10 51q14 28 31 45q19 19 43 31q20 10 53 10t53 -10 q28 -14 45 -31q13 -13 29 -45q10 -20 10 -51z" />
<glyph unicode="&#xd0;" horiz-adv-x="1548" d="M1464 1038q54 -131 54 -299t-54 -299q-56 -136 -153 -233q-99 -99 -236 -154q-132 -53 -307 -53h-543h-155v121q0 51 51 63q6 1 11.5 2t13 2.5t29 5.5t50.5 9v463h-184v157h184v455q-88 16 -104 18q-51 12 -51 64v121h155h543q168 0 307 -56q142 -57 236 -151 q95 -95 153 -236zM1204 522q33 90 33 217q0 129 -33 219q-37 102 -94 164q-58 64 -147 103q-84 37 -195 37h-266v-439h370v-157h-370v-447h266q115 0 195 35q87 38 147 104q57 62 94 164z" />
<glyph unicode="&#xd1;" horiz-adv-x="1630" d="M1446 1481h153v-121q0 -52 -51 -64l-4 -1q-4 -1 -8 -1q-3 0 -13.5 -2.5t-17.5 -3.5t-27 -4.5t-32 -5.5v-1278h-143q-31 0 -54 10q-21 9 -43 37l-774 985q4 -46 4 -63q0 -10 1 -30.5t1 -29.5v-706q36 -5 70 -10t47.5 -7t15.5 -2q52 -12 52 -63v-121h-185h-241h-156v121 q0 51 51 63q6 0 12 2q14 4 31 7q6 1 15.5 2.5t23.5 3.5t23 4v1075q-9 2 -23 4t-23.5 3.5t-15.5 2.5q-7 1 -17.5 3.5t-13.5 2.5q-4 0 -8 1l-4 1q-51 12 -51 64v121h156h143q6 0 17 -1t14 -1q13 0 22 -6q9 -3 19 -13q4 -4 20 -24l778 -990q-1 12 -6 70q-2 23 -2 66v696 q-129 18 -133 18q-51 12 -51 64v121h184h244zM963 1741q28 0 45 14q18 15 18 49h137q0 -41 -14 -92q-12 -42 -37 -74q-20 -26 -61 -45q-33 -16 -82 -16q-43 0 -72 10q-27 9 -66 25q-30 12 -57 24q-25 11 -49 11q-29 0 -43 -17q-18 -22 -18 -49h-140q0 38 15 92q11 39 39 74 q23 29 61 47q33 16 80 16q43 0 72 -10q38 -13 65 -24q28 -11 59 -25q23 -10 48 -10z" />
<glyph unicode="&#xd2;" d="M1530 741q0 -166 -55 -303q-57 -141 -152 -239q-99 -102 -238 -158q-142 -57 -305 -57q-165 0 -307 57q-137 55 -237 158q-99 102 -154 239q-53 132 -53 303q0 169 53 301q56 139 154 240q100 103 237 158q142 57 307 57q171 0 305 -57q144 -61 238 -158q95 -98 152 -240 q55 -137 55 -301zM1247 741q0 108 -33 217q-29 94 -92 164q-62 68 -147 105q-80 35 -195 35q-116 0 -196 -35q-87 -38 -148 -105q-60 -65 -94 -164q-33 -95 -33 -217q0 -124 33 -219q34 -99 94 -164q59 -65 148 -104q80 -35 196 -35q115 0 195 35q87 38 147 104 q63 70 92 164q33 109 33 219zM635 1835q7 0 20 -1t17 -1q12 0 24 -6q22 -11 23 -12q3 -3 10.5 -10t11.5 -11l201 -209h-199q-5 0 -13 1t-11 1q-15 0 -21 2q-12 4 -18 8q-2 1 -9 5.5t-12 7.5l-305 225h281z" />
<glyph unicode="&#xd3;" d="M1530 741q0 -166 -55 -303q-57 -141 -152 -239q-99 -102 -238 -158q-142 -57 -305 -57q-165 0 -307 57q-137 55 -237 158q-99 102 -154 239q-53 132 -53 303q0 169 53 301q56 139 154 240q100 103 237 158q142 57 307 57q171 0 305 -57q144 -61 238 -158q95 -98 152 -240 q55 -137 55 -301zM1247 741q0 108 -33 217q-29 94 -92 164q-62 68 -147 105q-80 35 -195 35q-116 0 -196 -35q-87 -38 -148 -105q-60 -65 -94 -164q-33 -95 -33 -217q0 -124 33 -219q34 -99 94 -164q59 -65 148 -104q80 -35 196 -35q115 0 195 35q87 38 147 104 q63 70 92 164q33 109 33 219zM1176 1835l-304 -221l-20 -15q-3 -2 -21 -8q-12 -4 -20 -4q-4 0 -12 -1t-13 -1h-198l200 209q15 15 23 21q13 9 23 12q12 6 26 6q4 0 15 1t18 1h283z" />
<glyph unicode="&#xd4;" d="M1530 741q0 -166 -55 -303q-57 -141 -152 -239q-99 -102 -238 -158q-142 -57 -305 -57q-165 0 -307 57q-137 55 -237 158q-99 102 -154 239q-53 132 -53 303q0 169 53 301q56 139 154 240q100 103 237 158q142 57 307 57q171 0 305 -57q144 -61 238 -158q95 -98 152 -240 q55 -137 55 -301zM1247 741q0 108 -33 217q-29 94 -92 164q-62 68 -147 105q-80 35 -195 35q-116 0 -196 -35q-87 -38 -148 -105q-60 -65 -94 -164q-33 -95 -33 -217q0 -124 33 -219q34 -99 94 -164q59 -65 148 -104q80 -35 196 -35q115 0 195 35q87 38 147 104 q63 70 92 164q33 109 33 219zM1155 1585h-190q-11 0 -35 4q-15 3 -29 13l-104 69q-1 1 -3 2t-3 2l-9 8l-6 -6q-2 -2 -10 -6l-102 -69q-13 -10 -31 -13q-24 -4 -33 -4h-192l247 225h252z" />
<glyph unicode="&#xd5;" d="M1530 741q0 -166 -55 -303q-57 -141 -152 -239q-99 -102 -238 -158q-142 -57 -305 -57q-165 0 -307 57q-137 55 -237 158q-99 102 -154 239q-53 132 -53 303q0 169 53 301q56 139 154 240q100 103 237 158q142 57 307 57q171 0 305 -57q144 -61 238 -158q95 -98 152 -240 q55 -137 55 -301zM1247 741q0 108 -33 217q-29 94 -92 164q-62 68 -147 105q-80 35 -195 35q-116 0 -196 -35q-87 -38 -148 -105q-60 -65 -94 -164q-33 -95 -33 -217q0 -124 33 -219q34 -99 94 -164q59 -65 148 -104q80 -35 196 -35q115 0 195 35q87 38 147 104 q63 70 92 164q33 109 33 219zM907 1741q28 0 45 14q19 16 19 49h137q0 -41 -14 -92q-12 -42 -37 -74q-20 -25 -62 -45q-33 -16 -82 -16q-40 0 -69 10q-27 9 -66 25q-50 20 -59 24q-25 11 -47 11q-31 0 -45 -17q-17 -20 -17 -49h-139q0 49 12 92q11 39 39 74q22 28 62 47 q33 16 80 16q44 0 73 -10q46 -16 66 -24q8 -3 57 -25q22 -10 47 -10z" />
<glyph unicode="&#xd6;" d="M1530 741q0 -166 -55 -303q-57 -141 -152 -239q-99 -102 -238 -158q-142 -57 -305 -57q-165 0 -307 57q-137 55 -237 158q-99 102 -154 239q-53 132 -53 303q0 169 53 301q56 139 154 240q100 103 237 158q142 57 307 57q171 0 305 -57q144 -61 238 -158q95 -98 152 -240 q55 -137 55 -301zM1247 741q0 108 -33 217q-29 94 -92 164q-62 68 -147 105q-80 35 -195 35q-116 0 -196 -35q-87 -38 -148 -105q-60 -65 -94 -164q-33 -95 -33 -217q0 -124 33 -219q34 -99 94 -164q59 -65 148 -104q80 -35 196 -35q115 0 195 35q87 38 147 104 q63 70 92 164q33 109 33 219zM698 1708q0 -33 -10 -53t-33 -43q-19 -19 -45 -29q-27 -10 -53 -10q-24 0 -51 10q-22 8 -43 29q-15 15 -29 43q-10 20 -10 53q0 31 10 51q16 32 29 45q19 19 43 31q20 10 51 10q33 0 53 -10q28 -14 45 -31t31 -45q12 -24 12 -51zM1141 1708 q0 -31 -11 -53q-15 -30 -28 -43q-19 -19 -45 -29q-27 -10 -53 -10q-27 0 -54 10q-22 8 -43 29q-22 22 -30 43q-11 22 -11 53q0 29 11 51q15 30 30 45q19 19 43 31q20 10 54 10q33 0 53 -10q28 -14 45 -31q11 -11 28 -45q11 -22 11 -51z" />
<glyph unicode="&#xd7;" horiz-adv-x="1011" d="M973 1020l-334 -332l350 -348l-133 -133l-348 346l-350 -348l-133 131l348 352l-334 334l133 133l336 -336l332 334z" />
<glyph unicode="&#xd8;" d="M1530 741q0 -166 -55 -303q-57 -141 -152 -239q-99 -102 -238 -158q-142 -57 -305 -57q-107 0 -194 20q-84 19 -172 64l-78 -109q-33 -44 -70 -57q-49 -17 -82 -17h-106l198 275q-116 101 -182 252q-65 148 -65 327q0 171 53 303q56 139 154 240q100 103 237 158 q142 57 307 57q100 0 211 -27q106 -26 185 -73l59 84q10 15 25 30q22 22 24 23q8 6 27 10q20 4 39 4h141l-184 -252q107 -101 166 -243q57 -137 57 -312zM311 739q0 -123 29 -211q30 -92 88 -159l602 829q-107 64 -250 64q-114 0 -194 -35q-90 -40 -150 -105 q-56 -62 -92 -164q-33 -95 -33 -219zM1247 741q0 105 -24 191q-25 88 -70 151l-594 -817q100 -47 221 -47q115 0 195 35q87 38 147 104q63 70 92 164q33 109 33 219z" />
<glyph unicode="&#xd9;" horiz-adv-x="1599" d="M1413 1481h156v-121q0 -52 -51 -64l-5 -1q-5 -1 -8 -1t-13 -2.5t-17 -3.5q-6 -1 -15.5 -2.5t-23.5 -3.5t-23 -4v-684q0 -134 -43 -244q-45 -115 -121 -194q-81 -81 -194 -127q-110 -45 -256 -45t-256 45q-111 45 -193 127q-79 82 -123 194q-41 105 -41 244v684 q-10 2 -31.5 5.5t-29.5 4.5q-7 1 -17.5 3.5t-13.5 2.5q-4 0 -8 1l-4 1q-51 12 -51 64v121h155h275h164v-121q0 -52 -52 -64q-1 0 -6 -1t-8 -1t-15 -2.5t-20 -3.5q-2 0 -63 -10v-682q0 -92 22 -154q20 -63 68 -118q41 -46 104 -74q61 -27 144 -27q81 0 143 27q68 30 107 74 q40 45 65 116q25 80 25 154v684q-57 9 -64 10q-8 1 -20 3.5t-15 2.5q-4 0 -9 1l-5 1q-51 12 -51 64v121h164h274zM653 1835q7 0 19 -1t16 -1q15 0 27 -6q20 -10 22 -12q3 -3 11 -10t12 -11l201 -209h-199q-6 0 -15 1t-12 1q-12 0 -18 2q-14 5 -19 8q-1 1 -8 5t-12 8 l-305 225h280z" />
<glyph unicode="&#xda;" horiz-adv-x="1599" d="M1413 1481h156v-121q0 -52 -51 -64l-5 -1q-5 -1 -8 -1t-13 -2.5t-17 -3.5q-6 -1 -15.5 -2.5t-23.5 -3.5t-23 -4v-684q0 -134 -43 -244q-45 -115 -121 -194q-81 -81 -194 -127q-110 -45 -256 -45t-256 45q-111 45 -193 127q-79 82 -123 194q-41 105 -41 244v684 q-10 2 -31.5 5.5t-29.5 4.5q-7 1 -17.5 3.5t-13.5 2.5q-4 0 -8 1l-4 1q-51 12 -51 64v121h155h275h164v-121q0 -52 -52 -64q-1 0 -6 -1t-8 -1t-15 -2.5t-20 -3.5q-2 0 -63 -10v-682q0 -92 22 -154q20 -63 68 -118q41 -46 104 -74q61 -27 144 -27q81 0 143 27q68 30 107 74 q40 45 65 116q25 80 25 154v684q-57 9 -64 10q-8 1 -20 3.5t-15 2.5q-4 0 -9 1l-5 1q-51 12 -51 64v121h164h274zM1194 1835l-303 -221q-5 -4 -13.5 -9.5t-9.5 -5.5q-6 -4 -18 -8t-21 -4q-4 0 -11.5 -1t-12.5 -1h-199l201 209q18 18 22 21q13 9 23 12q12 6 25 6q5 0 16 1 t18 1h283z" />
<glyph unicode="&#xdb;" horiz-adv-x="1599" d="M1413 1481h156v-121q0 -52 -51 -64l-5 -1q-5 -1 -8 -1t-13 -2.5t-17 -3.5q-6 -1 -15.5 -2.5t-23.5 -3.5t-23 -4v-684q0 -134 -43 -244q-45 -115 -121 -194q-81 -81 -194 -127q-110 -45 -256 -45t-256 45q-111 45 -193 127q-79 82 -123 194q-41 105 -41 244v684 q-10 2 -31.5 5.5t-29.5 4.5q-7 1 -17.5 3.5t-13.5 2.5q-4 0 -8 1l-4 1q-51 12 -51 64v121h155h275h164v-121q0 -52 -52 -64q-1 0 -6 -1t-8 -1t-15 -2.5t-20 -3.5q-2 0 -63 -10v-682q0 -92 22 -154q20 -63 68 -118q41 -46 104 -74q61 -27 144 -27q81 0 143 27q68 30 107 74 q40 45 65 116q25 80 25 154v684q-57 9 -64 10q-8 1 -20 3.5t-15 2.5q-4 0 -9 1l-5 1q-51 12 -51 64v121h164h274zM1174 1585h-193q-9 0 -33 4q-16 3 -30 13l-103 69q-1 1 -4 2t-4 2l-8 8l-6 -6q-3 -3 -9 -6l-104 -69q-14 -10 -29 -13q-24 -4 -35 -4h-190l248 225h252z" />
<glyph unicode="&#xdc;" horiz-adv-x="1599" d="M1413 1481h156v-121q0 -52 -51 -64l-5 -1q-5 -1 -8 -1t-13 -2.5t-17 -3.5q-6 -1 -15.5 -2.5t-23.5 -3.5t-23 -4v-684q0 -134 -43 -244q-45 -115 -121 -194q-81 -81 -194 -127q-110 -45 -256 -45t-256 45q-111 45 -193 127q-79 82 -123 194q-41 105 -41 244v684 q-10 2 -31.5 5.5t-29.5 4.5q-7 1 -17.5 3.5t-13.5 2.5q-4 0 -8 1l-4 1q-51 12 -51 64v121h155h275h164v-121q0 -52 -52 -64q-1 0 -6 -1t-8 -1t-15 -2.5t-20 -3.5q-2 0 -63 -10v-682q0 -92 22 -154q20 -63 68 -118q41 -46 104 -74q61 -27 144 -27q81 0 143 27q68 30 107 74 q40 45 65 116q25 80 25 154v684q-57 9 -64 10q-8 1 -20 3.5t-15 2.5q-4 0 -9 1l-5 1q-51 12 -51 64v121h164h274zM715 1708q0 -33 -10 -53q-12 -24 -31 -43t-45 -29q-27 -10 -56 -10q-24 0 -51 10q-19 7 -41 29q-17 17 -30 43q-11 22 -11 53q0 29 11 51q15 30 30 45 q17 17 41 29t51 12q36 0 56 -10q28 -14 45 -31t31 -45q10 -20 10 -51zM1157 1706q0 -31 -10 -51q-14 -28 -29 -43q-19 -19 -45 -29q-27 -10 -53 -10t-53 10q-22 8 -43 29q-24 24 -31 43q-10 20 -10 51q0 33 10 53q14 28 31 45q15 15 43 29q24 12 53 12t53 -12q32 -16 45 -29 t29 -45q10 -20 10 -53z" />
<glyph unicode="&#xdd;" horiz-adv-x="1486" d="M1419 1481h35v-121q0 -52 -51 -64q-2 0 -6.5 -1t-7.5 -1t-13.5 -2.5t-17.5 -3.5t-27.5 -4.5t-32.5 -5.5l-417 -703v-372q10 -2 31.5 -5.5t29.5 -4.5q7 -1 16.5 -4t12.5 -3q4 0 9 -1l5 -1q51 -12 51 -63v-121h-155h-275h-155v121q0 51 51 63q6 0 12 2q14 4 31 7 q8 1 29.5 4.5t31.5 5.5v372l-420 703q-12 2 -32 5.5t-27 4.5t-17.5 3.5t-13.5 2.5q-6 2 -12 2q-51 12 -51 64v121h33h36h84h123h277v-121q0 -52 -51 -64q-1 0 -5 -1t-6 -1q-6 -3 -18 -6q-5 -1 -17 -3.5t-14 -2.5l197 -358q23 -42 41 -82q8 -18 32 -78q11 38 29 78t41 82 l195 358q-25 5 -29 6l-10.5 3.5t-9.5 2.5q-4 2 -9 2q-51 12 -51 64v121h275h122h84h37zM1139 1835l-303 -221q-12 -9 -21 -15q-4 -3 -20 -8q-12 -4 -21 -4q-4 0 -11.5 -1t-12.5 -1h-199l201 209q18 18 22 21q12 9 23 12q12 6 26 6q4 0 15.5 1t19.5 1h281z" />
<glyph unicode="&#xde;" horiz-adv-x="1142" d="M332 266v-266h-277v1481h277v-254h205q148 0 258 -35q107 -34 180 -98q65 -57 102 -148q35 -87 35 -192q0 -114 -35 -197q-38 -90 -108 -154q-67 -62 -178 -100q-107 -37 -254 -37h-205zM332 483h205q74 0 133 19q58 19 92 53q40 40 57 86q17 47 17 113q0 61 -17 108 q-16 44 -57 82q-36 33 -92 51q-59 19 -133 19h-205v-531z" />
<glyph unicode="&#xdf;" horiz-adv-x="1132" d="M586 1507q113 0 205 -37q89 -36 139 -86q56 -56 78 -112q24 -61 24 -113q0 -54 -20 -102q-20 -41 -51 -72q-34 -34 -64 -55q-11 -8 -33.5 -23t-32.5 -22q-36 -25 -51 -45q-18 -24 -18 -54q0 -33 24 -57q22 -22 64 -49q4 -2 84 -49q38 -22 82 -66q41 -41 63 -92 q27 -62 27 -133q0 -80 -33 -154q-26 -58 -88 -110q-55 -46 -129 -70q-67 -22 -154 -22q-42 0 -94 10q-47 9 -88 26q-45 19 -80 41q-39 25 -69 52l59 96q8 15 27 27q17 10 39 10q19 0 45 -15t47 -28q33 -21 57 -29q40 -14 80 -14q62 0 104 39q39 36 39 100q0 51 -26 80 q-33 37 -70 57q-80 44 -90 49q-42 20 -90 56q-39 27 -68 77q-28 48 -28 119q0 53 22 99q15 32 53 75q30 34 70 60q38 25 70 53q37 33 55 59q20 29 20 76q0 34 -12 64q-11 29 -37 51q-31 27 -65 37q-41 12 -99 12q-135 0 -202 -82q-68 -83 -68 -242v-999h-254v1008 q0 110 37 200q34 83 107 156q66 66 167 104q103 39 226 39z" />
<glyph unicode="&#xe0;" horiz-adv-x="1064" d="M979 186q51 -12 51 -63v-121h-129h-27h-86q-40 0 -57 10q-22 9 -31 45l-22 74q-42 -39 -78 -63q-34 -25 -80 -45q-41 -18 -86 -27q-52 -10 -102 -10q-68 0 -123 18q-60 19 -96 53q-44 41 -64 90q-22 55 -22 123q0 61 30 119q29 57 105 105t192 77q124 31 301 31v62 q0 103 -45 157q-42 51 -129 51q-64 0 -102 -14q-44 -16 -72 -33q-10 -6 -28.5 -15.5t-26.5 -14.5q-24 -15 -55 -15q-25 0 -45 13q-14 9 -29 32l-47 80q183 168 436 168q90 0 166 -31q70 -30 121 -84q57 -63 78 -129q24 -74 24 -163v-465q13 -2 31.5 -6t23.5 -5t10.5 -2 t8.5 -1.5t4 -0.5zM655 272v177q-111 0 -184 -15q-71 -15 -121 -37q-43 -20 -63 -49q-19 -28 -19 -63q0 -71 39 -97q42 -28 103 -28q36 0 71 6q36 6 64 22q35 19 55 35q27 21 55 49zM412 1497q40 0 61 -14t35 -39l147 -250h-145q-21 0 -45 8q-21 11 -37 29l-254 266h238z" />
<glyph unicode="&#xe1;" horiz-adv-x="1064" d="M979 186q51 -12 51 -63v-121h-129h-27h-86q-40 0 -57 10q-22 9 -31 45l-22 74q-42 -39 -78 -63q-34 -25 -80 -45q-41 -18 -86 -27q-52 -10 -102 -10q-68 0 -123 18q-60 19 -96 53q-44 41 -64 90q-22 55 -22 123q0 61 30 119q29 57 105 105t192 77q124 31 301 31v62 q0 103 -45 157q-42 51 -129 51q-64 0 -102 -14q-44 -16 -72 -33q-10 -6 -28.5 -15.5t-26.5 -14.5q-24 -15 -55 -15q-25 0 -45 13q-14 9 -29 32l-47 80q183 168 436 168q90 0 166 -31q70 -30 121 -84q57 -63 78 -129q24 -74 24 -163v-465q13 -2 31.5 -6t23.5 -5t10.5 -2 t8.5 -1.5t4 -0.5zM655 272v177q-111 0 -184 -15q-71 -15 -121 -37q-43 -20 -63 -49q-19 -28 -19 -63q0 -71 39 -97q42 -28 103 -28q36 0 71 6q36 6 64 22q35 19 55 35q27 21 55 49zM856 1497l-252 -266q-20 -23 -37 -29q-24 -8 -47 -8h-151l145 250q15 28 35 39q25 14 61 14 h246z" />
<glyph unicode="&#xe2;" horiz-adv-x="1064" d="M979 186q51 -12 51 -63v-121h-129h-27h-86q-40 0 -57 10q-22 9 -31 45l-22 74q-42 -39 -78 -63q-34 -25 -80 -45q-41 -18 -86 -27q-52 -10 -102 -10q-68 0 -123 18q-60 19 -96 53q-44 41 -64 90q-22 55 -22 123q0 61 30 119q29 57 105 105t192 77q124 31 301 31v62 q0 103 -45 157q-42 51 -129 51q-64 0 -102 -14q-44 -16 -72 -33q-10 -6 -28.5 -15.5t-26.5 -14.5q-24 -15 -55 -15q-25 0 -45 13q-14 9 -29 32l-47 80q183 168 436 168q90 0 166 -31q70 -30 121 -84q57 -63 78 -129q24 -74 24 -163v-465q13 -2 31.5 -6t23.5 -5t10.5 -2 t8.5 -1.5t4 -0.5zM655 272v177q-111 0 -184 -15q-71 -15 -121 -37q-43 -20 -63 -49q-19 -28 -19 -63q0 -71 39 -97q42 -28 103 -28q36 0 71 6q36 6 64 22q35 19 55 35q27 21 55 49zM856 1196h-170q-33 0 -51 18l-107 97q-2 2 -5 6t-5 6l-12 12q-2 -2 -5 -6t-5 -6l-11 -10 l-110 -99q-9 -6 -21 -12t-30 -6h-174l233 285h238z" />
<glyph unicode="&#xe3;" horiz-adv-x="1064" d="M979 186q51 -12 51 -63v-121h-129h-27h-86q-40 0 -57 10q-22 9 -31 45l-22 74q-42 -39 -78 -63q-34 -25 -80 -45q-41 -18 -86 -27q-52 -10 -102 -10q-68 0 -123 18q-60 19 -96 53q-44 41 -64 90q-22 55 -22 123q0 61 30 119q29 57 105 105t192 77q124 31 301 31v62 q0 103 -45 157q-42 51 -129 51q-64 0 -102 -14q-44 -16 -72 -33q-10 -6 -28.5 -15.5t-26.5 -14.5q-24 -15 -55 -15q-25 0 -45 13q-14 9 -29 32l-47 80q183 168 436 168q90 0 166 -31q70 -30 121 -84q57 -63 78 -129q24 -74 24 -163v-465q13 -2 31.5 -6t23.5 -5t10.5 -2 t8.5 -1.5t4 -0.5zM655 272v177q-111 0 -184 -15q-71 -15 -121 -37q-43 -20 -63 -49q-19 -28 -19 -63q0 -71 39 -97q42 -28 103 -28q36 0 71 6q36 6 64 22q35 19 55 35q27 21 55 49zM612 1393q31 0 47 16q19 19 19 61h153q0 -54 -16 -104q-14 -43 -43 -80q-25 -32 -65 -51 q-37 -18 -86 -18q-33 0 -68 14q-24 10 -59 29q-36 20 -52 28q-24 12 -45 12q-29 0 -47 -18q-16 -16 -16 -59h-158q0 49 17 102q12 38 45 80q26 33 67 53q40 19 82 19q33 0 70 -15q31 -12 59 -28q6 -3 24 -13.5t27 -15.5q24 -12 45 -12z" />
<glyph unicode="&#xe4;" horiz-adv-x="1064" d="M979 186q51 -12 51 -63v-121h-129h-27h-86q-40 0 -57 10q-22 9 -31 45l-22 74q-42 -39 -78 -63q-34 -25 -80 -45q-41 -18 -86 -27q-52 -10 -102 -10q-68 0 -123 18q-60 19 -96 53q-44 41 -64 90q-22 55 -22 123q0 61 30 119q29 57 105 105t192 77q124 31 301 31v62 q0 103 -45 157q-42 51 -129 51q-64 0 -102 -14q-44 -16 -72 -33q-10 -6 -28.5 -15.5t-26.5 -14.5q-24 -15 -55 -15q-25 0 -45 13q-14 9 -29 32l-47 80q183 168 436 168q90 0 166 -31q70 -30 121 -84q57 -63 78 -129q24 -74 24 -163v-465q13 -2 31.5 -6t23.5 -5t10.5 -2 t8.5 -1.5t4 -0.5zM655 272v177q-111 0 -184 -15q-71 -15 -121 -37q-43 -20 -63 -49q-19 -28 -19 -63q0 -71 39 -97q42 -28 103 -28q36 0 71 6q36 6 64 22q35 19 55 35q27 21 55 49zM453 1323q0 -27 -13 -53t-30 -43t-45 -31q-23 -10 -56 -10t-53 10q-28 14 -45 31 q-19 19 -31 43q-10 20 -10 53q0 35 10 55q16 32 31 47q17 17 45 31q20 10 53 10q36 0 56 -10q28 -14 45 -31q13 -13 30 -47q13 -26 13 -55zM836 1323q0 -27 -13 -53t-30 -43t-45 -31q-20 -10 -56 -10q-33 0 -53 10q-28 14 -45 31q-19 19 -31 43q-10 20 -10 53q0 35 10 55 q16 32 31 47q17 17 45 31q20 10 53 10q36 0 56 -10q28 -14 45 -31q13 -13 30 -47q13 -26 13 -55z" />
<glyph unicode="&#xe5;" horiz-adv-x="1064" d="M979 186q51 -12 51 -63v-121h-129h-27h-86q-40 0 -57 10q-22 9 -31 45l-22 74q-42 -39 -78 -63q-34 -25 -80 -45q-41 -18 -86 -27q-52 -10 -102 -10q-68 0 -123 18q-60 19 -96 53q-44 41 -64 90q-22 55 -22 123q0 61 30 119q29 57 105 105t192 77q124 31 301 31v62 q0 103 -45 157q-42 51 -129 51q-64 0 -102 -14q-44 -16 -72 -33q-10 -6 -28.5 -15.5t-26.5 -14.5q-24 -15 -55 -15q-25 0 -45 13q-14 9 -29 32l-47 80q183 168 436 168q90 0 166 -31q70 -30 121 -84q57 -63 78 -129q24 -74 24 -163v-465q13 -2 31.5 -6t23.5 -5t10.5 -2 t8.5 -1.5t4 -0.5zM655 272v177q-111 0 -184 -15q-71 -15 -121 -37q-43 -20 -63 -49q-19 -28 -19 -63q0 -71 39 -97q42 -28 103 -28q36 0 71 6q36 6 64 22q35 19 55 35q27 21 55 49zM274 1358q0 43 19 86q14 32 51 65q31 28 72 43q46 17 86 17q39 0 88 -17q43 -15 74 -43 q37 -33 51 -65q18 -40 18 -86t-18 -84q-17 -35 -51 -66q-31 -28 -74 -43q-41 -14 -88 -14q-48 0 -86 14q-41 15 -72 43q-34 31 -51 66q-19 40 -19 84zM412 1358q0 -42 24 -66q26 -26 70 -26q39 0 65 26q25 25 25 66q0 42 -25 67t-65 25q-45 0 -70 -25q-24 -24 -24 -67z" />
<glyph unicode="&#xe6;" horiz-adv-x="1595" d="M1147 1067q86 0 164 -35q80 -36 133 -98q60 -69 88 -156q33 -101 33 -207q0 -25 -4 -49q-3 -15 -9 -28q-6 -12 -16 -17q-8 -4 -29 -4h-612q15 -150 86 -221q72 -72 182 -72q61 0 115 15q43 12 72 28q3 2 47 31q18 12 41 12q20 0 32 -6q14 -7 21 -16l65 -86 q-48 -55 -90 -84q-53 -37 -106 -54q-49 -16 -111 -26q-49 -8 -110 -8q-109 0 -207 49t-160 158q-29 -54 -76 -95q-52 -45 -98 -65q-60 -26 -117 -37q-61 -12 -125 -12q-69 0 -137 20q-61 18 -104 55q-40 34 -66 95q-22 51 -22 129q0 57 30 118q28 57 105 109q79 53 194 82 q111 32 299 35v37q0 102 -45 159q-42 54 -129 54q-61 0 -102 -15q-36 -13 -72 -35q-15 -9 -55 -34q-24 -15 -55 -15q-25 0 -45 13q-14 9 -29 32l-47 82q85 77 190 123q93 41 219 41q121 0 195 -45q76 -46 115 -123q59 77 145 121q88 45 207 45zM655 473q-117 -6 -184 -20 q-75 -15 -121 -39q-43 -22 -63 -56q-19 -32 -19 -63q0 -72 39 -105q38 -32 111 -32q48 0 94 16q41 14 74 47q34 34 51 84q18 52 18 121v47zM1135 887q-105 0 -166 -70q-62 -72 -74 -190h444q0 49 -12 96q-11 44 -37 84q-22 35 -65 57q-44 23 -90 23z" />
<glyph unicode="&#xe7;" horiz-adv-x="940" d="M844 250l71 -92q-48 -55 -90 -84q-44 -31 -102 -54q-46 -16 -109 -26q-18 -3 -39 -6l-12 -43q91 -21 129 -62q37 -40 37 -90q0 -34 -18 -61q-20 -30 -52 -47q-49 -26 -77 -31q-52 -10 -103 -10q-41 0 -78 6q-42 7 -71 16l22 78q6 25 29 25q10 0 14 -2t19 -7q3 -1 9.5 -2 t10.5 -2q8 -2 29 -2q32 0 51 13q16 11 16 30q0 31 -36 43q-48 15 -113 23l6 26l6 19l27 84q-63 11 -101 28q-85 37 -149 107q-66 72 -102 170q-37 101 -37 231q0 121 32 213q34 98 99 172q67 73 160 113q96 41 219 41q130 0 331 -76l-2 -323h-8h-24h-84q-38 0 -47 39 q-12 97 -17 147q-76 20 -135 20q-67 0 -117 -24q-47 -23 -82 -70q-38 -51 -51 -108q-16 -69 -16 -144q0 -84 18 -149q18 -63 53 -111q36 -46 80 -67q54 -23 109 -23q61 0 98 15q46 18 64 32q5 4 21.5 15.5t23.5 17.5q17 14 41 14q33 0 47 -22z" />
<glyph unicode="&#xe8;" horiz-adv-x="1021" d="M537 1067q97 0 182 -31q77 -28 143 -94q59 -59 94 -149t35 -201q0 -25 -4 -49q-4 -23 -8 -29q-5 -9 -18 -16q-8 -4 -29 -4h-649q12 -162 88 -238t200 -76q61 0 105 15q44 14 78 32q57 30 59 31q22 14 47 14q17 0 29 -6q10 -5 18 -16l74 -92q-46 -53 -94 -84 q-56 -37 -109 -54q-53 -16 -116 -26q-52 -8 -115 -8q-117 0 -203 34q-91 36 -164 109q-69 69 -110 176q-39 101 -39 244q0 105 35 201q34 93 100 165q63 69 158 111q93 41 213 41zM541 887q-108 0 -172 -64q-62 -62 -80 -176h475q0 41 -14 92q-10 36 -41 76q-26 33 -70 51 q-51 21 -98 21zM451 1497q40 0 61 -14q24 -16 37 -39l145 -250h-143q-23 0 -47 8q-21 11 -37 29l-252 266h236z" />
<glyph unicode="&#xe9;" horiz-adv-x="1021" d="M537 1067q97 0 182 -31q77 -28 143 -94q59 -59 94 -149t35 -201q0 -25 -4 -49q-4 -23 -8 -29q-5 -9 -18 -16q-8 -4 -29 -4h-649q12 -162 88 -238t200 -76q61 0 105 15q44 14 78 32q57 30 59 31q22 14 47 14q17 0 29 -6q10 -5 18 -16l74 -92q-46 -53 -94 -84 q-56 -37 -109 -54q-53 -16 -116 -26q-52 -8 -115 -8q-117 0 -203 34q-91 36 -164 109q-69 69 -110 176q-39 101 -39 244q0 105 35 201q34 93 100 165q63 69 158 111q93 41 213 41zM541 887q-108 0 -172 -64q-62 -62 -80 -176h475q0 41 -14 92q-10 36 -41 76q-26 33 -70 51 q-51 21 -98 21zM897 1497l-254 -266q-20 -23 -37 -29q-24 -8 -47 -8h-151l145 250q15 26 37 39q24 14 61 14h246z" />
<glyph unicode="&#xea;" horiz-adv-x="1021" d="M537 1067q97 0 182 -31q77 -28 143 -94q59 -59 94 -149t35 -201q0 -25 -4 -49q-4 -23 -8 -29q-5 -9 -18 -16q-8 -4 -29 -4h-649q12 -162 88 -238t200 -76q61 0 105 15q44 14 78 32q57 30 59 31q22 14 47 14q17 0 29 -6q10 -5 18 -16l74 -92q-46 -53 -94 -84 q-56 -37 -109 -54q-53 -16 -116 -26q-52 -8 -115 -8q-117 0 -203 34q-91 36 -164 109q-69 69 -110 176q-39 101 -39 244q0 105 35 201q34 93 100 165q63 69 158 111q93 41 213 41zM541 887q-108 0 -172 -64q-62 -62 -80 -176h475q0 41 -14 92q-10 36 -41 76q-26 33 -70 51 q-51 21 -98 21zM895 1196h-168q-33 0 -51 18l-109 99l-10 10q-2 2 -5 6t-5 6l-12 -12l-11 -10l-108 -99q-3 -2 -23 -12q-12 -6 -28 -6h-177l236 285h238z" />
<glyph unicode="&#xeb;" horiz-adv-x="1021" d="M537 1067q97 0 182 -31q77 -28 143 -94q59 -59 94 -149t35 -201q0 -25 -4 -49q-4 -23 -8 -29q-5 -9 -18 -16q-8 -4 -29 -4h-649q12 -162 88 -238t200 -76q61 0 105 15q44 14 78 32q57 30 59 31q22 14 47 14q17 0 29 -6q10 -5 18 -16l74 -92q-46 -53 -94 -84 q-56 -37 -109 -54q-53 -16 -116 -26q-52 -8 -115 -8q-117 0 -203 34q-91 36 -164 109q-69 69 -110 176q-39 101 -39 244q0 105 35 201q34 93 100 165q63 69 158 111q93 41 213 41zM541 887q-108 0 -172 -64q-62 -62 -80 -176h475q0 41 -14 92q-10 36 -41 76q-26 33 -70 51 q-51 21 -98 21zM492 1323q0 -31 -11 -53t-32 -43q-16 -16 -46 -31q-20 -10 -55 -10q-33 0 -53 10q-24 12 -43 31t-31 43t-12 53q0 31 12 55q16 32 31 47q19 19 43 31q20 10 53 10q35 0 55 -10q30 -15 46 -31q15 -13 32 -47q11 -22 11 -55zM874 1323q0 -33 -10 -53 q-15 -30 -30 -45q-10 -10 -48 -29q-20 -10 -53 -10q-35 0 -55 10q-32 16 -45 29t-29 45q-12 24 -12 53q0 31 12 55q18 36 29 47q17 17 45 31q20 10 55 10q33 0 53 -10q31 -14 48 -31q13 -13 30 -47q10 -20 10 -55z" />
<glyph unicode="&#xec;" horiz-adv-x="659" d="M573 184q52 -12 52 -63v-121h-156h-252h-156v121q0 51 52 63q1 0 5 1t7 1q14 4 31 7q8 1 29.5 4.5t31.5 5.5v645q-10 2 -31.5 5.5t-29.5 4.5q-7 1 -17.5 3.5t-13.5 2.5t-7 1t-5 1q-52 12 -52 64v121h156h252v-848q10 -2 31.5 -5.5t29.5 -4.5q7 -1 16.5 -4t12.5 -3t8 -1 t6 -1zM260 1497q41 0 62 -14q20 -13 34 -39l148 -250h-146q-23 0 -47 8q-18 9 -35 29l-253 266h237z" />
<glyph unicode="&#xed;" horiz-adv-x="704" d="M549 184q51 -12 51 -63v-121h-154h-253h-154v121q0 51 51 63l4 1q4 1 8 1q14 4 31 7q7 1 27.5 4.5t32.5 5.5v645q-12 2 -32.5 5.5t-27.5 4.5t-17.5 3.5t-13.5 2.5q-4 0 -8 1l-4 1q-51 12 -51 64v121h154h253v-848q12 -2 32.5 -5.5t27.5 -4.5t17.5 -4t13.5 -3t7 -1t5 -1z M682 1497l-254 -266q-20 -23 -37 -29q-24 -8 -47 -8h-151l145 250q15 26 37 39q25 14 61 14h246z" />
<glyph unicode="&#xee;" horiz-adv-x="751" d="M598 184q51 -12 51 -63v-121h-153h-254h-156v121q0 51 51 63q1 0 6 1t9 1q16 5 28 7q6 1 15.5 2.5t23.5 3.5t23 4v645q-9 2 -23 4t-23.5 3.5t-15.5 2.5q-7 1 -16 3.5t-12 2.5q-4 0 -9 1t-6 1q-51 12 -51 64v121h156h254v-848q12 -2 32 -5.5t27 -4.5t17.5 -4t13.5 -3 q4 0 8 -1zM729 1196h-168q-33 0 -51 18l-109 99l-10 10q-2 2 -5 6t-5 6l-12 -12l-11 -10l-108 -99q-3 -2 -23 -12q-12 -6 -28 -6h-176l235 285h238z" />
<glyph unicode="&#xef;" horiz-adv-x="718" d="M582 184q51 -12 51 -63v-121h-154h-254h-155v121q0 51 51 63q1 0 6 1t8 1q15 5 29 7q8 1 29.5 4.5t31.5 5.5v645q-10 2 -31.5 5.5t-29.5 4.5q-7 1 -16.5 3.5t-12.5 2.5t-8 1t-6 1q-51 12 -51 64v121h155h254v-848q12 -2 32.5 -5.5t27.5 -4.5t17 -4t13 -3t8 -1zM309 1323 q0 -33 -10 -53t-33 -43q-17 -17 -45 -31q-20 -10 -55 -10q-33 0 -53 10q-24 12 -43 31t-31 43t-12 53q0 31 12 55q16 32 31 47q19 19 43 31q20 10 53 10q35 0 55 -10q28 -14 45 -31q19 -19 33 -47q10 -20 10 -55zM692 1323q0 -33 -10 -53q-12 -24 -31 -43q-15 -15 -47 -31 q-22 -10 -53 -10q-35 0 -55 10q-28 14 -45 31q-15 15 -29 43q-12 24 -12 53q0 31 12 55q18 36 29 47q17 17 45 31q20 10 55 10q33 0 53 -10q29 -13 47 -31q15 -15 31 -47q10 -20 10 -55z" />
<glyph unicode="&#xf0;" horiz-adv-x="1085" d="M356 1087q-10 17 -10 35q0 32 33 49l76 43q-9 3 -31.5 12t-36.5 13q-20 7 -76 23q-25 6 -43 24t-18 49q0 21 8 45l31 86q95 -16 198 -49q87 -28 181 -82l180 117l51 -82q10 -20 10 -31q0 -12 -8 -28q-11 -14 -22 -21l-82 -45q56 -50 104 -117q49 -68 82 -141 q32 -71 51 -168t19 -196q0 -150 -35 -269q-36 -122 -100 -200q-67 -81 -166 -125q-98 -43 -226 -43q-111 0 -196 32q-86 33 -158 101q-67 64 -104 155q-39 95 -39 211q0 102 32 181q33 82 95 147t147 102q89 39 193 39q102 0 178 -36q86 -41 143 -103q-21 109 -72 186 q-52 78 -139 138l-203 -131zM532 176q57 0 111 23q50 21 86 69q40 52 59 123q24 89 27 184q-12 31 -41 72q-27 39 -57 60q-36 25 -74 38q-49 17 -96 17q-61 0 -115 -23q-49 -21 -84 -59q-31 -34 -51 -88q-18 -50 -18 -109q0 -69 20 -131q21 -57 55 -96q36 -42 80 -59 q54 -21 98 -21z" />
<glyph unicode="&#xf1;" horiz-adv-x="1300" d="M1212 184q52 -12 52 -63v-121h-156h-252v668q0 95 -45 149q-44 53 -133 53q-64 0 -123 -30q-60 -31 -109 -80v-557q12 -2 32.5 -5.5t27.5 -4.5q18 -3 31 -7q6 -2 12 -2q51 -12 51 -63v-121h-154h-253h-154v121q0 51 51 63l4 1q4 1 8 1q14 4 31 7q7 1 27.5 4.5t32.5 5.5 v645q-12 2 -32.5 5.5t-27.5 4.5t-17.5 3.5t-13.5 2.5q-6 2 -12 2q-51 12 -51 64v121h154h155q49 0 64 -47l18 -82q27 31 66 59q34 27 75 45q59 26 84 31q52 10 99 10q88 0 153 -29q59 -24 111 -82q42 -51 67 -127q23 -70 23 -161v-465q10 -2 31.5 -5.5t29.5 -4.5 q7 -1 17.5 -4t13.5 -3q4 0 8 -1zM760 1393q31 0 47 16q18 18 18 61h154q0 -54 -16 -104q-14 -43 -43 -80q-24 -31 -66 -51q-38 -18 -86 -18q-38 0 -68 12q-31 12 -59 28q-6 3 -24 13.5t-27 15.5q-28 14 -45 14q-29 0 -47 -18q-17 -17 -17 -61h-157q0 54 16 104q12 38 45 80 q26 33 68 53q35 17 82 17q37 0 69 -13q34 -14 60 -28q6 -3 24 -13.5t27 -15.5q24 -12 45 -12z" />
<glyph unicode="&#xf2;" horiz-adv-x="1101" d="M553 1067q115 0 213 -39q101 -40 164 -106q64 -67 102 -170q37 -101 37 -224q0 -124 -37 -225q-39 -106 -102 -172q-66 -69 -164 -108q-93 -37 -213 -37q-122 0 -215 37q-98 39 -164 108q-69 73 -106 172q-37 101 -37 225q0 123 37 224q35 96 106 170q63 66 164 106 q98 39 215 39zM553 180q131 0 192 88q64 92 64 258t-64 258q-63 90 -192 90q-131 0 -197 -90q-65 -89 -65 -260q0 -167 65 -256q64 -88 197 -88zM463 1497q40 0 61 -14q19 -13 35 -41l146 -248h-144q-23 0 -47 8q-21 10 -35 27l-254 268h238z" />
<glyph unicode="&#xf3;" horiz-adv-x="1101" d="M553 1067q115 0 213 -39q101 -40 164 -106q64 -67 102 -170q37 -101 37 -224q0 -124 -37 -225q-39 -106 -102 -172q-66 -69 -164 -108q-93 -37 -213 -37q-122 0 -215 37q-98 39 -164 108q-69 73 -106 172q-37 101 -37 225q0 123 37 224q35 96 106 170q63 66 164 106 q98 39 215 39zM553 180q131 0 192 88q64 92 64 258t-64 258q-63 90 -192 90q-131 0 -197 -90q-65 -89 -65 -260q0 -167 65 -256q64 -88 197 -88zM907 1497l-252 -268q-17 -20 -39 -27q-24 -8 -47 -8h-151l147 248q17 31 35 41q25 14 62 14h245z" />
<glyph unicode="&#xf4;" horiz-adv-x="1101" d="M553 1067q115 0 213 -39q101 -40 164 -106q64 -67 102 -170q37 -101 37 -224q0 -124 -37 -225q-39 -106 -102 -172q-66 -69 -164 -108q-93 -37 -213 -37q-122 0 -215 37q-98 39 -164 108q-69 73 -106 172q-37 101 -37 225q0 123 37 224q35 96 106 170q63 66 164 106 q98 39 215 39zM553 180q131 0 192 88q64 92 64 258t-64 258q-63 90 -192 90q-131 0 -197 -90q-65 -89 -65 -260q0 -167 65 -256q64 -88 197 -88zM905 1196h-168q-33 0 -51 18l-108 97q-2 2 -5.5 6t-5.5 6t-5 6t-5 6q-2 -2 -5 -6t-5 -6t-5 -6t-5 -6l-111 -97q-3 -2 -23 -12 q-12 -6 -28 -6h-174l233 285h238z" />
<glyph unicode="&#xf5;" horiz-adv-x="1101" d="M553 1067q115 0 213 -39q101 -40 164 -106q64 -67 102 -170q37 -101 37 -224q0 -124 -37 -225q-39 -106 -102 -172q-66 -69 -164 -108q-93 -37 -213 -37q-122 0 -215 37q-98 39 -164 108q-69 73 -106 172q-37 101 -37 225q0 123 37 224q35 96 106 170q63 66 164 106 q98 39 215 39zM553 180q131 0 192 88q64 92 64 258t-64 258q-63 90 -192 90q-131 0 -197 -90q-65 -89 -65 -260q0 -167 65 -256q64 -88 197 -88zM664 1393q31 0 47 16q18 18 18 61h152q0 -58 -15 -104q-14 -43 -43 -80q-24 -30 -67 -51q-38 -18 -84 -18q-40 0 -70 12 q-24 9 -57 28q-45 25 -53 29q-28 14 -46 14q-27 0 -45 -18q-16 -16 -16 -61h-158q0 51 17 104q14 43 43 80q26 33 67 53q35 17 84 17q38 0 70 -13q31 -12 59 -28q6 -3 24 -13.5t27 -15.5q24 -12 46 -12z" />
<glyph unicode="&#xf6;" horiz-adv-x="1099" d="M551 1067q115 0 213 -39q101 -40 164 -106q67 -70 104 -170q37 -101 37 -224q0 -124 -37 -225q-38 -103 -104 -172t-164 -108q-93 -37 -213 -37q-122 0 -215 37q-98 39 -164 108t-104 172q-39 106 -39 225q0 118 39 224q37 100 104 170q63 66 164 106q98 39 215 39z M551 180q133 0 194 88q62 89 62 258t-62 258q-63 90 -194 90t-197 -90q-63 -86 -63 -260q0 -170 63 -256q64 -88 197 -88zM502 1323q0 -33 -10 -53q-12 -24 -33 -45q-13 -13 -45 -29q-20 -10 -56 -10q-33 0 -53 10q-28 14 -43 29q-21 21 -33 45q-10 20 -10 53q0 35 10 55 q14 28 33 47q15 15 43 29q24 12 53 12q32 0 56 -12q32 -16 45 -29q19 -19 33 -47q10 -20 10 -55zM885 1323q0 -31 -11 -53q-15 -30 -30 -45q-11 -11 -47 -29q-20 -10 -54 -10q-35 0 -55 10q-32 16 -45 29t-29 45q-12 24 -12 53q0 31 12 55q18 36 29 47q13 13 45 29 q24 12 55 12q30 0 54 -12q32 -14 47 -29q9 -9 28 -47q13 -26 13 -55z" />
<glyph unicode="&#xf7;" horiz-adv-x="1067" d="M33 782h999v-188h-999v188zM377 1053q0 32 12 59q13 29 33 49t49 33q27 12 61 12q33 0 60 -12q29 -13 49 -33q24 -24 35 -49q12 -27 12 -59q0 -35 -12 -62q-11 -25 -35 -49q-20 -20 -49 -33q-23 -10 -60 -10q-38 0 -61 10q-29 13 -49 33t-33 49q-12 27 -12 62zM377 324 q0 32 12 59q13 29 33 49t49 33q27 12 61 12q33 0 60 -12q29 -13 49 -33q24 -24 35 -49q12 -27 12 -59q0 -35 -12 -62q-11 -25 -35 -49q-20 -20 -49 -33q-22 -10 -60 -10t-61 10q-29 13 -49 33t-33 49q-12 27 -12 62z" />
<glyph unicode="&#xf8;" horiz-adv-x="1144" d="M946 913q64 -70 101 -168q34 -90 34 -217q0 -124 -37 -225q-39 -106 -102 -172q-66 -69 -164 -108t-213 -39q-70 0 -139 16q-66 15 -123 43l-33 -47q-30 -40 -71 -57t-80 -17h-94l157 213q-66 68 -104 170q-35 92 -35 223q0 123 37 224q35 96 106 170q63 66 164 106 q98 39 215 39q80 0 140 -14q49 -11 118 -45l58 77q14 21 24 31q9 9 25 21q12 9 28 12q10 2 37 2h127zM287 524q0 -126 32 -200l386 522q-59 35 -140 35q-135 0 -207 -93q-71 -92 -71 -264zM565 172q132 0 201 90q72 93 72 262q0 62 -9 111q-10 56 -22 88l-385 -518 q53 -33 143 -33z" />
<glyph unicode="&#xf9;" horiz-adv-x="1288" d="M1200 184q51 -12 51 -63v-121h-153h-156q-48 0 -63 47l-19 84q-39 -39 -67 -61q-36 -28 -74 -45q-47 -21 -86 -31q-52 -10 -96 -10q-84 0 -154 28q-58 24 -111 84q-41 47 -67 125q-23 80 -23 162v465q-88 16 -104 18q-51 12 -51 64v121h155h252v-668q0 -96 45 -150 q42 -51 133 -51q60 0 123 29q54 25 109 80v557q-29 5 -50 8.5t-28.5 5t-13.5 2.5t-11 2q-51 12 -51 64v121h154h254v-848q29 -5 50 -9t28.5 -5.5l12.5 -2.5t11 -2zM557 1497q40 0 61 -14t35 -39l148 -250h-146q-23 0 -47 8q-18 9 -35 29l-254 266h238z" />
<glyph unicode="&#xfa;" horiz-adv-x="1288" d="M1200 184q51 -12 51 -63v-121h-153h-156q-48 0 -63 47l-19 84q-39 -39 -67 -61q-36 -28 -74 -45q-47 -21 -86 -31q-52 -10 -96 -10q-84 0 -154 28q-58 24 -111 84q-41 47 -67 125q-23 80 -23 162v465q-88 16 -104 18q-51 12 -51 64v121h155h252v-668q0 -96 45 -150 q42 -51 133 -51q60 0 123 29q54 25 109 80v557q-29 5 -50 8.5t-28.5 5t-13.5 2.5t-11 2q-51 12 -51 64v121h154h254v-848q29 -5 50 -9t28.5 -5.5l12.5 -2.5t11 -2zM1001 1497l-251 -266q-19 -22 -39 -29q-24 -8 -45 -8h-152l145 250q15 28 35 39q24 14 62 14h245z" />
<glyph unicode="&#xfb;" horiz-adv-x="1288" d="M1200 184q51 -12 51 -63v-121h-153h-156q-48 0 -63 47l-19 84q-39 -39 -67 -61q-36 -28 -74 -45q-47 -21 -86 -31q-52 -10 -96 -10q-84 0 -154 28q-58 24 -111 84q-41 47 -67 125q-23 80 -23 162v465q-88 16 -104 18q-51 12 -51 64v121h155h252v-668q0 -96 45 -150 q42 -51 133 -51q60 0 123 29q54 25 109 80v557q-29 5 -50 8.5t-28.5 5t-13.5 2.5t-11 2q-51 12 -51 64v121h154h254v-848q29 -5 50 -9t28.5 -5.5l12.5 -2.5t11 -2zM1001 1196h-170q-33 0 -51 18l-106 99q-2 2 -6 5t-6 5t-5.5 6t-5.5 6q-2 -2 -5 -6t-5 -6l-10 -10l-111 -99 q-6 -4 -22 -12q-12 -6 -29 -6h-174l233 285h238z" />
<glyph unicode="&#xfc;" horiz-adv-x="1288" d="M1200 184q51 -12 51 -63v-121h-153h-156q-48 0 -63 47l-19 84q-39 -39 -67 -61q-36 -28 -74 -45q-47 -21 -86 -31q-52 -10 -96 -10q-84 0 -154 28q-58 24 -111 84q-41 47 -67 125q-23 80 -23 162v465q-88 16 -104 18q-51 12 -51 64v121h155h252v-668q0 -96 45 -150 q42 -51 133 -51q60 0 123 29q54 25 109 80v557q-29 5 -50 8.5t-28.5 5t-13.5 2.5t-11 2q-51 12 -51 64v121h154h254v-848q29 -5 50 -9t28.5 -5.5l12.5 -2.5t11 -2zM598 1323q0 -29 -12 -53t-31 -43q-15 -15 -47 -31q-20 -10 -53 -10q-34 0 -54 10q-28 14 -45 31t-30 43 q-11 22 -11 53q0 33 11 55q17 34 30 47q17 17 45 31q20 10 54 10q33 0 53 -10q32 -16 47 -31q13 -11 31 -47q12 -24 12 -55zM981 1323q0 -29 -12 -53t-31 -43q-17 -17 -45 -31q-20 -10 -55 -10q-34 0 -54 10q-28 14 -45 31t-30 43q-11 22 -11 53q0 33 11 55q17 34 30 47 q17 17 45 31q20 10 54 10q35 0 55 -10q28 -14 45 -31q15 -15 31 -47q12 -24 12 -55z" />
<glyph unicode="&#xfd;" horiz-adv-x="1251" d="M1159 1051h62v-121q0 -52 -52 -64q-6 -1 -11.5 -2.5t-26.5 -5.5t-58 -10l-485 -1137q-13 -29 -31 -41q-14 -12 -53 -12h-189l197 420l-338 770q-29 5 -48.5 8.5t-26 5t-11.5 2.5l-10 2q-51 12 -51 64v121h59h221h232v-121q0 -52 -52 -64q-3 -1 -16.5 -3t-32.5 -5 l166 -399q1 -3 19 -56q4 -12 14 -57q9 30 18 57q12 35 21 56l153 395l-69 12q-51 12 -51 64v121h247h203zM999 1497l-251 -268q-17 -20 -39 -27q-24 -8 -45 -8h-152l145 248q17 31 35 41q24 14 62 14h245z" />
<glyph unicode="&#xfe;" horiz-adv-x="1054" d="M55 -344v1866h252v-600q56 61 144 106q77 39 184 39q90 0 156 -35q69 -34 122 -102t80 -168q29 -106 29 -227q0 -115 -31 -220q-27 -93 -92 -174q-54 -68 -141 -114q-78 -41 -189 -41q-49 0 -82 8q-48 12 -69 22q-22 11 -58 39q-31 24 -53 49v-448h-252zM547 870 q-84 0 -135 -32q-53 -33 -103 -95v-471q43 -52 92 -73t111 -21q56 0 102 21q51 23 80 65q32 46 49 111q19 71 19 160q0 82 -17 155q-16 69 -40 105q-25 38 -68 57q-41 18 -90 18z" />
<glyph unicode="&#xff;" horiz-adv-x="1251" d="M1159 1051h62v-121q0 -52 -52 -64q-6 -1 -11.5 -2.5t-26.5 -5.5t-58 -10l-485 -1137q-13 -29 -31 -41q-14 -12 -53 -12h-189l197 420l-338 770q-29 5 -48.5 8.5t-26 5t-11.5 2.5l-10 2q-51 12 -51 64v121h59h221h232v-121q0 -52 -52 -64q-3 -1 -16.5 -3t-32.5 -5 l166 -399q1 -3 19 -56q4 -12 14 -57q9 30 18 57q12 35 21 56l153 395l-69 12q-51 12 -51 64v121h247h203zM596 1323q0 -29 -12 -53q-14 -28 -31 -45q-11 -11 -47 -29q-20 -10 -53 -10q-34 0 -54 10q-32 16 -45 29q-15 15 -30 45q-11 22 -11 53q0 33 11 55q17 34 30 47t45 29 q24 12 54 12q29 0 53 -12q36 -18 47 -29q15 -15 31 -47q12 -24 12 -55zM979 1323q0 -29 -12 -53q-14 -28 -31 -45q-13 -13 -45 -29q-20 -10 -55 -10q-34 0 -54 10q-32 16 -45 29q-15 15 -30 45q-11 22 -11 53q0 33 11 55q17 34 30 47t45 29q24 12 54 12q31 0 55 -12 q29 -13 45 -29q15 -15 31 -47q12 -24 12 -55z" />
<glyph unicode="&#x104;" horiz-adv-x="1660" d="M1423 -57q-15 -18 -24 -39q-10 -23 -10 -43q0 -29 20 -49q17 -17 53 -17q25 0 33 2q3 1 11 2t10 2q4 1 8 4q3 1 4 2q6 3 10 3q18 0 25 -17l39 -94q-38 -23 -84 -37t-109 -14q-102 0 -154 41q-55 43 -55 108q0 54 39 109q36 50 107 94h-7h-215v104q0 22 9 33.5t32 20.5 q6 2 41 16l-8 23l-74 200h-589l-76 -211l-6 -12q35 -14 41 -16q23 -9 32 -20.5t9 -33.5v-104h-213h-21h-33h-162h-71v104q0 22 9 33.5t32 20.5q14 7 112 47l500 1276h283l502 -1276q98 -40 112 -47q23 -9 31 -20.5t8 -33.5v-104h-72h-55q-29 -16 -39 -25q-27 -23 -35 -32z M774 1051l-168 -459h449l-170 459q-3 9 -12 35t-15 42q-8 22 -29 97q-25 -89 -28 -97q-4 -14 -8.5 -27.5t-10 -27.5t-8.5 -22z" />
<glyph unicode="&#x105;" horiz-adv-x="1064" d="M827 -55q-15 -18 -24 -39q-10 -23 -10 -43q0 -29 20 -49q17 -17 53 -17q25 0 33 2q3 1 11 2t10 2l12 7q4 2 10 2q18 0 25 -17l39 -94q-40 -24 -84 -37q-46 -14 -109 -14q-102 0 -154 41q-55 43 -55 108q0 60 39 111q41 52 111 96h2q-3 1 -8.5 1.5t-9.5 1.5t-7 3 q-22 9 -31 45l-22 74q-42 -39 -78 -63q-34 -25 -80 -45q-41 -18 -86 -27q-52 -10 -102 -10q-68 0 -123 18q-60 19 -96 53q-44 41 -64 90q-22 55 -22 123q0 61 30 119q29 57 105 105t192 77q124 31 301 31v62q0 103 -45 157q-42 51 -129 51q-64 0 -102 -14q-44 -16 -72 -33 q-9 -5 -27.5 -16t-27.5 -16q-24 -15 -55 -15q-23 0 -45 15q-17 12 -31 32l-45 80q181 166 436 166q95 0 166 -29q74 -32 121 -84q57 -63 78 -129q24 -74 24 -163v-465q34 -6 54 -10t24 -5q51 -12 51 -63v-121h-129q-29 -16 -39 -25q-27 -23 -35 -32zM655 272v177 q-111 0 -184 -15q-68 -14 -119 -37q-46 -21 -65 -49t-19 -63q0 -71 39 -97q42 -28 103 -28q36 0 71 6q36 6 64 22q35 19 55 35q27 21 55 49z" />
<glyph unicode="&#x106;" horiz-adv-x="1304" d="M1135 1014q-39 0 -48 37q-6 26 -18 163q-164 48 -283 48q-109 0 -192 -35q-88 -37 -150 -105q-61 -67 -98 -164q-37 -98 -37 -219q0 -123 37 -221q39 -104 94 -164q57 -62 144 -102q77 -35 176 -35q56 0 102 6q41 5 84 19q34 11 72 34q16 10 67 54q5 5 23 14q8 4 25 4 q25 0 38 -16l109 -119q-89 -111 -221 -170q-133 -59 -318 -59q-159 0 -295 57q-137 57 -225 156q-95 106 -143 239q-49 137 -49 303q0 171 55 308q54 135 156 237q105 105 239 158q137 55 309 55q191 0 465 -106v-377h-118zM1174 1835l-304 -221q-3 -2 -7 -5.5t-7 -5.5 l-6 -4q-5 -3 -19 -8q-12 -4 -20 -4q-4 0 -13 -1t-14 -1h-198l200 209q9 9 25 21q14 11 20 12q12 6 27 6q4 0 16 1t19 1h281z" />
<glyph unicode="&#x107;" horiz-adv-x="940" d="M844 250l71 -92q-48 -55 -90 -84q-44 -31 -102 -54q-46 -16 -109 -26q-49 -8 -112 -8q-105 0 -183 34q-85 37 -149 107q-66 72 -102 170q-37 101 -37 231q0 121 32 213q34 98 99 172q62 71 160 113q96 41 219 41q130 0 331 -76l-2 -323h-8h-24h-84q-38 0 -47 39 q-12 97 -17 147q-76 20 -135 20q-67 0 -117 -24q-49 -24 -82 -68q-37 -50 -51 -110q-16 -69 -16 -144q0 -84 18 -149q19 -68 51 -111q35 -44 82 -67q54 -23 109 -23q61 0 98 15q46 18 64 32q5 4 21.5 15.5t23.5 17.5q17 14 41 14q33 0 47 -22zM893 1497l-254 -268 q-18 -21 -37 -27q-24 -8 -47 -8h-152l146 248q16 29 37 41q25 14 61 14h246z" />
<glyph unicode="&#x118;" horiz-adv-x="1175" d="M1102 -207l39 -94q-36 -22 -86 -37q-46 -14 -107 -14q-101 0 -153 41q-56 44 -56 108q0 57 37 109q34 48 109 94h-688h-156v121q0 51 51 63q2 0 105 19v1075q-86 16 -105 18q-51 12 -51 64v121h156h933v-144v-75v-170h-10h-24h-84q-38 0 -47 38q-6 31 -15 132h-477v-412 h502v-211h-502v-418h477q9 99 15 131q9 39 47 39h84h24h10v-170v-78v-143h-94q-29 -16 -39 -25q-24 -20 -34 -32q-17 -20 -25 -39q-10 -23 -10 -43q0 -29 20 -49q17 -17 53 -17q25 0 33 2q3 1 10 2t9 2q6 2 14 6q6 3 10 3q18 0 25 -17z" />
<glyph unicode="&#x119;" horiz-adv-x="1021" d="M729 -193q17 0 23 -14l39 -94q-38 -23 -84 -37t-107 -14q-102 0 -154 41q-55 43 -55 108q0 50 31 101q27 44 90 88q-105 6 -190 45q-95 43 -154 108q-60 66 -100 174q-37 101 -37 236q0 105 35 201q34 93 100 165q63 69 158 111q93 41 213 41q97 0 182 -31 q77 -28 143 -94q59 -59 94 -149t35 -203q0 -23 -4 -47q-4 -23 -8 -29q-5 -9 -18 -16q-8 -4 -29 -4h-649q12 -164 86 -238q76 -76 200 -76q63 0 107 15q54 17 78 30q38 20 59 33q22 14 47 14q32 0 47 -24l74 -92q-61 -70 -139 -107q-81 -38 -162 -53q-35 -23 -37 -25 q-26 -22 -33 -32q-14 -21 -22 -37t-8 -41q0 -31 18 -49q17 -17 55 -17h31q18 5 21 6q6 2 14 6h10zM541 887q-108 0 -172 -64t-82 -176h475q0 49 -12 92q-10 36 -41 76q-26 33 -70 51q-51 21 -98 21z" />
<glyph unicode="&#x131;" horiz-adv-x="634" d="M549 184q51 -12 51 -63v-121h-156h-251h-156v121q0 51 51 63l4 1q4 1 8 1q3 0 13.5 3t17.5 4q6 1 15.5 2.5t23.5 3.5t23 4v645q-9 2 -23 4t-23.5 3.5t-15.5 2.5q-7 1 -17.5 3.5t-13.5 2.5q-4 0 -8 1l-4 1q-51 12 -51 64v121h156h251v-848q9 -2 23 -4t23.5 -3.5t15.5 -2.5 q7 -1 17.5 -4t13.5 -3t7 -1t5 -1z" />
<glyph unicode="&#x141;" horiz-adv-x="1171" d="M1022 354h108v-207v-38v-109h-49h-6h-862h-156v121q0 51 52 63q8 0 14 2q13 4 31 7q7 1 27 4.5t32 5.5v338l-184 -92v188q0 34 30 49l154 80v512q-12 2 -32 5.5t-27 4.5t-17.5 3.5t-13.5 2.5q-6 2 -14 2q-52 12 -52 64v121h156h274h156v-121q0 -52 -51 -64q-6 0 -12 -2 q-8 -3 -31 -6q-6 -1 -15.5 -2.5t-23.5 -3.5t-23 -4v-387l367 182v-184q0 -38 -33 -55l-334 -172v-435h478q6 82 8 88q9 39 49 39z" />
<glyph unicode="&#x142;" horiz-adv-x="653" d="M586 819l-131 -57v-559q12 -2 32 -5.5t27 -4.5q17 -3 31 -7q6 -2 12 -2q51 -12 51 -63v-121h-153h-254h-156v121q0 51 51 63q9 0 15 2q14 5 30 7q7 1 27.5 4.5t32.5 5.5v471l-168 -68v150q0 37 30 49l138 57v457q-12 2 -32.5 5.5t-27.5 4.5t-17 3.5t-13 2.5t-8 1t-7 1 q-51 12 -51 64v121h156h252v-570l168 68v-146q0 -43 -35 -55z" />
<glyph unicode="&#x143;" horiz-adv-x="1630" d="M1446 1481h153v-121q0 -52 -51 -64l-4 -1q-4 -1 -8 -1q-3 0 -13.5 -2.5t-17.5 -3.5t-27 -4.5t-32 -5.5v-1278h-143q-31 0 -54 10q-21 9 -43 37l-774 985q4 -46 4 -63q0 -10 1 -30.5t1 -29.5v-706q36 -5 70 -10t47.5 -7t15.5 -2q52 -12 52 -63v-121h-185h-241h-156v121 q0 51 51 63q6 0 12 2q14 4 31 7q6 1 15.5 2.5t23.5 3.5t23 4v1075q-9 2 -23 4t-23.5 3.5t-15.5 2.5q-7 1 -17.5 3.5t-13.5 2.5q-4 0 -8 1l-4 1q-51 12 -51 64v121h156h143q6 0 17 -1t14 -1q13 0 22 -6q9 -3 19 -13q4 -4 20 -24l778 -990q-1 12 -6 70q-2 23 -2 66v696 q-129 18 -133 18q-51 12 -51 64v121h184h244zM1231 1835l-303 -221q-12 -9 -21 -15q-4 -3 -20 -8q-12 -4 -21 -4q-4 0 -11.5 -1t-12.5 -1h-199l201 209q18 18 22 21q12 9 23 12q12 6 26 6q4 0 15.5 1t19.5 1h281z" />
<glyph unicode="&#x144;" horiz-adv-x="1300" d="M1212 184q52 -12 52 -63v-121h-156h-252v668q0 95 -45 149q-44 53 -133 53q-64 0 -123 -30q-60 -31 -109 -80v-557q12 -2 32.5 -5.5t27.5 -4.5q18 -3 31 -7q6 -2 12 -2q51 -12 51 -63v-121h-154h-253h-154v121q0 51 51 63l4 1q4 1 8 1q14 4 31 7q7 1 27.5 4.5t32.5 5.5 v645q-12 2 -32.5 5.5t-27.5 4.5t-17.5 3.5t-13.5 2.5q-6 2 -12 2q-51 12 -51 64v121h154h155q49 0 64 -47l18 -82q27 31 66 59q34 27 75 45q59 26 84 31q52 10 99 10q88 0 153 -29q59 -24 111 -82q42 -51 67 -127q23 -70 23 -161v-465q10 -2 31.5 -5.5t29.5 -4.5 q7 -1 17.5 -4t13.5 -3q4 0 8 -1zM1010 1497l-252 -268q-18 -21 -37 -27q-24 -8 -47 -8h-152l146 248q18 32 34 41q24 14 62 14h246z" />
<glyph unicode="&#x152;" horiz-adv-x="2131" d="M1184 1481h901v-142v-77v-170h-8h-25h-86q-38 0 -47 38q-4 20 -14 132h-478v-410h502v-213h-502v-418h478q9 108 14 131q9 39 47 39h86h25h8v-170v-78v-143h-901v190q-90 -96 -209 -151q-115 -53 -270 -53q-161 0 -277 55q-125 56 -213 158q-87 101 -137 239 q-49 137 -49 303q0 164 49 301q50 140 137 240q88 102 213 158q126 57 277 57q153 0 268 -53q128 -59 211 -152v189zM1122 520q29 106 29 221q0 114 -29 220q-27 98 -82 165q-54 68 -133 107q-75 37 -174 37q-100 0 -178 -37t-133 -107q-51 -62 -82 -165q-31 -114 -31 -220 q0 -107 31 -221q32 -105 82 -166q55 -67 133 -104t178 -37q99 0 174 37q80 39 133 104q55 67 82 166z" />
<glyph unicode="&#x153;" horiz-adv-x="1720" d="M1270 1067q90 0 168 -35q76 -34 131 -98q60 -69 88 -156q31 -95 31 -207q0 -37 -2 -49q-2 -15 -9 -28q-6 -12 -16 -17q-8 -4 -29 -4h-612q15 -150 86 -221q72 -72 184 -72q58 0 99 15q46 17 71 32q10 6 29 16t27 15q22 14 49 14q29 0 45 -22l73 -92q-42 -48 -94 -84 q-54 -38 -104 -54q-49 -16 -111 -26q-49 -8 -108 -8q-111 0 -209 49q-100 50 -160 155q-61 -99 -160 -151q-100 -53 -229 -53q-109 0 -193 37q-87 38 -151 108q-58 64 -98 172q-35 95 -35 225q0 129 35 224q37 101 100 170q62 67 153 106q92 39 197 39q128 0 223 -53 q99 -55 158 -150q56 93 150 148t223 55zM532 180q121 0 179 88q57 86 57 258t-57 258q-59 90 -181 90q-121 0 -180 -90q-59 -89 -59 -258t59 -258q58 -88 182 -88zM1260 887q-105 0 -166 -70q-62 -72 -74 -190h444q0 49 -12 96q-11 44 -37 84q-23 36 -63 57q-44 23 -92 23z " />
<glyph unicode="&#x15a;" horiz-adv-x="1034" d="M977 621q29 -62 29 -158q0 -97 -35 -187t-101 -153q-65 -65 -161 -103q-91 -36 -217 -36h-31q-195 0 -424 77v37v344h8h25h84q38 0 47 -36q6 -26 18 -170q89 -27 281 -27q118 0 182 55q63 54 63 160q0 57 -28 96q-27 37 -78 62q-58 28 -109 43q-110 32 -124 37 q-52 17 -125 49q-59 26 -111 75q-50 47 -76 115q-31 77 -31 170q0 85 33 158q30 76 94 137q56 53 152 94q87 37 207 37q215 0 424 -84v-379h-8h-25h-84q-38 0 -47 39q-6 26 -18 166q-73 33 -240 33q-55 0 -98 -12q-46 -16 -72 -39q-31 -27 -45 -60q-14 -32 -14 -76 q0 -48 30 -86q28 -36 76 -59q65 -32 111 -45q24 -7 71 -23t54 -18q30 -10 124 -51q61 -27 111 -74q54 -51 78 -108zM969 1835l-303 -221q-12 -9 -21 -15q-4 -3 -20 -8q-12 -4 -21 -4q-4 0 -11.5 -1t-12.5 -1h-199l201 209q18 18 22 21q12 9 23 12q12 6 24 6q5 0 16 1t19 1 h283z" />
<glyph unicode="&#x15b;" horiz-adv-x="839" d="M737 846q-11 -19 -20 -23q-12 -6 -29 -6q-16 0 -39 10q-7 3 -23.5 11t-25.5 12q-34 15 -63 22q-46 11 -82 11q-74 0 -119 -31q-43 -30 -43 -84q0 -32 22 -57q17 -19 58 -39q53 -26 82 -33q18 -5 52 -16t42 -13q23 -7 94 -39q41 -18 84 -53q36 -28 57 -76q23 -51 23 -108 q0 -72 -29 -141q-27 -64 -80 -111q-56 -49 -131 -72q-86 -26 -180 -26q-48 0 -106 10q-52 9 -99 26q-49 18 -88 41t-71 52l59 96q14 21 24 27q17 10 41 10q17 0 43 -15q14 -8 50 -28q35 -19 65 -29q44 -14 94 -14q48 0 78 12q36 14 53 29q24 21 31 39q8 21 8 47q0 38 -20 61 q-18 21 -60 41q-45 22 -81 31q-18 5 -51.5 16t-45.5 15q-30 9 -94 38q-45 21 -84 56q-36 34 -57 82q-23 54 -23 118q0 62 25 123q23 57 76 103q51 45 125 69q83 27 170 27q115 0 198 -35q94 -40 148 -94zM815 1497l-254 -268q-18 -21 -37 -27q-24 -8 -47 -8h-151l145 248 q16 29 37 41q25 14 61 14h246z" />
<glyph unicode="&#x160;" horiz-adv-x="1034" d="M977 621q29 -62 29 -158q0 -97 -35 -187t-101 -153q-65 -65 -161 -103q-91 -36 -217 -36h-31q-195 0 -424 77v37v344h8h25h84q38 0 47 -36q6 -26 18 -170q89 -27 281 -27q118 0 182 55q63 54 63 160q0 57 -28 96q-27 37 -78 62q-58 28 -109 43q-110 32 -124 37 q-52 17 -125 49q-59 26 -111 75q-50 47 -76 115q-31 77 -31 170q0 85 33 158q30 76 94 137q56 53 152 94q87 37 207 37q215 0 424 -84v-379h-8h-25h-84q-38 0 -47 39q-6 26 -18 166q-73 33 -240 33q-55 0 -98 -12q-46 -16 -72 -39q-31 -27 -45 -60q-14 -32 -14 -76 q0 -48 30 -86q28 -36 76 -59q65 -32 111 -45q24 -7 71 -23t54 -18q30 -10 124 -51q61 -27 111 -74q54 -51 78 -108zM190 1810h191q11 0 35 -4q15 -3 28 -12l105 -70q1 -1 4 -2t4 -2t3 -2t3 -2q1 1 4 2t4 2t4.5 2t4.5 2l102 70q12 9 31 12q24 4 32 4h193l-248 -225h-252z" />
<glyph unicode="&#x161;" horiz-adv-x="833" d="M737 846q-11 -19 -20 -23q-12 -6 -29 -6q-16 0 -39 10q-7 3 -23.5 11t-25.5 12q-34 15 -63 22q-46 11 -82 11q-74 0 -119 -31q-43 -30 -43 -84q0 -32 22 -57q17 -19 58 -39q53 -26 82 -33q18 -5 52 -16t42 -13q23 -7 94 -39q41 -18 84 -53q36 -28 57 -76q23 -51 23 -108 q0 -72 -29 -141q-27 -64 -80 -111q-56 -49 -131 -72q-86 -26 -180 -26q-48 0 -106 10q-52 9 -99 26q-49 18 -88 41t-71 52l59 96q14 21 24 27q17 10 41 10q17 0 43 -15q14 -8 50 -28q35 -19 65 -29q44 -14 94 -14q48 0 78 12q36 14 53 29q24 21 31 39q8 21 8 47q0 38 -20 61 q-18 21 -60 41q-45 22 -81 31q-18 5 -51.5 16t-45.5 15q-30 9 -94 38q-45 21 -84 56q-36 34 -57 82q-23 54 -23 118q0 62 25 123q23 57 76 103q51 45 125 69q83 27 170 27q115 0 198 -35q94 -40 148 -94zM569 1196h-237l-234 285h174q17 0 29 -6q14 -7 23 -13l108 -98 q2 -2 6.5 -6t8.5 -8.5t8 -8.5q2 2 5 6.5t5 6.5l10 10l109 98q16 10 22 13q15 6 29 6h168z" />
<glyph unicode="&#x178;" horiz-adv-x="1486" d="M1419 1481h35v-121q0 -52 -51 -64q-2 0 -6.5 -1t-7.5 -1t-13.5 -2.5t-17.5 -3.5t-27.5 -4.5t-32.5 -5.5l-417 -703v-372q10 -2 31.5 -5.5t29.5 -4.5q7 -1 16.5 -4t12.5 -3q4 0 9 -1l5 -1q51 -12 51 -63v-121h-155h-275h-155v121q0 51 51 63q6 0 12 2q14 4 31 7 q8 1 29.5 4.5t31.5 5.5v372l-420 703q-12 2 -32 5.5t-27 4.5t-17.5 3.5t-13.5 2.5q-6 2 -12 2q-51 12 -51 64v121h33h36h84h123h277v-121q0 -52 -51 -64q-1 0 -5 -1t-6 -1q-6 -3 -18 -6q-5 -1 -17 -3.5t-14 -2.5l197 -358q23 -42 41 -82q8 -18 32 -78q11 38 29 78t41 82 l195 358q-25 5 -29 6l-10.5 3.5t-9.5 2.5q-4 2 -9 2q-51 12 -51 64v121h275h122h84h37zM662 1708q0 -31 -11 -53q-13 -26 -30 -43q-19 -19 -46 -29t-55 -10q-24 0 -51 10q-19 7 -41 29q-19 19 -31 43q-10 20 -10 53q0 31 10 51q14 28 31 45q21 21 41 31t51 10q35 0 55 -10 q30 -15 46 -31q15 -15 30 -45q11 -22 11 -51zM1104 1708q0 -33 -10 -53q-14 -28 -29 -43q-19 -19 -45 -29q-27 -10 -53 -10q-27 0 -54 10q-22 8 -43 29q-22 22 -30 43q-11 22 -11 53q0 29 11 51q15 30 30 45t43 29q24 12 54 12q29 0 53 -12q32 -16 45 -29t29 -45 q10 -20 10 -51z" />
<glyph unicode="&#x179;" horiz-adv-x="1212" d="M1151 1292l-760 -1073h594q4 38 9 72.5t7.5 50.5t2.5 18q9 39 47 39h108v-180v-219h-1124v109q0 20 6 38q8 25 18 37l762 1078h-563q-4 -40 -9 -76t-7 -52t-2 -18q-9 -39 -47 -39h-109l-2 404h1096v-103q0 -46 -27 -86zM1028 1835l-303 -221l-20 -15q-3 -2 -21 -8 q-12 -4 -20 -4q-4 0 -12 -1t-13 -1h-199l201 209q15 15 23 21q13 10 22 12q12 6 27 6q5 0 15 1t17 1h283z" />
<glyph unicode="&#x17a;" horiz-adv-x="897" d="M868 344h9v-344h-29h-4h-807v106q0 20 8 41q11 30 25 46l503 663h-329q-7 -76 -13 -102q-9 -39 -47 -39h-84h-24h-10v323v13h796v-105q0 -30 -8 -51q-5 -13 -25 -43l-497 -657h366q10 95 13 110q9 39 47 39h86h24zM831 1497l-251 -268q-17 -20 -39 -27q-24 -8 -45 -8 h-152l145 248q17 31 35 41q24 14 62 14h245z" />
<glyph unicode="&#x17b;" horiz-adv-x="1212" d="M1151 1292l-760 -1073h594q4 38 9 72.5t7.5 50.5t2.5 18q9 39 47 39h108v-180v-219h-1124v109q0 20 6 38q8 25 18 37l762 1078h-563q-4 -40 -9 -76t-7 -52t-2 -18q-9 -39 -47 -39h-109l-2 404h1096v-103q0 -46 -27 -86zM791 1737q0 -26 -15 -60q-11 -25 -33 -47 q-19 -19 -51 -33q-27 -12 -61 -12q-31 0 -58 12q-25 11 -47 33q-24 24 -34 47q-13 29 -13 60q0 30 13 59q12 27 34 49t47 33q27 12 58 12q34 0 61 -12q29 -13 49 -33q24 -24 35 -49q15 -34 15 -59z" />
<glyph unicode="&#x17c;" horiz-adv-x="897" d="M868 344h9v-344h-29h-4h-807v106q0 20 8 41q11 30 25 46l503 663h-329q-7 -76 -13 -102q-9 -39 -47 -39h-84h-24h-10v323v13h796v-105q0 -30 -8 -51q-5 -13 -25 -43l-497 -657h366q10 95 13 110q9 39 47 39h86h24zM641 1360q0 -27 -14 -62q-9 -23 -35 -49 q-24 -24 -51 -35q-35 -14 -66 -14q-29 0 -61 14q-25 11 -49 35q-26 26 -35 49q-13 32 -13 62t13 63q11 28 35 52q20 20 51 34q34 15 61 15t64 -15q28 -11 51 -34q27 -27 37 -52q12 -30 12 -63z" />
<glyph unicode="&#x17d;" horiz-adv-x="1212" d="M1151 1292l-760 -1073h594q4 38 9 72.5t7.5 50.5t2.5 18q9 39 47 39h108v-180v-219h-1124v109q0 20 6 38q8 25 18 37l762 1078h-563q-4 -40 -9 -76t-7 -52t-2 -18q-9 -39 -47 -39h-109l-2 404h1096v-103q0 -46 -27 -86zM262 1810h191q10 0 34 -4q17 -3 29 -12l102 -70 q1 -1 4.5 -2t4.5 -2t4 -3t4 -3q1 1 4 3t4 3t4 2t4 2l103 70q13 9 28 12q24 4 35 4h191l-246 -225h-254z" />
<glyph unicode="&#x17e;" horiz-adv-x="894" d="M868 344h9v-344h-29h-4h-807v106q0 20 8 41q11 30 25 46l503 663h-329q-7 -76 -13 -102q-9 -39 -47 -39h-84h-24h-10v323v13h796v-105q0 -30 -8 -51q-5 -13 -25 -43l-497 -657h366q10 95 13 110q9 39 47 39h86h24zM596 1196h-238l-235 285h176q17 0 29 -6q10 -5 22 -13 l109 -98q8 -8 20 -23l13 13l10 10l108 98q14 10 23 13q15 6 29 6h167z" />
<glyph unicode="&#x192;" horiz-adv-x="1007" d="M645 762l-84 -703q-11 -101 -53 -186q-40 -81 -105 -129q-70 -51 -159 -74q-87 -22 -221 -22v131q0 78 79 78q44 0 78 12q37 13 62 35t43 63t24 99l84 692l-125 18q-57 12 -57 64v102h207l16 152q23 201 156 309q128 104 383 104v-139q0 -39 -19 -55q-20 -17 -61 -17 q-49 0 -78 -10q-30 -10 -61 -37q-30 -27 -47 -65q-20 -44 -25 -97l-20 -145h301v-180h-318z" />
<glyph unicode="&#x2c6;" horiz-adv-x="796" d="M752 1196h-170q-32 0 -50 18l-108 97q-2 2 -5 6t-5 6l-13 12q-2 -2 -5 -6t-5 -6t-5 -6t-5 -6l-111 -97q-12 -8 -20 -12q-12 -6 -29 -6h-176l234 285h237z" />
<glyph unicode="&#x2da;" horiz-adv-x="550" d="M49 1356q0 48 17 86q16 35 51 67q32 28 71 43q46 17 86 17q39 0 88 -17q43 -15 74 -43q35 -32 51 -67q19 -43 19 -86q0 -42 -19 -82q-17 -35 -51 -66q-31 -28 -74 -43q-41 -14 -88 -14q-48 0 -86 14q-39 15 -71 43q-34 31 -51 66t-17 82zM184 1356q0 -39 25 -64 q26 -26 70 -26q39 0 65 26q25 25 25 64q0 44 -25 69t-65 25q-45 0 -70 -25t-25 -69z" />
<glyph unicode="&#x2dc;" horiz-adv-x="753" d="M485 1393q31 0 47 16q19 19 19 61h154q0 -51 -17 -104q-14 -43 -43 -80q-25 -32 -65 -51q-37 -18 -86 -18q-38 0 -68 12q-31 12 -59 28q-2 1 -22.5 12.5t-29.5 16.5q-28 14 -45 14q-29 0 -47 -18q-16 -16 -16 -61h-158q0 51 17 104q12 38 45 80q26 33 67 53q35 17 84 17 q36 0 68 -13q31 -12 59 -28q45 -25 53 -29q24 -12 43 -12z" />
<glyph unicode="&#x2000;" horiz-adv-x="959" />
<glyph unicode="&#x2001;" horiz-adv-x="1919" />
<glyph unicode="&#x2002;" horiz-adv-x="959" />
<glyph unicode="&#x2003;" horiz-adv-x="1919" />
<glyph unicode="&#x2004;" horiz-adv-x="639" />
<glyph unicode="&#x2005;" horiz-adv-x="479" />
<glyph unicode="&#x2006;" horiz-adv-x="319" />
<glyph unicode="&#x2007;" horiz-adv-x="319" />
<glyph unicode="&#x2008;" horiz-adv-x="239" />
<glyph unicode="&#x2009;" horiz-adv-x="383" />
<glyph unicode="&#x200a;" horiz-adv-x="106" />
<glyph unicode="&#x2010;" horiz-adv-x="647" d="M57 725h533v-213h-533v213z" />
<glyph unicode="&#x2011;" horiz-adv-x="647" d="M57 725h533v-213h-533v213z" />
<glyph unicode="&#x2012;" horiz-adv-x="647" d="M57 725h533v-213h-533v213z" />
<glyph unicode="&#x2013;" horiz-adv-x="946" d="M57 705h832v-181h-832v181z" />
<glyph unicode="&#x2014;" horiz-adv-x="1505" d="M57 705h1391v-181h-1391v181z" />
<glyph unicode="&#x2018;" horiz-adv-x="378" d="M113 999q-70 113 -70 230q0 107 51 196q56 98 152 172l78 -49q12 -8 14 -14q4 -12 4 -16q0 -7 -4 -19q-1 -3 -10 -12q-5 -7 -27 -37q-15 -21 -27 -45q-7 -14 -20 -53q-8 -24 -8 -62q0 -39 10 -73q11 -37 39 -82q8 -13 8 -29q0 -33 -37 -45z" />
<glyph unicode="&#x2019;" horiz-adv-x="376" d="M266 1569q34 -53 53 -115q17 -55 17 -115q0 -107 -51 -196q-55 -96 -150 -172l-78 49q-15 10 -16 14q-4 12 -4 19q0 18 14 32q4 5 29 35q11 14 26 43q16 32 21 54q8 36 8 61q0 34 -12 74q-14 47 -37 84q-10 13 -10 26q0 35 39 47z" />
<glyph unicode="&#x201a;" horiz-adv-x="395" d="M274 299q35 -54 54 -117q16 -52 16 -112q0 -108 -51 -197q-55 -96 -150 -172l-77 47q-12 8 -15 16q-4 12 -4 17q0 19 14 33q2 2 11.5 14.5t15.5 19.5q10 12 27 46q16 31 20 51q8 36 8 61q0 36 -12 76q-13 43 -37 82q-8 11 -8 29q0 33 37 45z" />
<glyph unicode="&#x201c;" horiz-adv-x="718" d="M113 999q-70 113 -70 230q0 107 51 196q56 98 152 172l78 -49q12 -8 14 -14q4 -12 4 -16q0 -7 -4 -19q-1 -3 -10 -12q-5 -7 -27 -37q-15 -21 -27 -45q-7 -14 -20 -53q-8 -24 -8 -62q0 -39 10 -73q11 -37 39 -82q8 -13 8 -29q0 -33 -37 -45zM453 999q-70 113 -70 230 q0 107 51 196q56 98 152 172l78 -49q12 -8 14 -14q4 -12 4 -16q0 -7 -4 -19q-2 -6 -8 -12q-24 -30 -29 -37q-15 -21 -27 -45q-7 -14 -20 -53q-8 -24 -8 -62q0 -39 10 -73q11 -37 39 -82q8 -13 8 -29q0 -33 -37 -45z" />
<glyph unicode="&#x201d;" horiz-adv-x="716" d="M266 1569q34 -53 53 -115q17 -55 17 -115q0 -107 -51 -196q-55 -96 -150 -172l-78 49q-15 10 -16 14q-4 12 -4 19q0 18 14 32q4 5 14 16t15 17q9 10 26 45q16 32 21 54q8 36 8 61q0 34 -12 74q-14 47 -37 84q-10 13 -10 26q0 35 39 47zM606 1569q34 -53 53 -115 q17 -55 17 -115q0 -107 -51 -196q-55 -96 -150 -172l-80 49q-12 8 -14 14q-4 12 -4 17q0 18 14 32q4 5 29 35q9 10 26 45q16 32 21 54q6 27 6 61q0 40 -10 74q-14 47 -37 84q-10 13 -10 26q0 35 39 47z" />
<glyph unicode="&#x201e;" horiz-adv-x="735" d="M274 299q36 -56 54 -115q16 -52 16 -114q0 -108 -51 -197q-55 -96 -150 -172l-77 49q-13 9 -15 14q-4 12 -4 17q0 19 14 33q2 2 11.5 14.5t15.5 19.5q14 17 27 43q14 29 20 54q8 36 8 61q0 36 -12 76q-13 43 -37 82q-8 11 -8 29q0 33 37 45zM614 297q36 -56 54 -115 q16 -52 16 -114q0 -106 -51 -195q-55 -96 -150 -172l-77 47q-12 8 -15 16q-4 12 -4 17q0 21 12 33q4 5 14.5 17t14.5 17q14 16 27 43q14 29 20 54q8 36 8 61q0 36 -12 76q-13 43 -37 82q-8 11 -8 29q0 33 37 45z" />
<glyph unicode="&#x2020;" horiz-adv-x="1089" d="M35 934q0 23 6 41q7 23 22 37q14 14 37 24q19 8 54 8q57 0 139 -16q127 -25 153 -29l-32 500q53 33 131 33q40 0 71 -8q28 -7 60 -25l-33 -500q31 5 154 29q82 16 141 16q34 0 53 -8q23 -10 37 -24q13 -13 21 -37t8 -41v-82h-414v-365l33 -819q-27 -15 -62 -24t-69 -9 q-78 0 -131 33l32 819v365h-411v82z" />
<glyph unicode="&#x2021;" horiz-adv-x="1095" d="M37 934q0 17 8 41t21 37q15 15 36 24q19 8 54 8q59 0 141 -16q132 -26 152 -29l-31 500q53 33 131 33q38 0 69 -8q32 -8 62 -25l-33 -500q21 3 152 29q82 16 141 16q34 0 53 -8q23 -10 37 -24q16 -16 23 -37q6 -18 6 -41v-82h-412v-533h412v-86q0 -22 -6 -40 q-5 -15 -23 -33q-16 -16 -37 -25q-23 -10 -53 -10q-59 0 -141 16q-80 16 -152 27l33 -500q-27 -15 -62 -24q-34 -9 -69 -9q-78 0 -131 33l31 500q-81 -13 -154 -27q-82 -16 -139 -16q-31 0 -54 10q-19 8 -36 25q-15 15 -21 33q-8 24 -8 40v86h414v533h-414v82z" />
<glyph unicode="&#x2022;" horiz-adv-x="983" d="M45 606q0 100 35 174q41 87 96 142q62 62 141 96q81 35 175 35q90 0 174 -35q77 -32 141 -96q55 -55 96 -142q35 -74 35 -174q0 -96 -35 -170q-40 -85 -96 -141q-59 -59 -143 -94t-172 -35q-94 0 -175 35q-83 36 -141 94q-56 56 -96 141q-35 74 -35 170z" />
<glyph unicode="&#x2026;" horiz-adv-x="1509" d="M53 139q0 33 13 62q14 31 32 49q20 20 49 33q27 12 62 12q34 0 61 -12q29 -13 49 -33t33 -49t13 -62q0 -32 -13 -61q-11 -25 -33 -47q-20 -20 -49 -33q-27 -12 -59 -12q-34 0 -61 12q-34 15 -52 33q-20 20 -32 47q-13 29 -13 61zM1147 139q0 35 12 62q13 29 33 49t49 33 q27 12 62 12q34 0 61 -12q29 -13 49 -33t33 -49q12 -27 12 -62q0 -34 -12 -61q-13 -29 -33 -49q-17 -17 -49 -31q-27 -12 -61 -12q-35 0 -62 12q-32 14 -49 31q-20 20 -33 49q-12 27 -12 61zM600 139q0 33 12 60q13 29 33 49q22 22 51 35q27 12 62 12q32 0 59 -12 q29 -13 49 -33t33 -49q12 -27 12 -62q0 -34 -12 -61q-13 -29 -33 -49q-17 -17 -49 -31q-27 -12 -59 -12q-35 0 -62 12q-36 16 -51 31q-20 20 -33 49q-12 27 -12 61z" />
<glyph unicode="&#x202f;" horiz-adv-x="383" />
<glyph unicode="&#x2030;" horiz-adv-x="2349" d="M721 1122q0 -78 -29 -151q-24 -59 -76 -115q-47 -50 -108 -74q-62 -24 -131 -24q-73 0 -135 24t-109 74q-50 53 -72 115q-24 67 -24 151q0 86 24 156q23 66 72 119q45 48 109 73t135 25q73 0 137 -25t109 -73q48 -51 71 -119q27 -79 27 -156zM524 1122q0 58 -12 99 q-12 39 -31 65q-16 21 -47 35q-22 10 -57 10t-58 -10q-28 -13 -45 -35q-22 -29 -30 -65q-11 -37 -11 -99t11 -96q12 -37 30 -61q20 -27 45 -35q24 -8 58 -8q33 0 57 8q28 9 47 35q24 31 33 61q10 31 10 96zM1212 1442q9 11 31 26q19 13 51 13h185l-1102 -1444 q-11 -14 -31 -27q-15 -10 -45 -10h-188zM1556 348q0 -81 -28 -151q-24 -59 -76 -115q-47 -50 -109 -74q-67 -26 -131 -26q-68 0 -135 26q-61 24 -108 74q-50 53 -72 115q-27 76 -27 151q0 77 27 156q23 66 72 119q46 49 108 73q64 25 135 25q74 0 138 -25q62 -24 108 -73 q49 -53 72 -119q26 -76 26 -156zM1360 348q0 67 -10 101q-9 31 -33 63q-16 21 -47 35q-27 12 -58 12q-30 0 -57 -12q-28 -13 -45 -35q-20 -27 -31 -63q-10 -34 -10 -101q0 -62 10 -96t31 -62q19 -25 45 -34q33 -11 57 -11q25 0 58 11q29 10 47 34q24 32 33 62q10 34 10 96z M2314 348q0 -81 -28 -151q-24 -59 -76 -115q-47 -50 -109 -74q-67 -26 -131 -26q-68 0 -135 26q-62 24 -109 74q-48 52 -71 115q-25 70 -25 151q0 83 25 156q23 68 71 119q45 48 109 73q69 27 135 27q68 0 137 -27q69 -30 109 -73q49 -53 72 -119q26 -76 26 -156zM2120 348 q0 57 -13 101q-11 38 -30 63q-20 23 -47 35t-60 12q-30 0 -57 -12q-28 -13 -45 -35q-20 -27 -31 -63q-10 -34 -10 -101q0 -62 10 -96t31 -62q19 -25 45 -34q33 -11 57 -11q27 0 60 11q29 10 47 34q18 20 30 62q13 44 13 96z" />
<glyph unicode="&#x2039;" horiz-adv-x="466" d="M41 535v32l262 406l82 -39q22 -9 31 -25q10 -17 10 -30q0 -19 -14 -43l-142 -242q-17 -30 -32 -43q18 -18 32 -43l142 -242q14 -25 14 -45q0 -36 -39 -53l-84 -39z" />
<glyph unicode="&#x203a;" horiz-adv-x="471" d="M168 129l-82 39q-22 9 -31 25q-10 17 -10 30q0 18 14 43l142 242q14 25 32 43q-15 13 -32 43l-142 242q-14 24 -14 43q0 37 41 55l82 39l262 -406v-32z" />
<glyph unicode="&#x2044;" horiz-adv-x="1157" d="M266 74q-27 -43 -57 -58q-32 -16 -70 -16h-108l854 1397q23 38 55 61q33 23 78 23h108z" />
<glyph unicode="&#x205f;" horiz-adv-x="479" />
<glyph unicode="&#x20ac;" horiz-adv-x="1202" d="M41 950h137q25 131 74 226q53 103 125 172q71 68 168 108q95 39 203 39q142 0 243 -55q98 -53 168 -148l-88 -96q-6 -8 -22 -20q-12 -9 -31 -9q-15 0 -27 9q-4 3 -12 9.5t-12 10.5q-15 12 -33 27q-17 14 -41 26q-26 13 -57 21t-78 8q-121 0 -203 -82q-83 -82 -117 -246 h514v-78q0 -25 -18 -43q-20 -20 -51 -20h-461q0 -6 -1 -18t-1 -17v-33v-24q0 -4 1 -12.5t1 -12.5h434v-78q0 -23 -20 -43q-18 -18 -50 -18h-352q27 -176 109 -264q80 -86 202 -86q71 0 119 20q44 18 72 43q18 16 47 45q21 21 41 21q8 0 20 -4q6 -2 17 -13l110 -102 q-69 -108 -182 -168q-112 -59 -256 -59q-121 0 -217 41q-99 43 -166 112q-69 72 -117 180q-41 93 -61 234h-131v139h119v25v24v33v35h-119v141z" />
<glyph unicode="&#x2212;" horiz-adv-x="1021" d="M57 782h908v-188h-908v188z" />
<glyph unicode="&#x25fc;" horiz-adv-x="1054" d="M0 1055h1055v-1055h-1055v1055z" />
</font>
</defs>
</svg>
